#TITLE:Taco Bell Love Story;
#SUBTITLE:;
#ARTIST:Duplica;
#TITLETRANSLIT:;
#SUBTITLETRANSLIT:;
#ARTISTTRANSLIT:;
#CREDIT:;
#BANNER:../ban - Jawn2.png;
#BACKGROUND:../Jawn2 - bg.png;
#LYRICSPATH:;
#CDTITLE:../CDa.png;
#MUSIC:Taco Bell Love Story.ogg;
#OFFSET:0.009;
#SAMPLESTART:44.180;
#SAMPLELENGTH:16.670;
#SELECTABLE:YES;
#DISPLAYBPM:230.000;
#BPMS:0.000=144.078,16.000=230.357;
#STOPS:;
#BGCHANGES:;
// cache tags:
#FIRSTBEAT:16.000;
#LASTBEAT:486.000;
#SONGFILENAME:Songs/Jimmy Jawns 2/Taco Bell Love Story - [Aoreo]/Taco Bell Love Story.sm;
#HASMUSIC:1;
#HASBANNER:1;
#MUSICLENGTH:130.342;
// end cache tags

//---------------dance-single - J. Nero----------------
#NOTES:
     dance-single:
     J. Nero:
     Challenge:
     15:
     1.000,1.000,0.015,0.222,0.760,964.000,2.000,29.000,1.000,0.000:
0000
0000
0000
0000
,
0000
0000
0000
0000
,
0000
0000
0000
0000
,
0000
0000
0000
0000
,
1000
0001
0100
0001
1000
0100
0010
0100
,
1000
0010
0100
0010
0100
0001
0010
0001
,
1000
0100
0010
0001
1000
0010
0100
0010
,
1000
0000
0100
0000
0010
0000
0100
0000
0010
0000
0001
0000
0100
0001
1000
0100
,
0010
0001
0100
0001
1000
0010
1000
0100
,
0010
0001
0010
0001
0100
0010
1000
0001
,
0010
0100
0010
0001
1000
0010
0100
0010
,
1000
0000
0001
0000
1000
0000
0100
0000
0010
0000
0100
0000
1000
0001
1000
0100
,
0020
0000
0000
0000
0000
0000
0000
0031
,
2000
0000
3020
0230
,
0302
0000
0000
0000
0000
0000
0000
1003
,
0020
0000
0000
0000
0000
0000
0000
0000
1030
0000
0001
0000
0010
0100
1000
0001
,
2000
0000
0000
3001
0100
0010
0100
0000
,
0002
0000
0000
0000
0000
0000
0000
1003
,
0100
0000
0000
0000
0010
0000
0000
0000
0001
1000
0001
0010
0100
0000
0000
0000
,
1000
0000
0000
0000
0000
0000
0000
0000
0001
0000
0000
0000
0000
0000
0200
0300
0010
0000
0000
0000
0100
0000
0000
0000
0001
0000
1000
0000
0100
0000
0010
0000
,
0001
0100
0001
0010
0001
1000
0001
0100
,
0001
0010
0001
1000
0010
0100
0010
1000
,
0100
0010
0100
1000
0100
0010
0100
1000
,
0010
0000
0100
0000
0010
0000
1000
0000
0001
1000
0001
0010
0100
0000
1000
0000
,
0010
0100
0010
1000
0010
0100
0010
1000
,
0001
0010
0100
0010
0001
0010
0100
0010
,
0001
2000
3000
0100
2000
3000
0020
0030
,
2000
0000
0000
0000
0000
0000
3001
0100
,
0001
0010
0100
1000
0010
0100
0020
0030
,
1000
0000
0000
0000
0100
0000
0000
0000
1000
0000
0000
0000
0001
0000
0000
0000
0000
0000
0100
0000
0000
0001
0000
0000
,
1000
0100
0010
0100
1000
0010
0100
0001
,
0010
0100
0000
1000
0010
0000
0100
0000
,
0001
0000
0000
0000
0100
0000
0010
0000
1000
0001
1000
0100
0010
0001
0100
0001
,
1000
0010
0100
0010
1000
0000
0001
0000
1000
0000
0100
0000
0010
0000
0000
0000
,
0001
0000
0000
1000
0000
0010
0000
1000
0000
0100
0000
0000
,
0010
0000
0001
1000
0001
0000
0000
0000
1000
0000
0000
0000
0001
1000
0001
0010
,
0100
1000
0010
0100
0001
1000
0100
0100
,
0010
1000
0100
0010
0001
1000
0100
0100
,
0001
0010
0001
0100
0010
1000
0100
0100
,
0001
0000
1000
0000
0001
0000
0100
0000
0001
0000
1000
0000
0010
0100
0010
0100
,
0001
0010
0100
0010
0001
1000
0100
0100
,
0001
1000
0010
0100
0010
1000
0100
0100
,
0001
0010
0001
0100
0010
1000
0100
0100
,
0001
0000
0010
0000
0001
0000
0100
0000
0001
1000
0001
0100
0010
1000
0001
1000
,
0100
0010
0001
0100
0001
1000
0010
0010
,
0001
0100
0010
0100
0001
0010
0100
0100
,
0001
1000
0100
0010
0001
1000
0010
0010
,
0001
0000
0100
0000
0001
0000
0010
0000
0001
0000
0100
0000
0010
1000
0010
1000
,
0100
0010
0001
1000
0010
1000
0100
0100
,
0001
0010
0100
0010
0001
1000
0010
0010
,
0001
1000
0010
0100
0001
1000
0010
0010
,
0001
0000
0100
0000
0001
0000
0010
0000
0001
1000
0001
0010
0100
1000
0001
0100
,
0001
0100
0010
1000
0100
1000
0100
0010
,
0001
0100
0010
1000
0100
1000
0100
0010
,
0001
0100
0010
1000
0100
1000
0100
0010
,
0001
1000
0001
0100
0010
0000
0000
0000
0000
0000
0000
0000
0000
0000
0000
0000
,
1200
0300
1000
0000
0010
0000
0100
0000
0001
0000
0010
0000
0001
0000
0010
0000
,
0100
1000
0010
0100
0001
0010
0001
0010
,
0100
1000
0010
0100
0001
0010
0001
0010
,
0100
1000
0001
1000
0010
0000
0100
0000
0001
1000
0001
0010
0100
1000
0010
0100
,
0001
0100
0001
0010
0100
1000
0100
1000
,
0010
0100
0001
0010
0100
1000
0100
1000
,
0010
0100
0001
0010
0100
1000
0100
1000
,
0010
0000
0100
0000
0001
0000
1000
0000
0100
0000
0010
0000
0002
0000
0000
0003
,
1000
0010
0100
0001
0010
0001
0010
0100
,
1000
0010
0100
0001
0010
0001
0010
0100
,
1000
0010
0100
0001
0010
0001
0010
0100
,
1000
0001
1000
0010
0100
0000
0001
0000
0010
0100
1000
0001
1000
0010
0100
0001
,
0100
0000
0000
0000
0001
0000
1000
0000
0000
0000
1000
0000
0000
0001
0000
0000
,
1000
0000
0010
0100
0000
0100
0002
0013
,
0100
0000
0000
0000
1000
0000
0001
0000
0000
0000
0001
0000
0000
0100
0000
0000
,
0010
0000
1000
0100
0000
0100
0020
0031
,
1000
0010
0100
0001
,
1000
0100
0010
0001
,
1000
0010
0100
0001
,
1000
0000
0001
0000
0100
0000
0001
0000
0010
0100
1000
0001
1000
0010
0100
0010
,
1000
0001
0010
0100
0010
0001
0100
0001
1000
0010
1000
0100
0010
0001
1000
0010
,
0100
0010
1000
0001
0010
0100
0010
0001
0100
0001
1000
0100
0010
0001
0100
0001
,
1000
0010
0100
0010
1000
0001
0010
0100
0010
0001
1000
0001
0100
0010
1000
0010
,
0100
0001
1000
0100
0010
0001
0100
0001
1000
0100
0010
0100
1000
0010
0100
0001
,
1000
0010
1000
0001
0100
0001
0010
0100
1000
0001
1000
0010
0100
0010
1000
0001
,
0010
0100
0010
0001
1000
0010
0100
0010
1000
0100
0010
0001
0100
0001
1000
0010
,
0100
0001
1000
0100
0010
0100
1000
0010
0100
0010
1000
0001
1000
0100
0010
0001
,
0100
0001
1000
0010
0100
0010
1000
0001
1000
0100
0010
0001
0100
0001
1000
0010
,
1000
0001
0010
0100
0010
0001
1000
0010
0100
0010
1000
0001
1000
0100
0010
0001
,
0100
0001
1000
0010
0100
0010
1000
0001
0010
0100
0010
0001
0100
0010
1000
0010
,
0100
0001
1000
0010
1000
0100
0010
0001
1000
0001
0100
0010
0100
0001
1000
0100
,
0010
0100
1000
0010
0100
0001
1000
0100
0010
0001
1000
0001
0100
0010
0100
0001
,
0010
0100
1000
0001
0100
0010
0100
0001
1000
0010
1000
0100
0010
0001
1000
0001
,
0100
0010
1000
0010
0100
0001
1000
0100
0010
0100
1000
0010
0100
0001
1000
0001
,
0010
0100
1000
0010
0100
0001
0100
0010
1000
0100
0010
0001
0100
0001
1000
0010
,
1000
0100
0010
0001
1000
0001
1000
0010
0100
0010
1000
0001
1000
0100
0010
0001
,
1000
0001
0100
0001
1000
0001
0100
0001
,
1000
0100
1000
0001
1000
0100
1000
0001
,
0100
0010
1000
0010
0100
0010
1000
0001
,
0010
0100
0010
0001
0010
0100
0010
0001
,
1000
0001
0010
0100
0010
0001
1000
0010
,
1000
0001
0010
0100
0010
0001
1000
0010
,
1000
0100
0010
0001
0100
0001
0010
0100
,
1000
0000
0001
0000
1000
0000
0010
0000
0100
0001
1000
0001
0010
0100
1000
0001
,
0200
0000
0000
0000
,
0302
0000
0000
2003
,
3200
0000
0000
0000
,
0320
0000
0000
0000
,
0031
2000
3000
0010
2000
3000
0100
0010
,
0001
0000
0001
0000
1000
0200
0000
0300
,
1000
0001
1000
0100
0020
0030
0001
1000
,
0000
0000
0000
0000
0000
0000
0001
0001
,
1000
0010
0100
0001
0010
0001
0010
0100
,
1000
0010
0100
0001
0010
0001
0010
0100
,
1000
0010
0100
0001
0010
0001
0010
0100
,
1000
0001
1000
0000
0001
0010
0100
0000
1000
0000
0010
0000
0400
0000
0300
0000
,
0201
0300
0001
0000
0100
0000
0010
0000
1000
0000
0100
0000
1000
0000
0100
0000
,
0010
0001
0100
0010
1000
0100
1000
0100
,
0010
0001
0100
0010
1000
0100
1000
0100
,
0010
0001
1000
0001
0100
0000
0010
0000
1000
0001
1000
0100
0010
0001
1000
0001
,
0200
0000
0000
0000
,
0300
0000
0000
0000
,
0000
0000
0000
0000
,
0000
0000
0000
0000
,
0000
0000
0000
0000
,
0000
0000
00M0
0000
;
