#TITLE:Tearz;
#SUBTITLE:;
#ARTIST:Imil & Slaughtered Panda Mask;
#TITLETRANSLIT:;
#SUBTITLETRANSLIT:;
#ARTISTTRANSLIT:;
#CREDIT:Tyler;
#BANNER:tearz bn.png;
#BACKGROUND:tearz bg.png;
#LYRICSPATH:;
#CDTITLE:;
#MUSIC:Tearz.ogg;
#OFFSET:-0.048;
#SAMPLESTART:30.774;
#SAMPLELENGTH:15.364;
#SELECTABLE:YES;
#BPMS:0.000=250.000;
#STOPS:;
#BGCHANGES:;
// cache tags:
#FIRSTBEAT:60.000;
#LASTBEAT:660.000;
#SONGFILENAME:Songs/SPEEEDCOOOORE 2/Tearz - [Tyler]/Tearz.sm;
#HASMUSIC:1;
#HASBANNER:1;
#MUSICLENGTH:160.391;
// end cache tags

//---------------dance-single - T. Moore----------------
#NOTES:
     dance-single:
     T. Moore:
     Challenge:
     12:
     0.905,1.000,0.231,0.555,0.281,854.000,37.000,89.000,75.000,4.000:

0000
0000
0000
0000
,
0000
0000
0000
0000
,
0000
0000
0000
0000
,
0000
0000
0000
0000
,
0000
0000
0000
0000
,
0000
0000
0000
0000
,
0000
0000
0000
0000
,
0000
0000
0000
0000
,
0000
0000
0000
0000
,
0000
0000
0000
0000
,
0000
0000
0000
0000
,
0000
0000
0000
0000
,
0000
0000
0000
0000
,
0000
0000
0000
0000
,
0000
0000
0000
0000
,
1000
1000
1000
1000
,
4001
3001
4000
3001
,
0000
0001
0000
0100
,
0200
0000
0310
2000
0000
3002
0000
0000
,
0023
0000
0100
0000
0000
0000
0100
0030
,
4000
0000
3001
0000
1000
0010
0100
0001
,
1000
0000
0001
0000
0100
0000
0010
1000
,
0001
0000
1000
0100
0000
0010
0002
0000
,
0000
1000
1000
1003
,
1040
1030
0040
1030
,
0000
0001
0000
0001
,
0002
0000
0013
0200
0000
2300
0000
3000
,
0002
1000
0000
1003
,
0040
0000
1030
0000
0001
0100
0010
1000
,
0001
0000
1000
0000
0010
0000
0100
0001
,
1000
0000
0001
0020
0000
0130
2000
0000
,
0000
0001
3001
0001
,
0011
0001
1000
0001
0100
0010
1000
0010
,
0100
0001
1000
0001
0100
0001
0010
0001
,
0010
0100
1000
0001
1000
0100
0010
0001
,
0100
0000
0001
0000
1000
0000
0001
0000
0100
0000
0000
0000
0010
1000
0010
1000
,
0001
1000
0010
0100
0001
0010
0100
1000
,
0001
0000
1000
0000
0100
0000
0010
0000
0001
0000
1000
0000
0001
0000
0100
0001
,
0100
0010
1000
0001
1000
0010
0100
0001
,
2000
3000
2200
3300
0220
0330
0010
0000
,
0001
1000
0001
0100
0010
1000
0010
0100
,
0001
1000
0100
0010
0100
1000
0010
1000
,
0010
1000
0001
0010
0100
1000
0010
1000
,
0100
0000
0010
0000
0001
0000
0010
0000
0100
0000
0000
0000
1000
0001
1000
0001
,
0010
0100
1000
0100
0010
0001
0100
0010
,
1000
0000
0010
0000
0100
0000
0001
0000
1000
0000
0001
0000
0100
0000
0010
1000
,
0010
0100
0001
1000
0001
0100
0010
1000
,
0002
0003
0022
0033
0220
0330
1000
0000
,
0001
0100
0010
1000
0001
1000
0010
0100
,
0001
0000
1000
0000
0100
0000
1000
0000
0001
0000
0000
0000
0100
0001
0100
0001
,
0100
0000
0010
0000
1000
0001
1000
0001
1000
0000
0010
0000
0100
0000
0001
0000
,
1000
0000
0001
0000
0100
0000
0010
0000
1000
0000
0000
0000
0001
1000
0001
1000
,
0100
1000
0001
1000
0100
0010
0001
0100
,
0001
0000
1000
0000
0100
0000
1000
0000
0001
0000
0100
0000
0010
0000
1000
0001
,
1000
0010
0100
0001
1000
0100
0010
0100
,
1000
0001
0100
0001
1000
0001
0100
0001
1000
0001
0100
0001
1000
0001
0100
0001
,
1000
0100
1000
0001
0100
0010
1000
0010
,
0100
0000
0001
0000
0010
0000
0100
0000
1000
0100
1000
0100
0010
0001
0010
0001
,
1000
0001
1000
0010
0100
0001
0010
0001
,
0100
0000
0010
0000
0100
0000
0010
0000
1000
0000
0000
0000
0001
1000
0001
1000
,
0010
0100
0001
0100
0010
1000
0100
0010
,
0001
0000
0010
0000
0100
0000
1000
0000
0001
0000
1000
0000
0100
0000
0010
0001
,
0010
0100
1000
0001
0100
0010
1000
0010
,
0200
0300
0202
0303
2002
3003
0001
0000
,
0041
0031
0040
0031
,
0000
1000
0000
1000
,
2000
0000
3010
0200
0000
0302
0000
0000
,
2003
0100
0000
3100
,
0040
0000
0031
0000
0010
0100
1000
0010
,
0100
0000
0001
0000
0100
0000
0010
1000
,
0001
0000
0010
0200
0000
1300
0002
0000
,
0000
1000
1000
1003
,
2MM2
3003
0000
0000
0000
0000
0000
0000
0000
0000
0000
0000
0000
0000
0000
0000
0000
0000
0000
0000
0000
0000
0000
0000
0000
0000
0000
0000
0000
0000
0000
0000
0000
0000
0000
0000
0000
0000
0000
0000
0000
0000
0000
0000
0000
0000
0000
0000
0000
0000
0000
0000
0000
0000
0000
0000
0000
0000
0000
0000
0000
0000
0000
0000
0000
0000
0000
0000
0000
0000
0000
0000
0000
0000
0000
0000
0000
0000
0000
0000
0000
0000
0000
0000
0000
0000
0000
0000
0000
0000
0000
0000
0000
0000
0000
0000
0000
0000
0000
0000
0000
0000
0000
0000
0000
0000
0000
0000
0000
0000
0000
0000
0000
0000
0000
0000
0000
0000
0000
0000
0000
0000
0000
0000
0000
0000
0000
0000
0000
0000
0000
0000
0000
0000
0000
0000
0000
0000
0000
0000
0000
0000
0000
0000
0000
0000
0000
0000
0000
0000
0000
0000
0000
0000
0000
0000
0000
0000
0000
0000
0000
0000
0000
0000
0000
0000
0000
0000
0000
0000
0000
0000
0000
0000
0000
0000
0000
0000
0000
0000
0000
0000
0000
0000
0000
0000
0000
0000
0000
0000
0000
0000
,
0000
0000
0000
0000
,
0000
0000
0000
0000
,
0000
0000
0000
0000
,
1001
0001
0010
0100
0000
1000
0010
0100
,
0000
1000
0001
0010
0000
0100
1000
0100
,
0000
0010
0001
1000
0000
0001
0100
0010
,
0000
0001
0010
0001
0100
0000
0001
1000
,
0000
0100
0010
0001
0000
1000
0001
0100
,
0000
1000
0100
0010
0000
0001
1000
0001
,
0000
0100
0010
1000
0000
0010
0100
00M1
,
M000
0000
01M0
0000
M001
0000
10M0
0000
020M
000M
000M
000M
000M
000M
000M
000M
,
130M
0001
0100
0001
1000
0100
0010
0001
,
1000
0010
0100
0001
1000
0001
0100
0010
,
1000
0001
0010
0001
1000
0100
0010
0001
,
1000
0000
0010
0000
0100
0000
0001
0000
0010
0000
0000
0000
0100
1000
0100
1000
,
0001
0010
0100
0010
0001
1000
0010
0100
,
0001
0000
1000
0000
0100
0000
1000
0000
0001
0000
0100
0000
0010
0000
0100
0001
,
1000
0100
0010
0100
1000
0001
0100
0010
,
2000
3000
2002
3003
2200
0000
0000
3300
,
0010
0001
0100
0001
0010
0100
1000
0010
,
0100
0000
0001
0000
0010
0000
0001
0000
0100
0000
0010
0000
1000
0010
1000
0010
,
0100
0001
0010
0001
0100
0010
1000
0100
,
0010
0001
0100
0001
0020
0000
0000
0000
,
0031
0100
0010
0100
0001
0010
0100
1000
,
0010
0000
0100
0000
0001
0000
0100
0000
0010
0000
1000
0000
0100
0000
1000
0001
,
0100
0000
0010
0000
1000
0000
0010
0000
0100
0001
0100
0001
1000
0010
1000
0010
,
0400
0004
0000
0000
0000
0000
0000
0000
0000
0000
0000
0300
2003
0000
0000
0000
0000
0000
0000
0000
0000
0000
0000
0000
,
3001
0100
0010
0100
0001
0010
0100
1000
,
0010
0000
0100
0000
0001
0000
0100
0000
0010
0000
1000
0000
0001
0000
1000
0010
,
0100
0001
0010
0001
0100
0010
1000
0100
,
0010
0100
1000
0010
0200
0000
0300
0000
,
0010
0000
1000
0000
0001
0000
1000
0010
0100
0000
0001
0000
0010
0000
0100
0000
,
1000
0000
0001
0000
0100
0000
0001
0000
0010
0001
1000
0100
0010
0001
1000
0100
,
0040
0000
0004
0000
0000
0000
0000
0000
0000
0000
0000
0000
0000
0000
0000
0000
0000
0000
0000
0000
0000
0000
0000
0000
0000
0000
0000
0000
0000
0000
0000
0000
0000
0000
0000
0000
0000
0000
0000
0000
0000
0000
0000
0000
0000
0030
0003
0000
,
0220
0330
2200
3300
2002
0000
3003
0000
,
2002
00M0
0M00
00M0
3003
0M00
000M
M000
,
0000
000M
00M0
000M
0000
M000
0M00
M000
,
0000
000M
0M00
000M
0000
M000
00M0
0M00
,
0000
00M0
M000
000M
0M00
0000
000M
M000
,
0000
0M00
00M0
0M00
0000
M000
000M
0M00
,
0000
00M0
M000
00M0
0000
0M00
000M
0M00
,
1000
00M0
000M
00M0
1000
0M00
00M0
0M00
,
1000
000M
10M0
000M
1M00
0000
1M00
00M0
,
2002
0000
3003
0001
0100
0000
0001
1000
,
0001
1000
0000
0100
1000
0000
0001
0000
,
0100
0001
0100
0100
0001
0000
0100
0001
,
0100
0001
0000
0001
1000
0000
0100
0100
,
M010
0001
0000
0001
M100
0000
0010
1000
,
0010
1000
0000
1000
0001
0000
0100
0000
,
0010
1000
0010
0010
1000
0000
0010
1000
,
0010
1000
0000
1000
0100
0000
0010
0010
,
0022
0033
0000
0001
1000
0000
0010
1000
,
0010
1000
0000
1000
0001
0000
0010
0000
,
0100
1000
0100
0100
1000
0000
0100
1000
,
0100
1000
0000
1000
0001
0100
0010
0010
,
2020
3030
0000
1000
0001
0000
0010
0001
,
0010
0001
0000
0001
0100
0000
0010
0000
,
1000
0001
1000
1000
0001
0000
1000
0001
,
2002
3003
0000
0001
0100
0000
0010
0010
,
1000
0010
0100
0001
1000
0100
0010
0001
,
1000
0000
0001
0000
0100
0000
0010
0000
2000
0000
3000
0000
0001
1000
0001
1000
,
0001
0100
0001
1000
0100
1000
0001
0100
,
0010
0000
1000
0000
0100
0000
0010
0000
0001
0010
0001
0010
0100
1000
0100
1000
,
0001
1000
0100
0010
0001
0010
0100
1000
,
0100
0000
1000
0000
0001
0000
0100
0000
0010
0000
1000
0000
0100
0000
0010
0100
,
1000
0001
0100
0001
1000
0100
1000
0001
,
0100
0010
1000
0100
0020
0030
0004
0003
,
2M22
3033
0000
0000
M222
0333
0000
0000
,
22M2
3303
0000
0000
222M
3330
0000
0000
,
0001
0000
0400
0300
0010
0000
1000
0000
0001
0000
0010
0000
0001
0000
0400
0300
,
0010
0000
0400
0300
0010
0000
1000
0000
0001
0000
0010
0000
0100
0000
1000
0000
,
0010
0000
0400
0300
0001
0000
1000
0000
0400
0300
0010
0000
0001
0000
0400
0300
,
0010
0000
0400
0300
0001
0000
1000
0000
0002
0000
0000
0000
0000
0000
0003
0000
,
1000
0000
0040
0030
0100
0000
0001
0000
1000
0000
0001
0000
0100
0000
0040
0030
,
1000
0000
0040
0030
0100
0000
0001
0000
1000
0000
0100
0000
0010
0000
0001
1000
,
0001
0000
0040
0030
0100
0000
1000
0000
0040
0030
0100
0000
0001
0000
0040
0030
,
0200
0300
0040
0030
0002
0003
1000
0000
0200
0000
0000
0000
0000
0000
0300
0000
,
1000
0000
0040
0030
0100
0000
0001
0000
1000
0000
0100
0000
1000
0000
0040
0030
,
0100
0000
0040
0030
0100
0000
0001
0000
1000
0000
0100
0000
0010
0000
0001
0000
,
0100
0000
0040
0030
1000
0000
0001
0000
0040
0030
0100
0000
1000
0000
0040
0030
,
0100
0000
0040
0030
1000
0000
0001
0000
2000
0000
0000
0000
3100
1000
0100
1000
,
0001
0000
0400
0300
0010
0000
1000
0000
0001
0000
1000
0000
0010
0000
0400
0300
,
0001
0000
0400
0300
0010
0000
1000
0000
0001
0000
0010
0000
0100
0000
1000
0001
,
1000
0000
0400
0300
0010
0000
0001
0000
0400
0300
0010
0000
1000
0000
0400
0300
,
0020
0030
0400
0300
2000
3000
0001
0000
0020
0000
0000
0000
0000
0000
0030
0000
,
2MM2
0000
0000
0000
,
0000
0000
0000
3003
,
20M2
0000
0000
3003
2M02
0000
0000
3003
,
20M2
0000
0000
0000
,
0000
0000
0000
0000
,
0000
0000
0000
0000
,
0000
0000
0000
0000
,
3003
0000
0000
0000
;

//---------------dance-single - J. Nero----------------
#NOTES:
     dance-single:
     J. Nero:
     Hard:
     10:
     0.836,1.000,0.256,0.567,0.094,801.000,41.000,91.000,6.000,0.000:




0000
0000
0000
0000
,
0000
0000
0000
0000
,
0000
0000
0000
0000
,
0000
0000
0000
0000
,
0000
0000
0000
0000
,
0000
0000
0000
0000
,
0000
0000
0000
0000
,
0000
0000
0000
0000
,
0000
0000
0000
0000
,
0000
0000
0000
0000
,
0000
0000
0000
0000
,
0000
0000
0000
0000
,
0000
0000
0000
0000
,
0000
0000
0000
0000
,
0000
0000
0000
0000
,
1000
0001
1000
0001
,
1002
0100
0000
0103
,
0000
0100
0000
0002
,
0023
0000
0030
0200
0000
2300
0000
0000
,
3002
0100
0000
0103
,
0001
0000
1000
0000
0001
0010
0100
0010
,
0001
0000
1000
0000
0010
0000
0100
0001
,
0100
0000
0001
0010
0000
0010
0100
0000
,
1000
0010
0010
0010
,
0200
0000
0001
0300
2000
0000
0100
0000
,
0000
3100
1000
0002
,
0203
0000
0300
0002
0000
0023
0000
0000
,
0230
1000
0000
1300
,
0100
0000
1000
0000
0001
0100
0010
0100
,
0001
0000
1000
0000
0100
0000
1000
0100
,
1000
0000
0001
0010
0000
0010
0100
0000
,
1000
0010
0010
0010
,
0100
0001
0100
0010
1000
0001
1000
0100
,
0010
0001
1000
0001
1000
0100
0010
0001
,
1000
0001
0010
0100
1000
0001
1000
0010
,
1000
0010
0100
0001
2000
3000
0400
0000
,
1300
0001
0100
0010
0100
0001
1000
0100
,
0010
0000
0001
0000
1000
0000
0100
0000
0010
0000
0100
0000
1000
0000
0001
0100
,
0001
0100
0010
1000
0100
0010
0001
1000
,
2002
3003
0000
0000
0202
0303
0000
0000
0220
0000
0330
0000
0000
0000
0000
0000
,
0100
0001
0010
0100
1000
0001
1000
0100
,
0010
0100
1000
0001
0010
0100
1000
0001
,
1000
0010
0100
0001
0100
0010
1000
0001
,
1000
0010
0100
0001
0020
0030
0400
0000
,
1300
0100
1000
0001
0010
0100
0010
0001
,
1000
0000
0100
0000
0010
0000
0100
0000
1000
0000
0001
0000
0100
0000
0001
1000
,
0001
1000
0100
0010
0001
1000
0001
0100
,
0202
0303
0000
0000
2002
3003
0000
0000
2020
0000
3030
0000
0000
0000
0000
0000
,
0010
1000
0001
0100
0001
0100
0010
1000
,
0001
0010
0100
1000
0002
0003
4000
0000
,
3100
0000
1000
0000
0001
1000
0001
0000
1000
0000
0001
0000
0010
0000
0100
0000
,
1000
0001
1000
0010
0200
0300
0004
0000
,
1003
0100
0010
0001
1000
0100
0010
0001
,
1000
0000
0001
0000
0100
0000
0001
0000
1000
0000
0010
0000
0100
0000
0001
0100
,
0001
1000
0010
1000
0001
0010
0100
1000
,
2002
3003
0000
0000
2200
3300
0000
0000
0220
0330
0000
0000
0022
0033
0000
0000
,
2002
3003
1000
0000
0010
0000
0100
0000
0001
0000
0100
0000
0010
0000
1000
0000
,
0001
0000
0000
0000
0010
0000
0000
0000
0100
0000
0000
0000
1000
0000
0000
0000
0040
0030
0000
0000
0400
0300
0000
0000
0004
0003
0000
0000
0040
0030
0000
0000
,
0400
0300
0000
0000
1000
0000
0000
0000
0001
0000
0000
0000
1000
0000
0000
0000
0100
0000
0000
0000
0010
0000
0000
0000
0001
0000
0000
0000
1000
0000
0000
0000
,
0001
1000
0100
0010
0200
0300
4000
0000
,
3001
0100
0001
1000
0100
0010
0001
1000
,
0001
0000
0010
0000
0100
0000
1000
0000
0001
0000
0010
0000
0100
0000
1000
0001
,
1000
0001
0100
0010
0100
0001
1000
0001
,
0010
0010
0010
0000
,
0120
0100
0000
0001
,
0000
0100
0000
0032
,
2003
0000
0000
3200
0000
0320
0000
0000
,
0032
0000
0100
0000
0000
0000
0100
0003
,
0001
0000
1000
0000
0100
0010
0100
1000
,
0010
0000
0100
0000
0001
0000
0010
0100
,
1000
0000
0001
0010
0000
0010
0100
0000
,
1000
0001
0001
0001
,
2002
0000
0000
3003
0000
0000
0000
0000
,
0000
0000
0000
0000
,
0000
0000
0000
0000
,
0000
0000
0000
0000
,
1001
0001
1000
0100
0000
0100
1000
0001
,
0000
0001
0010
0100
1000
0001
0100
0001
,
1000
0100
0010
0001
0000
0001
1000
0100
,
0000
0100
0010
0100
1000
0000
1000
0001
,
0000
0100
0001
1000
0000
1000
0100
0010
,
0000
0010
0001
1000
0000
1000
0001
0100
,
0000
0100
0001
0010
0000
0010
0100
1000
,
0000
1000
0100
0010
0100
0000
0100
1000
,
0001
0100
0001
0100
0010
1000
0001
1000
,
0100
0010
0100
1000
0001
0010
0100
1000
,
0001
1000
0010
0100
0010
1000
0001
1000
,
0010
0100
0001
1000
0002
0003
4000
0000
,
3100
0010
0100
1000
0001
1000
0010
0100
,
0001
0000
1000
0000
0100
0000
0010
0000
0001
0000
1000
0000
0001
0000
1000
0001
,
1000
0001
0100
0010
0100
0001
0010
0100
,
2200
3300
0000
0000
2002
3003
0000
0000
0202
0000
0303
0000
0000
0000
0000
0000
,
0100
0001
0100
0010
1000
0100
0010
0001
,
1000
0001
0010
0100
2000
3000
0004
0000
,
1003
0100
0010
0100
1000
0001
0100
0010
,
0100
0001
0010
0100
2000
0000
3000
0000
,
0001
0100
0010
0100
0001
1000
0001
0010
,
0100
0000
1000
0000
0001
0000
1000
0000
0100
0000
0010
0000
0001
0000
1000
0001
,
1000
0000
0000
0001
0000
0000
0100
0000
0000
0010
0000
0000
0100
0000
0001
0000
0100
0000
0010
0000
1000
0000
0001
0000
,
4000
0000
3001
0000
,
1000
0100
0010
0001
1000
0100
0010
0100
,
1000
0000
0001
0000
0100
0000
0010
0000
0100
0000
0001
0000
1000
0000
0001
1000
,
0001
1000
0100
0010
0001
1000
0001
0100
,
0010
1000
0100
0010
0002
0000
0000
0003
,
1000
0000
0100
0000
1000
0001
1000
0000
0001
0000
0100
0000
0010
0000
0100
0000
,
0001
0000
0000
0010
0000
0000
0100
0000
0000
1000
0000
0000
0001
0000
1000
0000
0100
0000
1000
0000
0001
0000
0010
0000
,
0400
0000
0000
0000
0000
0000
0000
0000
0000
0000
0000
0000
0000
0000
0000
0000
0000
0000
0000
0000
0000
0000
0000
0000
0000
0000
0000
0000
0000
0000
0000
0300
,
2200
3300
0000
0000
2002
3003
0000
0000
0202
0000
0303
0000
0000
0000
0000
0000
,
2002
0000
0000
0000
,
3003
0000
0000
0000
,
1000
0000
1000
0000
,
1000
0000
0000
0000
0000
0001
0000
0000
,
0001
0000
0001
0000
,
0010
0000
0010
0000
,
0100
0000
0100
0000
,
0100
1000
0100
1000
,
2002
0000
3003
0001
1000
0000
0100
0000
,
0100
0000
0000
1000
0001
0000
0000
0000
,
0010
0000
0100
1000
0000
1000
0001
0000
,
0100
0000
0000
0001
0100
0000
0001
1000
,
0100
0000
0000
1000
0100
0000
0010
0000
,
0010
0000
0000
0001
1000
0000
0000
0000
,
0001
0000
0100
0001
0000
0001
0010
0000
,
0100
0000
0000
1000
0100
0000
1000
0001
,
2002
0000
3003
0001
1000
0000
0100
0000
,
0100
0000
0000
1000
0001
0000
0000
0000
,
0010
0000
0100
1000
0000
1000
0001
0000
,
0100
0000
0000
0001
0100
0000
0001
1000
,
0100
0000
0000
1000
0100
0000
0010
0000
,
0010
0000
0000
0001
1000
0000
0000
0000
,
0001
0000
0100
0001
0000
0001
0010
0000
,
0100
0000
0000
1000
0100
0000
1000
0001
,
1000
0100
0010
0100
1000
0001
0100
0010
,
0100
0001
0010
0100
2000
3000
0004
0000
,
1003
0100
0010
0001
1000
0001
1000
0010
,
0100
0000
0000
0001
0000
0000
1000
0000
0000
0100
0000
0000
1000
0000
0100
0000
0010
0000
0001
0000
1000
0000
0001
0000
,
0100
0001
0010
0100
1000
0001
0010
0100
,
1000
0000
0001
0000
1000
0000
0010
0000
0100
0000
0001
0000
1000
0000
0001
0100
,
0001
0100
0001
1000
0100
0010
0001
1000
,
0001
0100
0010
0100
0001
1000
0010
0000
,
2020
3030
0220
0330
,
0202
0303
2002
3003
,
1000
0010
0100
0010
1000
0001
0100
0010
,
0100
0001
0010
0100
1000
0001
0010
0100
,
0010
0001
1000
0100
0010
0001
1000
0010
,
0100
0001
1000
0100
2000
0000
0000
0000
,
3001
0010
0100
1000
0001
1000
0100
1000
,
0001
0000
0100
0000
0010
0000
0100
0000
0001
0000
1000
0000
0001
0000
0100
0001
,
0100
0001
1000
0100
0010
0001
1000
0100
,
2000
3002
0203
0000
,
0301
1000
0100
1000
0001
0010
0100
1000
,
0001
1000
0010
0100
0010
1000
0001
1000
,
0001
0100
0001
1000
0100
1000
0001
1000
,
0100
0010
0001
1000
0002
0003
0040
0000
,
0130
1000
0001
0100
0010
0100
0001
0010
,
0100
0000
1000
0000
0001
0000
1000
0000
0100
0000
0010
0000
0100
0000
1000
0100
,
1000
0001
0100
0010
0100
0001
1000
0100
,
2000
3000
2002
3003
0202
0303
0000
0000
,
2002
0000
0000
0000
,
3003
0000
0000
0000
,
0MM0
0000
0MM0
0000
,
0MM0
0000
0000
0000
;
