#TITLE:Rurouni Kenshin Seisouhen;
#SUBTITLE:- Revenge Of The Ghost;
#ARTIST:Taki Iwasaki;
#TITLETRANSLIT:;
#SUBTITLETRANSLIT:;
#ARTISTTRANSLIT:;
#CREDIT:;
#BANNER:ghost-banner.png;
#BACKGROUND:ghost-bg.png;
#LYRICSPATH:;
#CDTITLE:;
#MUSIC:Revenge of The Ghost.mp3;
#OFFSET:0.000;
#SAMPLESTART:63.135;
#SAMPLELENGTH:12.000;
#SELECTABLE:YES;
#BPMS:0.000=90.000,25.000=75.000,25.500=50.000,25.750=25.000,26.000=156.001,83.250=90.001,139.500=119.001,139.750=170.501,183.500=75.001,219.667=83.001,240.000=84.001,256.000=82.001,260.000=65.001,268.000=57.001,273.000=36.001,273.250=35.001,273.500=34.001,273.750=33.001,274.000=32.001;
#STOPS:7.250=0.400
,15.000=0.400
,83.333=2.500
,120.000=0.180
,120.250=0.180
,183.500=4.500
;
#BGCHANGES:;
// cache tags:
#FIRSTBEAT:0.750;
#LASTBEAT:274.000;
#SONGFILENAME:Songs/Anime Songs/Ghost/ghost.sm;
#HASMUSIC:1;
#HASBANNER:1;
#MUSICLENGTH:178.181;
// end cache tags

//---------------dance-single - ----------------
#NOTES:
     dance-single:
     :
     Challenge:
     8:
     0.390,0.557,0.168,0.370,0.407,390.000,30.000,66.000,0.000,0.000:  // measure 1
0000
0000
0000
1000
2002
0000
0000
0000
0000
0000
0000
0000
0000
0000
0000
0000
,  // measure 2
0000
0000
0000
0000
0000
0000
0000
0000
0000
0000
0000
0000
0003
3100
0000
0000
,  // measure 3
0000
0110
0220
0000
0000
0000
0000
0000
0000
0000
0000
0000
0000
0000
0000
0000
,  // measure 4
0000
0000
0000
0000
0000
0000
0000
0000
0000
0000
0000
0300
0130
0000
0000
0000
,  // measure 5
1100
0220
0000
0000
0000
0000
0000
0000
0000
0000
0000
0000
0000
0000
0000
0000
,  // measure 6
0000
0000
0000
0000
,  // measure 7
0000
0000
0000
0000
0330
1000
0100
0001
,  // measure 8
0200
0310
2000
3001
0100
0010
1000
0001
,  // measure 9
0100
0010
1000
0001
1000
0001
0001
1000
,  // measure 10
0100
2000
3100
0200
0310
0020
0031
0002
,  // measure 11
1003
0010
0100
1000
0100
0001
0010
1000
,  // measure 12
1100
1000
0100
1000
0010
0001
0010
0100
,  // measure 13
1000
0100
0001
0100
1000
0010
0011
0010
,  // measure 14
1100
1000
0001
0100
0010
2000
3001
0002
,  // measure 15
0013
0020
0130
0200
1300
2000
3100
0200
,  // measure 16
0302
0203
2300
3020
0230
0302
2003
3200
,  // measure 17
2300
3002
0203
0320
2030
3002
0203
2300
,  // measure 18
3001
0010
1001
0001
0101
0001
0011
0010
,  // measure 19
0110
0100
1000
0100
0010
0001
0100
0110
,  // measure 20
0010
0010
0100
0100
1000
1000
0100
0100
,  // measure 21
0100
0000
0100
0000
0100
0001
0000
1000
0100
0000
1001
0000
,  // measure 22
0100
0002
0000
0000
0000
2000
0000
0000
,  // measure 23
0003
0000
0020
3000
0000
0000
0000
0000
0000
0000
0000
0002
0000
0000
0000
0000
,  // measure 24
0000
0000
0000
0000
0000
0000
0000
0000
0030
0000
0000
0000
0000
0000
0000
0000
0200
0000
0000
0000
0000
0000
0000
0000
0000
0000
0000
0000
0000
0000
0000
0000
0000
0000
0000
0000
0000
0000
0000
0000
0000
0000
0000
0000
0003
0000
0000
0000
0000
0000
0000
0000
0000
0002
0000
0000
0000
0000
0000
0000
0000
0000
0000
0000
,  // measure 25
0000
0000
0000
0000
0300
0000
2000
0000
0000
0000
0000
0000
0000
0003
0000
0200
,  // measure 26
0000
0000
0000
3000
0020
0000
0000
0000
,  // measure 27
0300
0002
0000
0000
0000
0000
0000
0000
0000
0000
0000
0000
0000
0000
0000
0000
,  // measure 28
0000
0000
0000
0000
,  // measure 29
0000
0000
0000
0000
0030
0000
0200
0000
0000
0000
0000
0000
0000
0003
0000
0302
,  // measure 30
0000
0000
0000
0000
0000
1003
0000
0000
,  // measure 31
0120
0130
0000
0000
0000
0000
0000
0000
0000
1020
0000
0000
0000
0000
0000
0000
,  // measure 32
0230
0000
0000
0000
0000
0000
0000
0000
0000
2300
0000
0000
0000
0000
0000
0000
,  // measure 33
0000
0000
0000
0000
0000
0000
0000
0000
0000
0000
0000
0000
3002
0000
0000
0000
0000
0000
0000
0000
0000
0000
0000
0000
0000
0000
0000
0000
0000
0000
0000
0000
0000
0000
0000
0000
0000
2003
0000
0000
0000
0000
0000
0000
0000
0000
0000
0000
0000
0000
0000
0000
0000
0000
0000
0000
0000
0000
0000
0000
0000
0000
0000
0000
,  // measure 34
0000
0000
0000
3020
0000
0000
0000
0000
0000
0000
0000
0000
0000
0200
0000
0000
,  // measure 35
0000
0000
0000
0000
0000
0000
0000
0000
0000
0000
0000
0000
0000
0000
0000
0330
,  // measure 36
1000
0100
0010
0001
,  // measure 37
1100
0011
1010
0101
,  // measure 38
1000
0100
0001
0010
,  // measure 39
1100
0000
0010
0000
1000
0000
0000
0010
,  // measure 40
0000
1000
0000
0010
0000
1000
0000
0100
,  // measure 41
0000
0001
0000
1000
0000
0100
0000
0000
,  // measure 42
0100
1001
0010
0000
,  // measure 43
0010
1010
0101
0000
,  // measure 44
1000
0010
0001
0100
1000
0010
0001
0100
,  // measure 45
0110
1000
0100
0001
0100
0010
0100
1000
,  // measure 46
0001
0100
0010
0000
0000
0110
0000
1100
,  // measure 47
0210
0000
0000
0000
0000
0000
0000
0000
0000
0000
0000
0000
0000
0000
0000
0000
0000
0000
0000
0000
0001
0000
0000
0000
0000
0000
0000
0000
0000
0000
0000
0000
0000
0000
0000
0000
0000
1000
0000
0000
0000
0000
0000
0000
0000
0000
0000
0000
0000
0000
0000
0000
0000
0000
0000
0000
0000
0000
0000
0000
0000
0000
0000
0000
,  // measure 48
0310
0000
0100
0021
0000
0000
0000
0000
0000
0000
0000
0000
,  // measure 49
0000
0000
0000
0000
0000
2000
0000
0000
0030
0000
0000
0000
0000
0000
0000
0000
0100
0000
0000
0000
3000
0000
0000
0000
0000
0000
0000
0000
0000
0000
0000
0000
0100
0000
0000
0000
0000
0020
0000
0000
0000
0000
0000
0000
0000
0000
0000
0000
0000
0000
0000
0000
0000
0000
0000
0000
0000
0000
0100
0000
0000
0000
0000
0000
,  // measure 50
0030
0000
0000
0000
0000
0210
0000
0000
0302
0000
0000
0000
0000
0000
0000
0000
0000
0000
0000
0000
0000
0000
0000
0000
2000
0000
0003
0000
0000
0000
0200
0000
,  // measure 51
0000
0000
0000
0000
,  // measure 52
3300
0000
0000
0000
0000
1000
0100
0010
0001
0000
0100
1000
,  // measure 53
0010
0001
0000
0010
0001
0000
1000
0001
1000
0001
0000
1000
,  // measure 54
1000
0000
0100
0001
0010
0001
0010
0100
1000
0100
1000
0000
,  // measure 55
0100
0010
0000
0100
0010
1000
0100
0010
0001
1000
0000
1000
,  // measure 56
0100
0010
0001
1000
0001
0010
0100
1000
0001
1000
0100
1000
,  // measure 57
0100
0010
0001
0000
0000
0000
0000
0000
1000
0001
0100
0001
,  // measure 58
0010
0100
0001
1000
0100
0010
0100
1000
0100
1000
0100
0010
,  // measure 59
0001
0010
0001
1000
0001
0100
0010
0001
0010
0100
1000
0001
,  // measure 60
0100
1000
0010
0001
0100
1000
0100
0001
0010
1000
0010
0001
,  // measure 61
1000
0100
0010
0001
1000
0100
0010
0001
1000
0001
0010
0100
,  // measure 62
1000
0001
0010
0100
1000
0001
1000
0100
0010
0001
1000
0100
,  // measure 63
0001
0010
1000
0100
0001
0010
1000
0010
1000
0000
0100
0001
,  // measure 64
0100
0010
0100
0010
1000
0001
1000
0001
0100
0010
0100
0010
,  // measure 65
0001
0100
1000
0100
0001
0100
1000
0010
0001
0010
1000
0010
,  // measure 66
0001
0000
0000
1000
0000
0002
0000
0000
0000
0000
0000
0000
0000
0000
0000
0000
,  // measure 67
0000
0000
0000
0000
0000
0000
0000
0000
0000
0000
0000
0000
2000
0000
0000
0000
0000
0000
0000
0000
0000
0000
0000
0000
0000
0000
0000
0000
0003
0000
0000
0000
0200
0000
0000
0000
0000
3000
0000
0000
0300
0000
0000
0000
1000
0000
0000
0000
0001
0000
0000
0000
1000
0000
0000
0000
0001
0000
0000
0000
0100
0000
0000
0000
,  // measure 68
0010
1000
0100
0010
1000
0100
0010
1000
0100
0010
0001
0010
0100
0001
0010
0100
,  // measure 69
0001
0010
0100
0010
0002
0000
0000
0000
0003
0000
0000
0000
0000
0000
0000
0000
;
