#TITLE:Calm Waters;
#SUBTITLE:;
#ARTIST:Across The Kingdom;
#TITLETRANSLIT:;
#SUBTITLETRANSLIT:;
#ARTISTTRANSLIT:;
#CREDIT:Kirby5464;
#BANNER:BN.png;
#BACKGROUND:BG.png;
#LYRICSPATH:;
#CDTITLE:../CDTitleKIRBY.png;
#MUSIC:Calm Waters.ogg;
#OFFSET:-0.076;
#SAMPLESTART:65.314;
#SAMPLELENGTH:12.000;
#SELECTABLE:YES;
#BPMS:0.000=184.000;
#STOPS:;
#BGCHANGES:;
// cache tags:
#FIRSTBEAT:0.000;
#LASTBEAT:640.000;
#SONGFILENAME:Songs/Index Fusion - Part 2/Calm Waters - [Kirby5464]/Calm Waters.sm;
#HASMUSIC:1;
#HASBANNER:1;
#MUSICLENGTH:212.636;
// end cache tags

//---------------dance-single - ----------------
#NOTES:
     dance-single:
     :
     Challenge:
     9:
     0.578,0.865,0.287,0.395,0.000,715.000,61.000,84.000,1.000,0.000:
0001
0010
0100
1000
,
0010
0000
1000
0000
,
0000
0000
0000
0000
,
0001
0010
0100
1000
,
0010
0100
0010
1000
,
0001
0000
0010
0100
,
1000
0010
1000
0000
,
0001
0010
0100
1000
,
0010
0000
0100
0010
0001
0000
1000
0000
,
1000
0000
0001
1000
0001
0000
0000
0000
,
1000
0000
0010
0100
0010
0000
1000
0000
,
0001
0000
1000
0001
1000
0000
0100
0000
,
0010
0000
1000
0010
1000
0000
0100
0000
,
0001
0000
0001
0100
0001
0000
0010
0000
,
1000
0000
0001
1000
0001
0000
0100
0000
,
0001
0000
0010
0100
0010
0000
1000
0000
,
0001
0000
0100
0000
,
0010
0000
0000
0000
1000
0100
0010
0001
,
1000
0004
0100
0000
0100
0000
0100
0000
,
0100
0100
0100
0100
,
1003
0100
1000
0010
1000
0001
0010
0001
,
0100
0001
1000
0100
0010
0001
0100
0001
,
1000
1000
1000
0001
0010
0001
1000
0010
,
1000
0100
0010
0001
1000
0100
0010
0001
,
1000
1000
0000
0001
0010
0001
0100
0001
,
1000
0001
0010
0001
0100
0010
1000
0100
,
0010
0100
1000
0000
0001
0000
0010
0000
,
0001
1000
0001
0000
,
0000
0000
1000
0100
,
0010
0001
0020
2030
,
0000
3002
0000
0003
,
0000
0001
0010
0200
,
0000
2300
0000
3200
,
0000
0320
0000
0030
,
0000
0000
0001
0010
,
0100
1000
0010
0000
,
1000
0000
0001
0000
0000
2000
0000
3000
,
0000
0000
0000
0001
,
0100
0001
0010
0000
,
0100
1000
0100
0010
,
0002
0000
2003
0000
,
3001
0100
0001
0100
,
0001
1000
0100
1000
0010
0100
0001
0010
,
0001
1000
0100
0010
0001
1000
0100
1000
,
0001
0100
0001
1000
0010
0100
0001
0010
,
0002
0000
0023
0000
0230
2300
3200
0320
,
0031
0100
0010
1000
0100
0010
0001
1000
,
0010
0100
0001
0010
0100
1000
0001
0100
,
0010
1000
0100
1000
0010
0100
0001
0010
,
2000
0100
0100
0100
0100
0000
0100
3100
,
0001
0100
0110
1000
,
0001
1000
0101
0001
,
0100
0001
1001
0001
,
1000
0001
0011
0011
,
1000
0010
0101
1000
,
0010
1000
0002
2003
,
3020
0230
0302
0000
,
0003
0000
1001
1100
,
0001
1000
1001
1000
,
0010
1000
1001
0001
,
0100
0001
1001
0010
,
0100
0010
1001
1001
,
1000
0001
1100
1000
,
0010
1000
1001
0001
,
1000
0100
1001
0001
,
0100
0001
0000
1000
0001
0000
1000
0001
,
0010
0100
1000
0001
0100
0001
0010
0001
,
1000
0100
1000
0001
0010
0100
1000
0001
,
1000
1000
0000
0001
0001
0010
0100
1000
,
0001
1000
0010
0100
0001
0010
0100
1000
,
0001
0010
0001
1000
0010
1000
0100
1000
,
0001
0010
0001
1000
0010
1000
0100
0010
,
0100
0100
0000
1000
1000
0001
0010
0001
,
1000
0010
0100
0001
0010
0001
1000
0100
,
1000
0100
0010
0001
,
1000
0010
0100
0010
,
1000
0001
0100
0001
,
1000
0000
0100
0000
0010
0100
0010
0100
,
0010
1000
0010
0100
,
0001
0010
0001
1000
,
0100
0010
0001
1000
,
0100
1000
0001
0100
,
0001
1000
0001
1000
0010
1000
0100
0010
,
0001
1000
0001
0100
0010
1000
0001
0100
,
0001
0010
0001
1000
0010
0100
0010
1000
,
0002
0000
2003
0000
3002
2003
3002
2003
,
3001
1000
0010
0100
0001
1000
0001
0010
,
0100
1000
0010
0100
0001
1000
0001
0100
,
0010
1000
0010
0100
0001
1000
0100
0010
,
0001
1000
0010
1000
0010
0000
0100
0100
,
0010
0001
1000
0010
,
0100
0001
0010
0100
,
1000
0001
0100
0010
,
0002
0000
2003
0000
3200
0320
0032
0023
,
1030
0100
1000
0010
,
0100
0001
0010
0100
,
1000
0001
0100
0010
,
2000
0010
0010
0010
0010
0000
0010
3010
,
1000
0010
1010
1000
,
0010
1000
1001
1000
,
0001
1000
1010
1000
,
0100
1000
1001
1010
,
0100
1000
1100
1000
,
0001
1000
0002
2003
,
3020
0230
0302
0000
,
0003
0000
1001
1010
,
1000
0001
1001
1000
,
0001
1000
1010
1000
,
0010
1000
1001
1000
,
0100
1000
1100
1010
,
1000
0100
1001
1000
,
0001
1000
1100
0001
,
1040
0000
0000
0000
,
1030
0001
0000
1000
0001
0000
1000
0001
,
2000
3020
0230
0302
2003
3002
0023
0030
,
2000
3020
0000
0230
,
0302
0000
0203
0000
0302
2003
0000
0000
,
3002
0023
0230
2300
3200
0320
0032
0000
,
2003
3002
0203
0320
,
2030
0000
3002
0000
,
2003
3020
2030
0000
0000
0000
3002
0000
,
1003
0010
0000
1000
0001
0000
0400
0000
,
0301
0001
0101
1000
,
0001
0001
0101
0001
,
0100
0001
0101
0001
,
0010
0001
0011
0101
,
1000
0001
1001
0001
,
0100
0001
2000
3200
,
0320
0032
2003
0000
,
3000
0000
0001
1000
,
1010
0001
1000
1000
,
1010
1000
0010
1000
,
1010
1000
0100
1000
,
1100
1010
0001
1000
,
1001
1000
0010
0001
,
0001
0001
1001
0001
,
0001
0001
1001
0001
,
0001
1000
0000
0001
1000
0000
0001
1000
,
0010
0010
0110
0010
,
1000
0010
0110
0010
,
0410
0010
0010
0010
,
0010
0010
0010
0010
,
0310
0010
0110
0010
,
0100
0010
2000
3200
,
0320
0032
0023
0000
,
0030
0000
1001
1010
,
1000
0001
1010
1000
,
0010
1000
1001
0010
,
2000
3002
0203
0000
,
0301
1000
0101
1001
,
0001
0010
1001
0001
,
0100
0001
1001
0001
,
0010
0001
1001
0001
,
1000
0001
0000
1000
0001
0000
1000
0010
,
1000
0010
0000
1000
0001
0000
1000
0100
,
0010
0001
1000
0000
0000
0000
0000
0000
,
0000
0000
0000
0000
,
0000
0000
0000
0000
,
0000
0000
0000
0000
,
0000
0000
0000
0000
,
00M0
0000
0000
0000
,
0000
0000
0000
0000
,
0000
0000
0000
0000
;
