#TITLE:Ghost Carnival;
#SUBTITLE:;
#ARTIST:tarolabo & djHIRO;
#TITLETRANSLIT:;
#SUBTITLETRANSLIT:;
#ARTISTTRANSLIT:;
#CREDIT:;
#BANNER:banner.png;
#BACKGROUND:bg.png;
#LYRICSPATH:;
#CDTITLE:cdtitle.png;
#MUSIC:ghost_carnival.mp3;
#OFFSET:-1.120;
#SAMPLESTART:29.920;
#SAMPLELENGTH:12.000;
#SELECTABLE:YES;
#BPMS:0.000=200.000;
#STOPS:;
#BGCHANGES:;
// cache tags:
#FIRSTBEAT:16.000;
#LASTBEAT:366.667;
#SONGFILENAME:Songs/Japanese Collaboration Mix/ghost_carnival/ghost_carnival.sm;
#HASMUSIC:1;
#HASBANNER:1;
#MUSICLENGTH:121.333;
// end cache tags

//---------------dance-single - ----------------
#NOTES:
     dance-single:
     :
     Challenge:
     10:
     0.657,0.680,0.445,0.124,0.837,489.000,54.000,15.000,0.000,0.000:
0000
0000
0000
0000
,
0000
0000
0000
0000
,
0000
0000
0000
0000
,
0000
0000
0000
0000
,
1000
0000
0000
0100
0000
1000
0010
0000
0000
1000
0000
0100
,
1000
0000
0000
0010
0000
1000
0100
0000
0000
1000
0000
0010
,
0100
0000
0000
0001
0000
0010
0001
0000
0000
1000
0000
0001
,
0100
0010
0100
0010
,
1000
0000
0100
1000
0000
0100
1000
0000
0100
1000
0000
0000
,
0001
0000
0010
0001
0000
0010
0001
0000
0010
0001
0000
0000
,
1000
0000
0010
0100
0000
0000
0001
0000
0010
0100
0000
0000
,
1000
0000
0100
0010
0000
0000
0001
0000
0100
0010
0000
0000
,
1000
0000
0010
1000
0000
0010
1000
0000
0010
1000
0000
0000
,
0001
0000
0100
0001
0000
0100
0001
0000
0100
0001
0000
0000
,
1000
0000
0010
1000
0000
0001
0100
0000
0010
0100
0000
0001
,
0010
0000
0001
0100
0000
0001
1000
0000
0010
0100
0000
0000
,
0001
0000
1000
0000
0000
1001
0000
0000
0000
1000
0000
0100
,
1000
0000
0010
0000
0000
0110
0000
0000
0000
0000
0000
0000
,
0100
0000
0001
0100
0000
0010
0100
0000
0001
0100
0000
0000
,
0010
0000
1000
0010
0000
0100
0010
0000
1000
0010
0000
0000
,
1000
0000
0010
0000
0000
1010
0000
0000
0000
0100
0000
0001
,
0000
0000
0010
0000
0000
0100
0000
0000
0010
0000
0000
0001
,
2000
3200
0320
0130
,
0110
0000
0000
1001
0000
0000
1000
0001
1000
0001
0000
0000
,
0100
0000
0010
0000
0000
0110
0000
0000
0000
1000
0000
0010
,
0100
0000
0001
0000
0000
1001
0000
0000
0000
0000
0000
0000
,
1000
0000
0100
1000
0000
0010
1000
0000
0001
1000
0000
0000
,
0001
0000
0010
0001
0000
0100
0001
0000
1000
0001
0000
0000
,
0010
0000
0001
0000
0000
0101
0000
0000
0000
0010
0000
1000
,
0000
0000
0100
0000
0000
0010
0000
0000
0100
0000
0000
1000
,
0002
0023
0230
0310
,
0110
0000
0000
1001
0000
0000
1000
0001
1000
0001
0000
0000
,
1000
0000
0010
1000
0000
0000
0001
0000
0100
0001
0000
0000
,
1000
0000
0100
0000
0010
0000
0001
0000
0000
1000
0000
0000
,
1010
0101
1100
0011
,
1000
0100
0001
0100
,
0010
0000
0001
0010
0000
0000
0100
0000
1000
0100
0000
0000
,
0001
0000
0001
0010
0000
0010
0100
0000
0100
1000
0000
1000
,
0001
0000
1000
0000
0000
1001
0000
0000
0100
0010
0000
0000
,
1000
0000
0001
0010
0000
0100
1000
0000
0010
0100
0000
0000
,
0101
0000
0101
0000
0000
0001
0010
0000
0100
1000
0000
0000
,
1010
0000
1010
0000
0000
1000
0100
0000
0010
0001
0000
0000
,
0010
0000
0010
0100
0000
0100
1000
0000
1000
0001
0010
0100
,
2000
0000
0000
3000
,
1001
0000
1001
0000
0000
1000
0001
0000
0100
0010
0000
0000
,
0110
0000
0110
0000
0000
0100
0010
0000
1000
0001
0000
0000
,
1000
0000
0100
0010
0000
0001
0010
0000
0100
1000
0000
0100
,
0010
0100
0010
0100
0000
0000
0110
0000
1001
0000
0000
0000
,
0200
0000
0000
0000
,
0320
0000
0000
0000
,
2030
0000
0000
0000
,
3002
0000
0000
0000
,
1003
0100
1000
0010
,
0100
0000
0001
0100
0000
0001
0100
0000
0001
1000
0000
0000
,
0010
0100
1000
0001
,
1000
0000
0100
1000
0000
0010
1000
0000
0010
1000
0000
0000
,
0001
0011
0010
0110
,
1000
0100
1000
0100
0000
0000
0001
0100
0001
0100
0000
0000
,
0010
1010
1000
1001
,
0010
0001
0010
0001
0000
0000
1000
0100
1000
0100
0000
0000
,
1000
0000
1000
0010
0000
0010
0100
0000
0100
0001
0000
0001
,
1000
0000
0100
1000
0000
0010
1000
0000
0001
0100
0000
0010
,
0100
0000
0100
0001
0000
0001
1000
0000
1000
0010
0000
0010
,
0100
0000
0001
0010
0000
0100
0010
0000
0001
0100
0000
0010
,
2000
0100
0100
3100
,
0020
0001
0001
0031
,
0100
0010
0100
0010
,
1000
0001
1000
0001
,
0010
0000
0001
0010
0000
0000
0100
0000
1000
0100
0000
0000
,
1000
0000
0100
0000
0010
0000
0001
0000
0000
0010
0000
0000
,
0011
1100
0110
1001
,
0001
0100
1000
0100
,
0001
0000
0100
0001
0000
0000
1000
0000
0010
1000
0000
0000
,
0100
0000
0100
0000
0100
0000
0010
0000
0010
0000
0010
0000
,
0100
0000
0010
0000
0000
0110
0000
0000
1000
0001
0000
0000
,
0010
0000
0100
1000
0000
0100
0010
0000
0001
1000
0000
0000
,
1001
0000
1001
0000
0000
1000
0100
0000
0010
0001
0000
0000
,
1001
0000
1001
0000
0000
0001
0010
0000
0100
1000
0000
0000
,
0001
0000
0001
1000
0000
1000
0100
0000
0100
0010
0001
0010
,
0002
0000
0000
0003
,
0101
0000
0101
0000
0000
0100
0001
0000
1000
0010
0000
0000
,
1010
0000
1010
0000
0000
1000
0010
0000
0100
0001
0000
0000
,
1000
0000
0010
1000
0000
0100
0010
0000
0001
0100
0000
0001
,
0100
0010
0100
0010
0000
0000
0110
0000
1001
0000
0000
0000
,
0110
0000
0110
0000
0000
0010
1000
0000
0001
0100
0000
0000
,
0110
0000
0110
0000
0000
0100
0001
0000
1000
0010
0000
0000
,
0100
0000
0100
0010
0000
0010
1000
0000
1000
0001
0010
0100
,
2000
0000
0000
3000
,
1100
0000
1100
0000
0000
1000
0100
0000
0010
0001
0000
0000
,
0011
0000
0011
0000
0000
0001
0010
0000
0100
1000
0000
0000
,
0010
0000
1000
0010
0000
1000
0001
0000
0100
0001
0000
1000
,
0010
0100
0010
0100
0000
0000
0110
0000
1001
0000
0000
0000
;
