#TITLE:Pasto Pelu;
#SUBTITLE:(Boyo Pelu);
#ARTIST:Jowell y Randy ft. Guelo Star;
#TITLETRANSLIT:;
#SUBTITLETRANSLIT:;
#ARTISTTRANSLIT:;
#CREDIT:;
#BANNER:banner.PNG;
#BACKGROUND:;
#LYRICSPATH:;
#CDTITLE:!tizaTitle.png;
#MUSIC:Jowel_Y_Randy_Ft_Guelo_Star_-_Boyo_Pelu_(OFFiCial_RmX)(www.Mp3Local.com).ogg;
#OFFSET:-0.040;
#SAMPLESTART:74.881;
#SAMPLELENGTH:13.500;
#SELECTABLE:YES;
#BPMS:0.000=95.000,20.000=190.000,44.000=95.000,52.000=190.000,325.000=95.000,329.000=190.000,361.000=95.000,365.000=190.000,389.000=95.000,393.000=190.000;
#STOPS:51.000=2.500
,121.000=0.160
,123.500=0.160
,129.000=0.160
,129.500=0.160
,136.000=0.160
,136.500=0.160
,151.000=0.160
,151.500=0.160
,158.000=0.160
,158.500=0.160
,181.000=0.160
,181.500=0.160
,188.000=0.160
,188.500=0.160
,195.000=0.160
,195.500=0.160
,202.000=0.160
,202.500=0.160
,209.000=0.080
,209.250=0.074
,209.500=0.080
,209.750=0.067
,226.000=1.260
,278.000=0.160
,292.500=0.160
,328.000=2.500
,423.000=0.160
,423.500=0.160
,430.000=0.160
,430.500=0.160
,437.000=0.160
,437.500=0.160
,438.000=0.160
,439.500=0.160
,441.000=0.160
,443.500=0.160
,450.000=0.160
,450.500=0.160
,457.000=0.160
,457.500=0.160
,464.000=0.160
,464.500=0.160
,465.000=0.160
,465.500=0.160
,466.000=0.160
,466.500=0.140
,501.000=0.160
,501.500=0.160
;
#BGCHANGES:;
// cache tags:
#FIRSTBEAT:0.000;
#LASTBEAT:503.750;
#SONGFILENAME:Songs/Reggaeton and more/Boyo Pelu/Boyopelu.sm;
#HASMUSIC:1;
#HASBANNER:1;
#MUSICLENGTH:187.612;
// end cache tags

//---------------dance-single - ----------------
#NOTES:
     dance-single:
     :
     Challenge:
     12:
     0.774,1.000,0.784,0.091,0.474,853.000,147.000,17.000,758.000,4.000:

1001
0000
1000
0010
0100
0000
0001
0000
0101
0000
0010
1000
0100
0000
1100
0000
,
0011
0010
0000
0100
1000
0100
0010
0100
1000
0010
0100
0001
0010
0100
1000
0100
,
0000
0110
0000
0010
0001
0010
0100
1000
1100
0000
0100
0010
0011
0000
1000
0100
,
0000
0100
1000
0010
0001
0010
1000
0100
0001
0100
1000
0100
0010
0001
1000
0010
,
1010
1000
0010
0100
0110
0010
0100
0001
0101
0001
0100
0010
0110
0100
0010
1000
,
1010
1001
0000
0101
1001
0000
0000
0000
,
1001
0000
1000
0010
1010
0000
0000
0000
,
1000
0100
0000
0100
0010
0000
0000
0000
,
1000
0010
0100
0001
0000
0000
1000
0100
0010
0001
0000
0000
,
1000
0100
0010
0100
1000
0001
0100
0010
0100
0001
1000
0010
,
0100
0010
1000
0001
0010
0100
0010
0001
1000
0100
0010
0001
,
1001
0011
0000
1100
0110
0000
0000
0000
1010
0000
0100
0001
0010
0000
0000
0000
,
1100
0000
0000
0000
0010
0000
0110
0000
0000
0000
0100
0000
0101
0000
0000
0000
1000
0000
0100
0000
0000
0000
0020
0000
0002
0033
0000
0000
0000
0000
0000
0000
,
1001
100M
010M
001M
010M
100M
001M
010M
,
001M
1M00
0M01
M010
M100
M010
M001
M100
,
M010
M100
M001
0M10
1M00
00M1
01M0
100M
,
0M10
0M01
10M0
01M0
M001
M010
M100
M010
,
0M01
10M0
010M
M010
0M01
M010
010M
10M0
,
001M
M100
00M1
M100
001M
1M00
MM01
M010
,
M10M
0000
MM00
0MM0
00MM
0000
0MM0
0000
,
M00M
0000
M0M0
0M0M
M00M
0000
1MM0
0100
,
M01M
010M
100M
001M
010M
100M
010M
001M
,
100M
0000
0000
000M
0000
0000
101M
0000
0000
000M
0000
0000
000M
0000
0000
000M
0000
0000
000M
0000
0000
000M
00M0
0M00
,
M000
M000
M100
M010
M001
M100
M010
M100
,
M202
0000
0000
M000
0000
0000
M000
0000
0000
M000
0000
0000
M010
0000
0000
M000
0000
0000
M010
0000
0303
M100
0000
0000
,
00M1
01M0
00M1
10M0
01M0
00M1
01M0
10M0
,
00M1
01M0
10M0
01M0
00M1
00M0
0M00
00M0
,
0M00
0M00
1M00
0M10
0M01
0M10
1M00
0M01
,
MM1M
0000
M0M0
0000
1M0M
0010
M10M
0001
,
1000
0100
0010
0100
1000
0001
0100
0010
,
0100
0000
0101
1001
1000
0100
0010
0100
,
1100
0000
0100
0000
0010
0000
0001
0000
0100
0001
0100
0000
0001
0000
0100
0000
,
0010
0000
0000
0000
1000
0000
0000
0000
2200
3300
0000
0000
0220
0330
0000
0000
0011
0000
0000
0000
0001
0000
0000
0000
0100
0000
0000
0000
0010
0000
0000
0000
,
1000
0010
0100
0001
0010
0100
1000
0100
,
2200
0011
3300
0000
1000
0100
0010
0001
,
1000
0010
0101
0000
MMM0
0000
MM0M
0000
,
M0MM
0000
1MMM
0100
0010
0001
1000
0100
,
0010
0001
1000
0100
0010
0001
1100
0110
,
0011
0010
0100
1000
0001
0010
0100
1000
,
0001
0000
0010
000M
0100
0000
10MM
0000
0100
00MM
1000
0000
11M0
0000
0000
0011
0000
0000
1001
0000
1000
0000
0100
0000
,
0010
0000
0100
0000
1000
0000
0001
0000
0010
0000
0100
0000
0010
0000
0001
0000
1000
0000
0100
0000
0010
M000
0001
0000
,
M010
0000
0000
0000
0100
0000
000M
0000
1000
0000
0000
0000
001M
0000
0000
0000
0100
0000
M000
0000
0001
0000
0000
0000
M100
0000
0000
0000
0010
0000
000M
0000
1000
0000
0000
0000
01MM
0000
0000
0000
0000
0000
MM0M
0000
0000
0010
0000
0000
,
MM0M
0000
MMM1
0000
1MMM
0000
MMMM
0000
M1MM
0000
MMMM
0000
M11M
0000
MM0M
0010
,
MM0M
0000
0000
MMM1
0000
0000
1000
0000
0100
0000
0010
0000
0001
0000
0010
0000
0100
0000
10M0
0000
0000
01M0
0000
0000
,
00M1
01M0
1M00
0M10
0M01
0M10
1000
01M0
,
00M1
1M00
MM10
0M01
1MM1
1M00
0M10
0M01
,
10M0
01M0
M001
0M10
1MM0
00M1
01M0
1MM0
,
1001
0110
1001
1000
M10M
M01M
M11M
M1M0
,
MM10
M10M
M11M
010M
10M0
0M01
1MM1
11MM
,
101M
001M
100M
010M
M010
M001
M01M
M10M
,
100M
001M
010M
001M
101M
0110
M101
M0M1
,
M1M0
M01M
M10M
M0M0
MM01
M010
M100
M000
,
MM11
0000
0000
0000
1000
0100
0010
0001
1001
0000
0000
0000
1100
0000
0100
0000
,
0010
0000
0011
0010
0000
0100
1100
0000
,
1001
1000
0100
0010
0100
1000
0010
0100
,
0101
0001
0100
0010
1000
0010
0100
0001
,
1001
0000
0000
0000
0000
0000
MMMM
0000
0000
0000
0000
0000
2002
3003
0000
M00M
0000
0000
1000
0000
0000
0000
0000
0000
,
0110
0010
0001
0010
0110
0100
0000
1000
,
0100
0010
0000
0001
0010
0100
1000
0000
,
1001
0000
MMMM
0000
1000
0010
0000
0100
,
0001
0010
0000
0100
1000
0010
0100
0000
,
0101
0000
MMMM
0000
1001
0000
1100
0100
,
0000
0010
0110
0000
1000
0100
0010
0001
,
1000
0010
0100
0000
1001
0000
1000
1100
,
0000
0011
0001
0010
0100
1000
0100
0010
,
0001
1000
0001
0000
100M
0010
M100
0010
,
100M
0100
M010
0001
001M
0100
1M00
0010
,
010M
0010
M100
0001
01M0
0010
1M00
0100
,
100M
0010
01M0
0001
0M10
0100
10M0
0100
,
001M
0001
0M10
0100
11M0
1000
0100
M010
,
MM01
M010
0100
1000
0010
M100
M001
M100
,
001M
100M
010M
0010
M001
0M01
10M0
100M
,
010M
M010
MM01
MMM1
MM10
M010
010M
10MM
,
020M
0000
0000
M0MM
0300
0000
1001
0000
0000
1100
0000
0000
0000
0000
0000
0110
0000
0000
0011
0000
0000
0000
0000
0000
,
00MM
0000
1001
0000
1000
0010
0110
0000
,
MMMM
0000
1000
0001
0000
0100
0010
0000
,
0MM0
0000
1001
0000
1000
1000
1000
0000
,
MMMM
0000
0010
0100
0000
0100
0010
0000
,
0MM0
0000
1001
0000
0001
0001
0001
0000
,
MMMM
0000
1010
0100
0000
0011
1000
0000
,
M000
0000
1000
0000
0010
0100
0001
0000
,
MMMM
0000
0000
0000
1100
0000
0100
0110
0000
0010
0011
0000
1100
0110
0000
0011
,
2002
3003
0000
0000
0000
0000
1000
0000
0000
0100
0000
0000
0010
0000
0000
0100
0000
0000
1100
0000
0000
0000
0000
0000
,
1001
1000
M001
M000
M101
M100
MM01
0M00
,
1M01
0M00
0M11
0M01
0010
01M0
100M
11MM
,
00MM
0000
0000
11MM
0000
0000
10M0
0000
0001
00M0
0100
0000
00M1
0000
0000
MMM0
0000
0000
MM01
0000
0010
0M00
0001
0000
,
1MM0
0000
0000
0000
0000
0000
0MMM
0000
0000
0000
0000
0000
10MM
0000
0000
000M
0100
0000
M00M
0000
0010
M00M
0000
0000
010M
0000
0000
00M0
1000
0000
0M00
0000
0001
00M0
0000
0000
1M00
0000
0000
00M0
0001
0000
0M00
0000
1000
0M0M
0000
0000
,
M01M
0000
0000
M000
0100
0000
00M0
0000
0001
M000
0000
0000
01M0
0000
0000
M00M
0010
0000
000M
0000
0100
M000
0000
0000
001M
0000
0000
000M
1000
0000
000M
0000
0100
M00M
0000
0000
M010
0000
0000
MM00
0001
0000
M000
0000
0010
000M
0000
0000
,
010M
0000
0000
000M
1000
0000
000M
0000
0010
M00M
0000
0000
M100
0000
0000
M0M0
0000
0000
0MM1
0000
0000
MM00
0000
0000
M01M
0000
0000
000M
0000
0000
01MM
0000
0000
00MM
0000
0000
1MMM
0000
0000
00MM
0000
0000
01MM
0000
0000
M00M
0000
0000
,
MM10
MM00
MMM1
0MM0
1MM1
0MM0
0MM0
0000
1000
0000
0010
0000
0101
0000
0000
0000
,
1001
0000
0000
0000
1100
0100
0000
0100
0110
0000
1001
0000
1100
0000
1010
0001
,
0011
1001
1100
0010
0000
0110
1000
0000
,
MMM0
0000
1001
0000
1000
0001
1000
0000
,
MMMM
0000
0110
0100
0000
0010
0110
0000
,
0MM0
0000
0110
0000
0100
0010
0100
0000
,
MMMM
0000
1000
0010
0000
0100
0010
0000
,
0MM0
0000
1010
0000
1000
0100
0010
0000
,
MMMM
0000
0000
0000
1000
0100
0000
0100
1000
0000
1001
0000
0001
0010
0100
0010
,
0001
1001
1010
0010
0000
0100
0101
0000
,
0M0M
0000
1000
0100
0010
0001
1001
0000
,
MMMM
0000
1000
0010
0000
0100
0001
0000
,
1001
0000
1100
0000
0100
0100
0100
0000
,
MMMM
0000
0110
0110
0000
1001
1001
0000
,
M00M
0000
1000
0000
0010
0001
0010
0000
,
1MMM
0000
1000
0100
0001
1000
0010
0001
,
0010
1000
0001
0100
1000
0100
0010
0001
,
0011
0010
0100
0010
0001
0100
0010
0100
,
0001
0000
0000
0010
0000
0000
0100
0000
0000
1000
0000
0000
0100
0000
0000
0110
0000
0000
MM10
0000
MM01
0000
MM10
0000
,
MM01
MM10
MM01
M01M
M10M
M01M
M10M
M01M
01MM
10MM
01MM
10MM
,
M10M
0000
MM10
0000
MM01
0000
0011
0000
0000
1001
0000
0000
1100
0000
0000
1000
0000
0000
0100
0000
0000
0011
0000
0000
,
0001
0100
1010
1000
0100
0010
0001
0011
,
1001
1000
0001
0010
0100
0010
0001
1000
,
0010
0100
0010
1000
1100
0110
0011
0001
,
0100
0010
1000
0100
0010
0100
1000
0001
,
0010
0100
0010
0001
0100
0010
1000
0010
,
0100
0001
0010
0100
1000
0100
0010
0001
,
1000
0100
1000
0100
0010
0001
1000
0001
,
0000
0000
MMMM
0000
0000
MMMM
0000
0000
MMMM
0000
0000
0000
1001
0000
0000
0000
,
1000
0100
0010
0000
0001
0000
MMM0
MM0M
,
M0MM
0MMM
11MM
MMMM
0000
MMMM
1MM1
0000
,
MMMM
M11M
MMMM
1MMM
,
M1MM
MM1M
MMM1
1MM1
,
1MMM
MM1M
M1MM
0000
M1M1
0000
MMMM
MMMM
,
MMMM
0M0M
1M1M
0M0M
MMMM
MMMM
MMMM
MMMM
,
MMMM
0000
0000
0000
MMMM
0000
0000
0000
MMMM
0000
0000
0000
MMMM
0000
0000
0000
MMMM
0000
0000
0000
MMMM
0000
0000
0000
MMMM
0000
0000
0000
MMMM
0000
0000
0000
MMMM
0000
0000
0000
MMMM
0000
0000
MMMM
0000
0000
MMMM
0000
0000
MMMM
0000
0000
,
MMMM
0000
MMMM
0000
0MMM
0000
00MM
0000
200M
0000
000M
0000
020M
0000
000M
0000
331M
0000
000M
0000
MM0M
0000
MMMM
0000
MMMM
MMMM
MMMM
MMMM
MMMM
MMMM
MMMM
0000
;
