#TITLE:Standing On The Edge;
#SUBTITLE:;
#ARTIST:The Browning;
#TITLETRANSLIT:;
#SUBTITLETRANSLIT:;
#ARTISTTRANSLIT:;
#CREDIT:;
#BANNER:../Beast - bn.png;
#BACKGROUND:../Beast - bg.png;
#LYRICSPATH:;
#CDTITLE:;
#MUSIC:Standing On The Edge.ogg;
#OFFSET:-0.512;
#SAMPLESTART:80.960;
#SAMPLELENGTH:12.000;
#SELECTABLE:YES;
#DISPLAYBPM:160.000;
#BPMS:0.000=160.000,312.000=140.000;
#STOPS:;
#BGCHANGES:;
// cache tags:
#FIRSTBEAT:12.000;
#LASTBEAT:409.750;
#SONGFILENAME:Songs/Beast Aoreo BEAST! 2/Standing On The Edge - [Aoreo]/Standing On The Edge.sm;
#HASMUSIC:1;
#HASBANNER:1;
#MUSICLENGTH:162.466;
// end cache tags

//---------------dance-single - J. Nero----------------
#NOTES:
     dance-single:
     J. Nero:
     Challenge:
     13:
     0.981,1.000,0.172,0.320,1.000,1036.000,28.000,52.000,2.000,0.000:
0000
0000
0000
0000
,
0000
0000
0000
0000
,
0000
0000
0000
0000
,
2000
0000
3002
0000
0023
0000
0230
0300
,
2200
0000
3300
0000
1000
0100
0010
0001
1000
0000
0000
0000
0001
0100
0000
0000
,
0010
0100
0010
1000
0001
0000
0000
0000
1000
0100
0010
0100
1000
0001
0100
0001
,
0100
0000
0000
0000
0010
0100
0001
1000
0001
0000
0000
0000
1000
0100
0000
0000
,
1000
0001
0100
0001
0100
0000
0000
0000
0010
1000
0010
0100
0001
0010
0100
1000
,
0001
0000
0000
0000
1000
0100
1000
0100
0010
0000
0000
0000
0001
1000
0000
0000
,
0001
0100
0010
0100
0001
0000
0000
0000
1000
0100
0010
0100
0010
0001
1000
0001
,
1000
0000
0000
0000
0010
0100
0010
0100
0001
0000
0000
0000
1000
0100
0000
0000
,
1000
0010
0100
0010
1000
0000
0000
0000
0001
0010
0100
1000
0001
1000
0010
0100
,
0010
1000
0001
1000
0001
1000
0001
1000
,
0001
0000
0000
0010
0000
0000
0000
0000
0000
0000
0000
0000
0001
0000
0000
1000
0000
0000
0000
0000
0000
0001
0000
0000
1000
0000
0000
0010
0000
0000
0100
0000
0000
0001
0000
0000
1000
0000
0010
0000
1000
0000
0001
0000
0100
0000
0001
0000
,
0100
0001
0100
0010
1000
0010
1000
0001
0010
0100
1000
0001
1000
0100
0010
0100
,
1000
0001
1000
0010
0100
0010
1000
0001
0010
0100
1000
0001
1000
0010
0100
0010
,
1000
0001
0010
0100
1000
0001
0100
0010
1000
0010
0100
0001
1000
0100
0010
0001
,
1000
0001
0100
0001
1000
0100
1000
0001
0100
0001
1000
0100
0010
0001
0100
0001
,
0010
0100
1000
0001
0100
0010
1000
0010
0100
0001
1000
0100
0010
0001
1000
0001
,
1000
0010
0100
0010
1000
0001
0010
0001
0010
0100
1000
0001
0100
0010
1000
0001
,
1000
0100
0010
0001
1000
0001
0100
0010
1000
0010
0100
0001
1000
0001
0010
0100
,
1000
0001
1000
0100
0010
0001
1000
0001
1000
0100
0010
0100
1000
0001
0100
0001
,
1000
0010
0100
0010
1000
0001
0010
0100
1000
0100
1000
0001
0100
0001
1000
0100
,
0010
0001
1000
0001
1000
0010
0100
0010
1000
0001
0010
0100
1000
0001
1000
0100
,
0010
0001
1000
0010
1000
0001
0100
0001
1000
0100
0010
0001
1000
0100
1000
0001
,
0100
0010
0100
0001
0010
0100
1000
0100
0010
0100
1000
0001
0100
0010
0100
0001
,
0100
0001
1000
0100
0010
0001
1000
0100
1000
0001
0100
0010
0100
0001
0010
0100
,
1000
0100
0010
0001
1000
0001
1000
0100
0010
0001
1000
0010
1000
0001
0100
0001
,
1000
0010
0100
0001
0100
0010
1000
0001
1000
0100
0010
0001
1000
0001
0100
0001
,
1000
0010
0100
0010
1000
0001
0010
0100
1000
0001
0010
0001
0010
0100
0010
0100
,
2000
0000
3000
0000
0001
1000
0100
0010
0001
0000
0000
0000
1000
0001
0000
0000
,
0100
0010
0100
0001
1000
0000
0000
0000
0100
1000
0100
0010
0001
1000
0001
0100
,
0010
0000
0000
0000
0100
0001
0100
0001
0010
0000
0000
0000
0100
1000
0000
0000
,
0100
1000
0001
0100
0001
0000
0000
0000
0100
0010
0100
0001
1000
0100
0010
0001
,
1000
0000
0000
0000
0001
0100
0010
0100
0001
0000
0000
0000
1000
0010
0000
0000
,
1000
0100
0010
0001
1000
0000
0000
0000
0100
1000
0100
1000
0001
0100
0001
1000
,
0010
0000
0000
0000
0100
0001
0100
0001
0010
0000
0000
0000
0100
1000
0000
0000
,
0100
1000
0001
1000
0001
0000
0000
0000
0100
0001
0100
0010
1000
0001
1000
0100
,
0010
0000
0010
0000
0001
1000
0010
0010
,
0000
0110
0100
0101
,
1001
0000
1100
0000
0100
0010
0001
0001
,
0000
1001
1000
1010
,
0110
0000
0101
0000
0001
0010
0100
0100
,
0000
1100
1000
1001
,
0011
0000
0110
0000
0100
1000
0001
0001
,
0000
0000
0000
0000
0000
0000
0000
0000
0000
0000
0000
0000
1001
0000
0000
0000
0000
0000
0000
0000
0000
0000
0000
0000
1000
0000
0000
0000
0000
0000
0001
0000
0000
1000
0000
0000
0001
0000
1000
0000
0001
0000
0010
0000
0100
0000
0010
0000
,
0200
0000
0300
0000
0000
0000
0000
0000
1100
0000
0000
0000
1000
0001
0200
0300
,
0000
0000
0000
0000
0000
0000
0000
0000
0002
0003
0000
0000
0000
0000
0000
0000
,
2000
3000
0000
0000
0000
0000
0000
0000
0000
0000
0000
0000
0010
1000
0002
0003
,
0000
0000
0000
0000
0000
0000
0000
0000
0200
0300
0001
0010
0001
0000
0001
0100
,
0002
0003
0000
0000
0000
0000
0000
0000
0101
0000
0000
0000
0100
0010
1000
0000
,
0000
0000
0000
0000
0000
0000
0000
0000
0200
0300
0000
0000
0000
0000
0000
0000
,
2000
3000
0000
0000
0000
0000
0000
0000
0000
0000
0000
0000
0001
0100
0020
0030
,
0000
0000
0000
0000
0000
0000
0000
0000
2000
3000
0100
1000
0100
0000
0100
0010
,
0200
0300
0000
0000
0000
0000
0000
0000
0110
0000
0000
0000
0010
0001
2000
3000
,
0000
0000
0000
0000
0000
0000
0000
0000
0002
0003
0000
0000
0000
0000
0000
0000
,
0200
0300
0000
0000
0000
0000
0000
0000
0110
0000
0000
0000
0010
1000
0002
0003
,
0000
0000
0000
0000
0000
0000
0000
0000
2000
3000
0010
0100
0010
0000
0010
1000
,
0020
0030
0000
0000
0000
0000
0000
0000
0110
0000
0000
0000
0100
0001
0020
0030
,
0000
0000
0000
0000
0000
0000
0000
0000
0200
0300
0000
0000
0000
0000
0000
0000
,
0200
0000
0300
0000
0000
0000
0000
0000
0000
0000
0000
0000
1000
0001
0200
0000
,
0300
0000
0000
0000
0000
0000
0000
0000
0000
0000
0000
0000
0000
0000
0000
0000
0000
0000
0000
0000
0000
0000
0000
0000
0001
0000
0000
0100
0000
0000
0010
0000
0000
0100
0000
0000
0001
0000
1000
0000
0001
0000
0100
0000
0010
0000
0100
0000
,
0001
1000
0010
0100
0001
0100
0001
1000
0100
0010
0001
1000
0001
0010
0100
0010
,
0001
1000
0001
0100
0010
0100
0001
1000
0100
0010
0001
1000
0001
0100
0010
0100
,
0001
1000
0100
0010
0001
1000
0010
0100
0001
0100
0010
1000
0001
0010
0100
1000
,
0001
1000
0010
1000
0001
0010
0001
1000
0010
1000
0001
0010
0100
1000
0010
1000
,
0100
0010
0001
1000
0010
0100
0001
0100
0010
1000
0001
0010
0100
1000
0001
1000
,
0001
0100
0010
0100
0001
1000
0100
1000
0100
0010
0001
1000
0010
0100
0001
1000
,
0001
0010
0100
1000
0001
1000
0010
0100
0001
0100
0010
1000
0001
1000
0100
0010
,
0001
1000
0001
0010
0100
1000
0001
1000
0001
0010
0100
0010
0001
1000
0010
1000
,
0001
0100
0010
0100
0001
1000
0100
0010
0001
0010
0001
1000
0010
1000
0001
0010
,
0100
1000
0001
1000
0001
0100
0010
0100
0001
1000
0100
0010
0001
1000
0001
0010
,
0100
1000
0001
0100
0001
1000
0010
1000
0001
0010
0100
1000
0001
0010
0001
1000
,
0010
0100
0010
1000
0100
0010
0001
0010
0100
0010
0001
1000
0010
0100
0010
1000
,
0010
1000
0001
0010
0100
1000
0001
0010
0001
1000
0010
0100
0010
1000
0100
0010
,
0001
0010
0100
1000
0001
1000
0001
0010
0100
1000
0001
0100
0001
1000
0010
1000
,
0001
0100
0010
1000
0010
0100
0001
1000
0001
0010
0100
1000
0001
1000
0100
0010
,
0001
0100
0010
0100
0001
1000
0100
0010
0001
1000
0100
1000
0100
0010
0100
0010
,
MM02
0003
1000
0001
1000
0010
0100
0001
,
0010
0100
0010
0001
1000
0001
1000
0100
,
0010
0100
1000
0010
0100
0001
0100
0010
,
1000
0001
0010
0100
1000
1000
0001
0001
,
0110
0101
1001
1100
,
0110
0011
1001
1010
,
0020
0000
0000
0000
0230
0000
0000
0000
0302
0003
0000
0002
0003
0000
0002
0003
,
2000
0000
0000
0000
3000
0000
0000
0000
0200
0000
0000
0000
0300
0000
0000
0000
2000
0000
3000
0000
0000
0000
0000
0000
0002
0003
0000
0000
0000
0000
0000
0000
0101
0000
0000
0000
0000
0000
0000
0000
0000
0000
0000
0000
0000
0000
0000
0000
0000
0000
0000
0000
0000
0000
0000
0000
0000
0000
0000
0000
0000
0000
0000
0000
,
0200
0000
0000
0000
0310
1000
0010
0100
0002
0000
0000
0003
0010
0100
0000
0000
,
1000
0100
1000
0001
0020
0000
0000
0030
0100
1000
0001
0100
0001
1000
0010
0100
,
0020
0000
0000
0030
0100
0001
0100
0010
2000
0000
0000
3000
0100
1000
0000
0000
,
0001
0100
0010
0100
0002
0000
0000
0003
1000
0100
0010
0001
1000
0001
0010
0100
,
2000
0000
0000
3000
0001
0100
0001
0100
0020
0000
0000
0030
1000
0100
0000
0000
,
1000
0010
0100
0001
2000
0000
0000
3000
0001
0010
0100
1000
0001
0100
0010
1000
,
0020
0000
0000
0030
0100
0010
1000
0001
2000
0000
0000
3000
0100
0010
0000
0000
,
0001
0010
0100
1000
0200
0000
0000
0300
1000
0001
0010
0100
1000
0001
1000
0100
,
0010
0000
0000
0000
0001
0100
0001
0100
0010
0000
0000
0000
1000
0001
0000
0000
,
1000
0010
0100
0010
1000
0000
0000
0000
0001
0010
0100
0010
0100
1000
0001
1000
,
0001
0000
0000
0000
0100
0010
0100
0010
1000
0000
0000
0000
0001
0010
0000
0000
,
0001
0100
0010
0100
0001
0000
0000
0000
1000
0100
0010
0001
1000
0001
0100
0010
,
0100
0000
0000
0000
0001
1000
0100
1000
0010
0000
0000
0000
0100
0001
0000
0000
,
0010
0001
0010
0100
1000
0000
0000
0000
0100
1000
0001
0100
0001
1000
0010
0100
,
0010
0000
0000
0000
0100
0001
0100
0001
1000
0000
0000
0000
0100
0010
0000
0000
,
0001
0010
0001
0010
0100
0000
0000
0000
1000
0001
1000
0001
0100
0010
0100
0002
,
0000
0000
0000
0000
0000
0000
0000
0003
0000
0000
0000
0000
0000
0000
0000
0000
;
