#TITLE:You are the only one;
#SUBTITLE:(Eurovision 2016 - Russia);
#ARTIST:Sergey Lazarev;
#TITLETRANSLIT:;
#SUBTITLETRANSLIT:;
#ARTISTTRANSLIT:;
#CREDIT:;
#BANNER:banner.png;
#BACKGROUND:bg-fallback.png;
#LYRICSPATH:;
#CDTITLE:;
#MUSIC:You are the only one.ogg;
#OFFSET:-0.165;
#SAMPLESTART:50.501;
#SAMPLELENGTH:12.000;
#SELECTABLE:YES;
#BPMS:0.000=128.000;
#STOPS:;
#BGCHANGES:;
// cache tags:
#FIRSTBEAT:8.000;
#LASTBEAT:390.000;
#SONGFILENAME:Songs/Index Tournament 1/You are the only one (BenouKat)/You are the only one.sm;
#HASMUSIC:1;
#HASBANNER:1;
#MUSICLENGTH:186.644;
// end cache tags

//---------------dance-single - BNKT----------------
#NOTES:
     dance-single:
     BNKT:
     Challenge:
     10:
     0.733,0.679,0.134,0.611,1.000,816.000,25.000,114.000,3.000,0.000:
0000
0000
0000
0000
,
0000
0000
0000
0000
,
1000
0000
0001
0000
0001
0000
0100
0000
0010
0000
1000
0000
,
0100
0000
1000
0000
1000
0000
0001
0000
0100
0000
0010
0100
,
0010
0000
1000
0000
1000
0000
0001
0000
0010
0000
0001
0000
,
0100
0000
0010
0000
1000
0000
0100
0000
0010
0000
0001
0010
,
0001
0000
1000
0000
0010
0000
0100
0001
0100
0010
1000
0100
,
2000
0000
3200
0000
0320
0000
0032
0000
2003
0000
3010
0100
,
0010
0000
1000
0000
0010
0000
1000
0001
0100
0001
1000
0100
,
2000
0000
0000
0000
0000
0000
0000
0000
3002
0000
0000
0000
0000
0000
0000
0000
0203
0000
0000
0000
0000
0000
0000
0000
0320
0000
0000
0000
0000
0000
0000
0000
2000
0030
0000
0000
0000
0000
0000
0000
3002
0000
0000
0000
0013
0000
0000
0000
,
0100
0000
1000
0000
0100
0000
0010
0001
0010
0001
0200
0000
,
0320
0000
2030
0000
3002
0000
0203
0000
0320
0000
1030
0100
,
0010
0000
0001
0000
1000
0000
0010
0100
0010
1000
0010
0100
,
0002
0000
2000
0003
0020
3000
0100
0000
0100
0000
0100
0000
,
0100
0030
0010
0000
1000
0000
0100
0000
0010
0000
0001
0000
,
0100
0000
0010
0000
1000
0000
0100
0000
0020
0000
0032
0000
,
2003
0000
3020
0000
0230
0000
0010
0000
0010
0000
0010
0000
,
0310
0000
0100
0000
0001
0000
1000
0000
0001
0000
0010
0000
,
0004
0000
0000
0000
0000
0000
0000
0003
1001
1000
0001
0100
,
0101
0000
0001
0010
0100
1000
0100
0000
0100
1000
0000
1000
,
0200
0000
0320
0000
0032
0000
0023
0000
0230
0000
2300
3000
,
1100
0000
0001
0010
0001
0010
0001
0000
1000
0000
0001
0100
,
0002
0000
2003
0000
3002
0000
0023
0000
0031
0010
0001
0010
,
0001
0000
1000
0100
1000
0100
1000
0000
1000
0010
0000
0010
,
2000
0000
3020
0000
2030
0000
3200
0000
2300
0000
3100
0010
,
0001
0000
0001
0010
0000
0100
1000
0000
1000
0100
0000
0010
,
0004
0000
0000
0000
0000
0003
0011
0000
0000
0001
0010
0001
,
0010
0001
0100
0001
1000
0001
1000
0010
0100
0010
1000
0100
,
0001
0100
1000
0001
0010
1000
0010
0001
0010
0100
1000
0100
,
0010
0001
0010
0100
0010
0100
0001
0100
1000
0010
1000
0010
,
0001
0010
1000
0010
0001
0010
2000
0000
0000
0100
0000
3000
,
1000
0100
0010
0001
1000
0100
0001
0100
1000
0100
0010
0100
,
0001
0100
1000
0001
1000
0010
0001
0010
1000
0100
0010
0100
,
1000
0001
0100
0001
1000
0100
0001
0100
1000
0001
0100
0010
,
0001
0010
1000
0010
0001
0010
2000
0000
3000
0100
1000
0100
,
1100
1000
0100
0010
0001
0010
0100
1000
0100
0010
0001
0010
,
0100
1000
0001
0100
0010
1000
0001
0100
0010
1000
0001
0100
,
0010
1000
0010
0100
0010
1000
0001
0100
0010
1000
0100
0010
,
0001
0010
0001
1000
0100
1000
0001
0100
0010
1000
0100
0010
,
0001
0000
2000
3000
1000
0100
0001
0000
0002
0003
0001
0100
,
1000
0000
0002
0003
0001
0010
1000
0000
2000
3000
1000
0010
,
0001
0010
0001
1000
0010
0100
0001
1000
0010
0100
0001
1000
,
0100
0010
0001
1000
0100
1000
0100
1000
0100
1000
0100
1000
,
0100
0000
0100
0010
0000
0010
0001
0000
0001
0010
0000
0010
,
0100
0000
0100
0010
0000
0010
0100
0000
0100
1000
0000
1000
,
0001
0000
0001
1000
0010
1000
0010
0000
1000
0001
0000
0100
,
0002
0000
0023
0000
0030
0200
2000
0300
3200
0000
1300
0100
,
1000
0000
0001
0100
0001
0100
0001
0000
0001
0010
0000
0100
,
2000
0000
3002
0000
0103
0010
2000
0000
3002
0000
0203
0000
,
0310
0000
0000
1000
0001
1000
0001
0000
0001
1000
0000
1000
,
0020
0000
0230
0000
0320
0000
2030
0000
3200
0000
0320
0000
,
0001
0000
0030
0010
0001
0010
0001
0000
1000
0100
0000
0100
,
2000
0000
3200
0000
0320
0000
0000
0030
0110
0100
1000
0100
,
1100
0000
0000
1000
0010
1000
0010
0000
0010
1000
0000
1000
,
0200
0000
0320
0000
0230
0000
2300
0000
3002
0000
0203
0000
,
0320
0000
0030
0100
0001
0100
0001
0000
1000
0000
0100
0010
,
0002
0000
0203
0000
0302
0000
0023
0000
0000
0031
0010
0001
,
0011
0000
0000
1000
0100
1000
0100
0000
0100
1000
0000
1000
,
0002
0000
0203
0000
0320
0000
2030
0000
3002
0000
0013
0001
,
0010
0000
0010
0100
0000
0100
1000
0000
1000
0001
0000
0001
,
0400
0000
0000
0000
0000
0300
0101
0000
0001
0100
0001
0100
,
0001
0010
0100
1000
0001
0010
0100
1000
0100
0010
0001
0100
,
1000
0100
0001
0010
0100
0010
1000
0010
0100
1000
0001
0010
,
0001
1000
0001
1000
0010
0100
1000
0100
0010
1000
0001
0100
,
1000
0100
0001
0100
1000
0100
0002
0000
0000
0100
0000
0003
,
0001
1000
0010
0100
0001
0100
0010
1000
0100
1000
0001
0100
,
1000
0100
0001
0010
0001
0010
1000
0010
0001
1000
0010
0100
,
1000
0100
0001
0010
0001
0010
1000
0010
0001
0010
0001
0010
,
1000
0010
0001
0010
1000
0010
0002
0000
0000
0013
0001
0010
,
0011
0001
0010
0100
1000
0100
1000
0001
0100
0001
0010
0100
,
0010
0100
0010
0001
1000
0010
0100
0010
1000
0100
0010
0001
,
1000
0100
0010
0100
1000
0001
0100
0010
0100
0010
1000
0010
,
0100
0001
1000
0010
0100
0010
1000
0100
0010
0100
1000
0001
,
0100
0000
0002
0003
0001
0100
1000
0000
2000
3000
1000
0100
,
0001
0000
0002
0003
0001
0010
1000
0000
2000
3000
1000
0010
,
0001
1000
0001
1000
0100
1000
0001
0010
0001
1000
0010
1000
,
0100
0010
0001
0010
0100
1000
0001
0100
0001
0100
0001
0100
,
0002
0000
0203
0000
,
0320
0000
0230
0000
0302
0000
0203
0000
0000
0000
0000
0000
,
0320
0000
2030
0000
3200
0000
0320
0000
0000
0000
0000
0000
,
0032
0000
2003
0000
,
3002
0000
2003
0000
,
3002
0000
0203
0000
0320
0000
2030
0000
0000
0000
0000
0000
,
3002
0000
0000
0000
0000
0000
2003
0000
3100
1000
0100
1000
,
0100
0010
0001
1000
0010
0100
1000
0100
0001
0010
0001
0100
,
1000
0100
0010
0100
0001
0010
1000
0010
0100
1000
0001
0100
,
1000
0100
0001
0010
0100
0010
1000
0010
0001
0100
0010
0100
,
1000
0100
0001
0100
0010
0100
1000
0100
0001
0010
0100
0010
,
1000
0010
0001
0100
0010
0100
1000
0100
0010
0100
0001
1000
,
1100
0000
0011
0000
0101
0000
1010
0000
0110
0000
0101
0001
,
0100
0010
1000
0001
0100
0010
1000
0100
0010
0001
0010
0100
,
1000
0100
0010
0100
1000
0001
0100
0010
0100
0001
1000
0010
,
0100
0000
0020
0030
0010
0100
1000
0000
2000
3000
1000
0100
,
0001
0000
0002
0003
0001
0010
1000
0000
2000
3000
1000
0010
,
0100
0000
0110
0000
0110
0000
0101
0000
0101
0000
1010
0000
,
1010
0000
1001
0000
1001
0000
2002
0M00
0000
00M0
0000
3M03
,
0001
0000
0100
0000
0001
0000
1000
0000
0100
1000
0100
1000
,
0200
0000
0300
0000
;
