#TITLE:[F-2] The End;
#SUBTITLE:;
#ARTIST:goreshit;
#TITLETRANSLIT:;
#SUBTITLETRANSLIT:;
#ARTISTTRANSLIT:;
#CREDIT:Aoreo;
#BANNER:../Beast 4 - bn.png;
#BACKGROUND:../Beast 4 - bg.png;
#LYRICSPATH:;
#CDTITLE:;
#MUSIC:The End.ogg;
#OFFSET:0.010;
#SAMPLESTART:202.463;
#SAMPLELENGTH:20.420;
#SELECTABLE:YES;
#BPMS:0.000=217.000;
#STOPS:;
#BGCHANGES:;
// cache tags:
#FIRSTBEAT:0.000;
#LASTBEAT:1023.750;
#SONGFILENAME:Songs/Beast Aoreo BEAST! 4/The End - [Aoreo]/The End.sm;
#HASMUSIC:1;
#HASBANNER:1;
#MUSICLENGTH:283.132;
// end cache tags

//---------------dance-single - J. Nero----------------
#NOTES:
     dance-single:
     J. Nero:
     Challenge:
     19:
     1.000,1.000,0.028,0.007,1.000,3793.000,8.000,2.000,0.000,0.000:
1000
0000
0001
0000
0100
0000
0001
0000
0010
0000
0100
1000
0001
1000
0010
0000
,
0100
0001
0010
0001
1000
0100
0010
0100
,
1000
0000
0010
0000
0100
0000
0010
0000
1000
0000
0001
0010
0100
1000
0001
0000
,
0100
0000
0001
1000
0001
0000
1000
0000
0100
0000
0010
0000
0100
0000
1000
0000
,
0010
0000
0100
0000
0001
0000
1000
0000
0100
0000
1000
0100
1000
0001
0010
0000
,
0100
1000
0010
0100
0010
1000
0100
0010
,
0001
0000
0100
0000
0001
0000
1000
0000
0100
0000
1000
0001
0010
0100
1000
0000
,
0001
0000
0100
0010
0100
0000
0001
0000
0010
0000
0100
0000
1000
0100
0010
0001
,
0100
0000
0001
0000
1000
0000
0100
0000
0010
0000
0100
1000
0001
0100
0001
0000
,
0100
0010
1000
0100
1000
0001
0010
0100
,
1000
0000
0001
0000
0100
0000
0001
0000
1000
0000
0100
0010
0001
1000
0001
0000
,
0100
0000
0001
1000
0100
0000
0010
0000
0100
0000
1000
0000
0010
0000
1000
0000
,
0100
0000
0010
0000
0001
0000
0100
0000
0010
0000
0100
0001
1000
0001
0010
0000
,
0100
1000
0010
0100
0001
0010
0100
1000
,
0001
0000
0100
0000
0001
0000
1000
0000
0100
0000
0010
0001
1000
0001
0100
0000
,
0010
0000
0100
0001
1000
0000
0001
0000
0010
0000
0100
1000
0001
1000
0010
1000
,
0100
0010
0001
1000
0001
1000
0010
0100
0001
1000
0100
1000
0001
0100
0001
0100
,
0001
1000
0010
0100
0010
1000
0001
0100
0001
1000
0100
0010
0001
1000
0100
0010
,
0100
1000
0001
0010
0100
0010
0001
1000
0100
0010
0001
1000
0001
0100
0010
0100
,
0001
1000
0100
1000
0001
0100
0001
1000
0010
1000
0001
0100
0001
1000
0001
0100
,
0010
1000
0001
0010
0001
1000
0100
0010
0100
1000
0001
0010
0100
1000
0001
0100
,
0001
1000
0100
0010
0100
0010
0001
1000
0100
1000
0001
0100
0010
0100
0001
1000
,
0001
1000
0100
1000
0001
0100
0010
0100
0001
1000
0001
0100
0001
1000
0010
0100
,
0001
1000
0100
1000
0001
0010
0100
1000
0001
1000
0100
0010
0100
1000
0001
1000
,
0100
0010
0001
1000
0001
0100
0001
1000
0010
1000
0001
1000
0100
0010
0001
1000
,
0100
0010
0100
0010
0001
1000
0100
1000
0001
0100
0001
1000
0100
1000
0001
1000
,
0001
0100
0010
1000
0001
0100
0001
1000
0010
0100
0010
1000
0001
1000
0001
0100
,
0001
1000
0010
0100
0010
1000
0001
0010
0100
0010
0100
1000
0001
0010
0001
1000
,
0100
0010
0001
1000
0100
1000
0001
0100
0001
1000
0010
0100
0001
1000
0010
0100
,
0010
1000
0001
0100
0010
0100
0001
1000
0010
1000
0001
0100
0010
1000
0001
1000
,
0100
0010
0001
1000
0100
0010
0100
1000
0001
0010
0100
1000
0001
0010
0001
1000
,
0100
0010
0100
0010
0001
1000
0100
1000
0001
0100
0001
1000
0010
0100
0010
1000
,
0001
0100
0001
1000
0001
0100
0001
1000
0100
1000
0001
0100
0001
1000
0100
1000
,
0001
0010
0001
0010
0100
1000
0001
0100
0001
1000
0100
1000
0001
0100
0001
1000
,
0100
0010
0001
1000
0001
0100
0010
0100
0001
1000
0100
0010
0001
1000
0001
0100
,
0010
0100
0001
1000
0100
1000
0001
1000
0010
0100
0010
1000
0001
0100
0001
1000
,
0001
1000
0010
1000
0001
0010
0100
1000
0001
1000
0001
0100
0001
1000
0010
1000
,
0010
0100
0001
1000
0100
1000
0100
0010
0001
1000
0001
1000
0100
0010
0001
1000
,
0100
1000
0100
0010
0001
1000
0001
1000
0010
0100
0010
1000
0001
0100
0001
1000
,
0100
1000
0001
0010
0100
1000
0100
1000
0001
0100
0001
0100
0010
1000
0001
1000
,
0100
0010
0100
1000
0001
0010
0001
1000
0100
0010
0001
1000
0001
0010
0100
1000
,
0001
0100
0001
1000
0001
0100
0010
1000
0010
1000
0001
1000
0100
0010
0001
1000
,
0100
1000
0001
0010
0100
1000
0001
0100
0001
1000
0010
1000
0010
0100
0001
1000
,
0100
0010
0001
1000
0100
1000
0001
0010
0100
0010
0001
1000
0100
1000
0001
0100
,
0010
0100
0001
1000
0100
0010
0001
1000
0100
1000
0001
0100
0010
0100
0001
1000
,
0010
0100
0010
1000
0001
1000
0010
0100
0001
1000
0001
0010
0100
1000
0001
1000
,
0001
0100
0010
1000
0001
1000
0100
1000
0001
0100
0001
1000
0010
1000
0010
0100
,
0001
1000
0001
1000
0100
1000
0001
0100
0010
0100
0001
1000
0001
0100
0001
1000
,
0100
0010
0100
0010
0001
1000
0100
1000
0001
0010
0001
1000
0100
1000
0001
0100
,
0010
1000
0001
1000
0001
0100
0001
1000
0100
0010
0001
1000
0100
1000
0001
1000
,
0001
0100
0001
1000
0010
0100
0010
1000
0001
1000
0100
1000
0001
0100
0001
1000
,
0010
0100
0010
1000
0001
0100
0001
1000
0001
1000
0100
0010
0100
1000
0001
0010
,
0100
1000
0001
0100
0001
1000
0100
1000
0001
0010
0100
1000
0001
0100
0001
1000
,
0100
0010
0100
1000
0001
0100
0001
1000
0010
1000
0001
1000
0001
0100
0001
0100
,
0010
1000
0010
0100
0001
1000
0001
0010
0100
1000
0001
0010
0100
0010
0100
1000
,
0001
0100
0001
1000
0001
0100
0010
0100
0001
1000
0100
1000
0001
0010
0100
0010
,
0001
1000
0001
0100
0010
0100
0001
1000
0001
1000
0100
1000
0001
0010
0100
1000
,
0001
0100
0010
0100
0001
1000
0010
0100
0001
1000
0001
0100
0001
1000
0010
0100
,
0010
1000
0001
1000
0100
0010
0001
1000
0001
0010
0100
0010
0001
1000
0100
1000
,
0001
0100
0010
1000
0010
0100
0001
1000
0100
0010
0001
1000
0100
1000
0001
0100
,
0001
1000
0001
1000
0100
1000
0001
0100
0001
0100
0010
1000
0010
0100
0001
1000
,
0100
0010
0001
1000
0100
0010
0100
0010
0001
1000
0100
1000
0001
0010
0100
0010
,
0001
1000
0100
1000
0001
1000
0010
0100
0001
1000
0001
0100
0010
0100
0001
1000
,
0001
0010
0100
1000
0001
1000
0001
0100
0010
0100
0001
1000
0100
0010
0001
1000
,
0001
0000
0100
0000
0001
0000
0010
0000
0100
0000
1000
0100
0010
0100
1000
0000
,
0001
0100
0010
0100
0001
0010
0100
1000
,
0001
0000
0100
0000
0001
0000
1000
0000
0010
0000
0100
0001
1000
0001
0010
0000
,
0100
0000
1000
0001
1000
0000
0010
0000
1000
0000
0100
0000
0010
0000
0001
0000
,
0100
0000
0010
0000
0100
0000
0010
0000
1000
0000
0010
0100
0001
1000
0001
0000
,
1000
0100
0010
0100
1000
0010
0100
0001
,
0010
0000
0001
0000
1000
0000
0010
0000
0100
0000
0010
1000
0010
0100
0001
0000
,
0010
0000
0100
1000
0001
0000
0100
0000
0010
0000
1000
0000
0001
0010
0001
1000
,
0001
0000
1000
0000
0100
0000
0010
0000
0100
0000
1000
0001
1000
0001
0010
0000
,
0001
0100
0010
1000
0100
0010
0001
1000
,
0010
0000
0100
0000
0001
0000
0010
0000
0001
0000
1000
0100
0010
0001
1000
0000
,
0001
0000
0100
0001
1000
0000
0001
0000
0010
0000
0001
0000
0100
0000
0010
0000
,
1000
0000
0100
0000
1000
0000
0001
0000
0010
0000
0100
1000
0001
0100
0001
0000
,
0100
0010
0100
0001
0010
0100
1000
0001
,
1000
0000
0100
0000
0010
0000
0100
0000
1000
0000
0001
0100
0001
1000
0100
0000
,
0010
0000
0001
1000
0001
0000
0100
0000
0010
0000
1000
0001
0010
0100
1000
0010
,
0100
0010
1000
0001
1000
0001
0010
0100
1000
0001
0100
0001
1000
0100
1000
0100
,
1000
0001
0010
0100
0010
0001
1000
0100
1000
0001
0100
0010
1000
0001
0100
0010
,
0100
0001
1000
0010
0100
0010
1000
0001
0100
0010
1000
0001
1000
0100
0010
0100
,
1000
0001
0100
0001
1000
0100
1000
0001
0010
0001
1000
0100
1000
0001
1000
0100
,
0010
0001
1000
0010
1000
0001
0100
0010
0100
0001
1000
0010
0100
0001
1000
0100
,
1000
0001
0100
0010
0100
0010
1000
0001
0100
0001
1000
0100
0010
0100
1000
0001
,
1000
0001
0100
0001
1000
0100
0010
0100
1000
0001
1000
0100
1000
0001
0010
0100
,
1000
0001
0100
0001
1000
0010
0100
0001
1000
0001
0100
0010
0100
0001
1000
0001
,
0100
0010
1000
0001
1000
0100
1000
0001
0010
0001
1000
0001
0100
0010
1000
0001
,
0100
0010
0100
0010
1000
0001
0100
0001
1000
0100
1000
0001
0100
0001
1000
0001
,
1000
0100
0010
0001
1000
0100
1000
0001
0010
0100
0010
0001
1000
0001
1000
0100
,
1000
0001
0010
0100
0010
0001
1000
0010
0100
0010
0100
0001
1000
0010
1000
0001
,
0100
0010
1000
0001
0100
0001
1000
0100
1000
0001
0010
0100
1000
0001
0010
0100
,
0010
0001
1000
0100
0010
0100
1000
0001
0010
0001
1000
0100
0010
0001
1000
0001
,
0100
0010
1000
0001
0100
0010
0100
0001
1000
0010
0100
0001
1000
0010
1000
0001
,
0100
0010
0100
0010
1000
0001
0100
0001
1000
0100
1000
0001
0010
0100
0010
0001
,
1000
0100
1000
0001
0010
0100
1000
0001
0100
0001
1000
0100
1000
0001
0100
0001
,
1000
0010
1000
0010
0100
0001
1000
0100
1000
0001
0100
0001
1000
0100
1000
0001
,
0100
0010
1000
0001
1000
0100
0010
0100
1000
0001
0100
0010
1000
0001
1000
0100
,
0010
0100
1000
0001
0100
0001
1000
0001
0010
0100
0010
0001
1000
0100
1000
0001
,
1000
0001
0010
0001
1000
0010
0100
0001
1000
0001
1000
0100
1000
0001
0010
0001
,
0010
0100
1000
0001
0100
0001
0100
0010
1000
0001
1000
0001
0100
0010
1000
0001
,
0100
0001
0100
0010
1000
0001
1000
0001
0010
0100
0010
0001
1000
0100
1000
0001
,
0100
0001
1000
0010
0100
0001
0100
0001
1000
0100
1000
0100
0010
0001
1000
0001
,
0100
0010
0100
0001
1000
0010
1000
0001
0100
0010
1000
0001
1000
0010
0100
0001
,
1000
0100
1000
0001
1000
0100
0010
0001
0010
0001
1000
0001
0100
0010
1000
0001
,
0100
0001
1000
0010
0100
0001
1000
0100
1000
0001
0010
0001
0010
0100
1000
0001
,
0100
0010
1000
0001
0100
0001
1000
0010
0100
0010
1000
0001
0100
0001
1000
0100
,
0010
0100
1000
0001
0100
0010
1000
0001
0100
0001
1000
0100
0010
0100
1000
0001
,
0010
0100
0010
0001
1000
0001
0010
0100
1000
0001
1000
0010
0100
0001
1000
0001
,
1000
0100
0010
0001
1000
0001
0100
0001
1000
0100
1000
0001
0010
0001
0010
0100
,
1000
0001
1000
0001
0100
0001
1000
0100
0010
0100
1000
0001
1000
0100
1000
0001
,
0100
0010
0100
0010
1000
0001
0100
0001
1000
0010
1000
0001
0100
0001
1000
0100
,
0010
0001
1000
0001
1000
0100
1000
0001
0100
0010
1000
0001
0100
0001
1000
0001
,
1000
0100
1000
0001
0010
0100
0010
0001
1000
0001
0100
0001
1000
0100
1000
0001
,
0010
0100
0010
0001
1000
0100
1000
0001
1000
0001
0100
0010
0100
0001
1000
0010
,
0100
0001
1000
0100
1000
0001
0100
0001
1000
0010
0100
0001
1000
0100
1000
0001
,
0100
0010
0100
0001
1000
0100
1000
0001
0010
0001
1000
0001
1000
0100
1000
0100
,
0010
0001
0010
0100
1000
0001
1000
0010
0100
0001
1000
0010
0100
0010
0100
0001
,
1000
0100
1000
0001
1000
0100
0010
0100
1000
0001
0100
0001
1000
0010
0100
0010
,
1000
0001
1000
0100
0010
0100
1000
0001
1000
0001
0100
0001
1000
0010
0100
0001
,
1000
0100
0010
0100
1000
0001
0010
0100
1000
0001
1000
0100
1000
0001
0010
0100
,
0010
0001
1000
0001
0100
0010
1000
0001
1000
0010
0100
0010
1000
0001
0100
0001
,
1000
0100
0010
0001
0010
0100
1000
0001
0100
0010
1000
0001
0100
0001
1000
0100
,
1000
0001
1000
0001
0100
0001
1000
0100
1000
0100
0010
0001
0010
0100
1000
0001
,
0100
0010
1000
0001
0100
0010
0100
0010
1000
0001
0100
0001
1000
0010
0100
0010
,
1000
0001
0100
0001
1000
0001
0010
0100
1000
0001
1000
0100
0010
0100
1000
0001
,
1000
0010
0100
0001
1000
0001
1000
0100
0010
0100
1000
0001
0100
0010
1000
0001
,
0100
0001
1000
0100
0010
0001
1000
0001
0100
0001
0010
0100
1000
0001
0100
0001
,
0010
0100
1000
0001
0100
0001
0010
0100
1000
0001
0100
0001
0010
0100
1000
0001
,
0100
0000
0001
0000
1000
0000
0100
0000
0010
0000
0100
1000
0001
0100
0001
0000
,
1000
0000
0010
0100
0010
0000
1000
0000
0001
0000
0010
0000
0100
0000
1000
0000
,
0001
0100
0001
1000
0010
0100
0010
1000
0001
0100
0010
1000
0010
1000
0100
0010
,
0001
1000
0010
1000
0100
0010
0001
1000
0010
1000
0100
0010
0001
1000
0010
1000
,
0100
0000
0010
0000
0001
0000
0100
0000
0010
0000
0100
0001
1000
0001
0010
0000
,
0100
0000
1000
0001
1000
0000
0010
0000
0100
0000
0001
0000
0010
0001
1000
0000
,
0001
0100
0001
1000
0010
0100
0010
1000
0001
0100
0001
0010
0100
1000
0001
0100
,
0001
0010
0100
1000
0001
0100
0001
0010
0100
1000
0001
0100
0001
0010
0100
1000
,
0001
0000
0100
0000
0010
0000
0100
0000
0001
0000
1000
0100
0010
0001
1000
0000
,
0001
0000
0100
0001
0100
0000
0001
0000
0010
0000
0100
0000
1000
0000
0010
0000
,
0100
0010
0100
0001
1000
0001
0010
0100
1000
0001
0100
0001
1000
0010
1000
0100
,
0010
0001
1000
0010
1000
0100
0010
0001
1000
0010
1000
0100
0010
0001
1000
0010
,
1000
0000
0001
0000
0100
0000
0001
0000
0010
0000
0100
1000
0001
1000
0010
0000
,
0100
0000
0001
1000
0001
0000
0100
0000
0001
0000
1000
0100
1000
0001
0100
0001
,
0010
0001
1000
0100
0010
0001
1000
0001
0100
0001
0010
0100
1000
0001
0100
0001
,
0010
0100
1000
0001
0100
0001
0010
0100
1000
0001
0100
0001
0010
0100
1000
0001
,
1000
0010
0100
0010
1000
0001
0100
0001
1000
0100
0010
0001
1000
0001
0100
0010
,
0100
0001
1000
0001
0010
0100
1000
0001
0100
0010
0100
0001
1000
0100
0010
0001
,
0100
0001
1000
0010
0100
0010
1000
0001
1000
0001
0100
0001
1000
0010
1000
0100
,
0010
0001
1000
0010
1000
0100
0010
0001
1000
0010
1000
0100
0010
0001
1000
0010
,
1000
0010
0100
0001
1000
0001
0010
0100
1000
0001
0100
0001
1000
0010
0100
0010
,
1000
0001
0100
0001
1000
0100
0010
0001
1000
0100
1000
0001
0100
0010
0100
0010
,
1000
0001
0010
0100
1000
0001
0100
0001
0010
0100
1000
0001
0100
0001
0010
0100
,
1000
0001
0100
0001
0010
0100
1000
0001
0100
0001
0010
0100
1000
0001
0100
0001
,
0010
0100
1000
0001
1000
0010
0100
0010
1000
0001
0100
0001
0100
0010
1000
0001
,
0010
0001
1000
0100
0010
0001
1000
0001
0100
0010
0100
0001
1000
0010
1000
0100
,
0010
0001
1000
0001
0100
0010
0100
0001
1000
0100
0010
0001
1000
0010
1000
0100
,
0010
0001
1000
0010
1000
0100
0010
0001
1000
0010
1000
0100
0010
0001
1000
0010
,
1000
0001
0100
0001
1000
0100
0010
0001
1000
0001
0100
0010
0100
0001
1000
0001
,
0100
0001
1000
0010
0100
0010
1000
0001
1000
0100
1000
0001
0010
0100
1000
0010
,
0100
0000
0000
0101
0000
0000
1001
0000
,
0000
1100
0000
0000
0110
0000
0010
0000
,
0000
0000
0000
0000
0000
0000
0000
0000
0000
0000
0000
0000
0000
0000
0000
0000
0011
0000
0000
0000
0000
0000
0000
0000
0000
0000
0000
0000
0000
0000
0000
0000
0001
0000
0000
0000
0000
0000
0000
0000
0000
0000
0000
0000
0000
0000
0000
0000
0000
0000
0000
0000
0000
0000
0000
0000
0000
0000
0000
0000
0000
0000
0000
2002
,
0000
3003
0000
0000
0000
0000
0000
0000
0000
0000
0000
0000
0000
0000
0000
0000
0101
0000
0000
0000
0000
0000
0000
0000
0000
0000
0000
0000
0000
0000
0000
0000
0110
0000
0000
0000
0000
0000
0000
0000
0000
0000
0000
0000
0000
0000
0000
0000
0010
0000
0000
0000
1000
0000
0000
0000
0010
0000
0000
0000
1000
0000
0000
0000
,
0100
0010
0001
1000
0001
1000
0010
0100
0001
1000
0001
0100
0001
1000
0010
1000
,
0001
1000
0010
0100
0010
1000
0001
0100
0001
1000
0100
0010
0001
1000
0001
0100
,
0010
0100
0001
1000
0001
0010
0001
1000
0100
0010
0001
1000
0001
0100
0010
0100
,
0001
1000
0100
1000
0001
1000
0001
0100
0001
1000
0010
0100
0010
1000
0001
0100
,
0010
1000
0001
0010
0001
1000
0100
1000
0100
0010
0001
1000
0100
1000
0001
0010
,
0100
0010
0001
1000
0100
1000
0001
0100
0010
0100
0001
1000
0010
0100
0001
1000
,
0001
0100
0010
0100
0001
1000
0100
1000
0001
0010
0100
0010
0100
1000
0001
0100
,
0001
1000
0001
1000
0010
0100
0010
1000
0001
1000
0001
0100
0010
0100
0001
1000
,
0100
1000
0001
1000
0001
0100
0010
0100
0001
1000
0100
1000
0001
0100
0001
1000
,
0010
0100
0010
1000
0001
1000
0001
1000
0100
0010
0001
1000
0100
1000
0001
1000
,
0010
0100
0010
1000
0001
0100
0001
1000
0010
0100
0010
1000
0001
0100
0001
0100
,
0010
1000
0001
1000
0100
1000
0001
0010
0100
0010
0001
1000
0100
0010
0001
1000
,
0100
1000
0001
0010
0100
1000
0001
1000
0001
0100
0010
0100
0001
1000
0010
0100
,
0001
1000
0001
0100
0010
0100
0001
1000
0100
1000
0001
0010
0100
1000
0001
1000
,
0100
1000
0001
0100
0010
0100
0001
1000
0100
1000
0001
0010
0100
1000
0001
0100
,
0001
1000
0100
0010
0001
1000
0001
0100
0010
0100
0001
1000
0010
0100
0010
1000
,
0001
0100
0001
0100
0010
1000
0001
1000
0100
0010
0001
1000
0100
1000
0001
1000
,
0001
0100
0001
1000
0010
1000
0001
0100
0001
1000
0010
1000
0010
0100
0001
1000
,
0100
0010
0001
1000
0100
1000
0001
0100
0001
1000
0010
0100
0010
1000
0001
0100
,
0010
0100
0001
1000
0100
1000
0001
1000
0010
0100
0010
1000
0001
0100
0001
1000
,
0001
1000
0010
1000
0001
0010
0100
1000
0001
1000
0100
1000
0001
0100
0001
1000
,
0100
1000
0001
0100
0001
0100
0010
1000
0001
1000
0010
0100
0010
1000
0001
0100
,
0001
1000
0001
0010
0100
1000
0001
0100
0001
1000
0010
0100
0010
1000
0001
1000
,
0100
0010
0001
1000
0001
0100
0010
0100
0001
1000
0001
0100
0010
0100
0001
1000
,
0100
0010
0100
1000
0001
0010
0001
1000
0100
0010
0100
1000
0001
0100
0001
1000
,
0001
0100
0010
1000
0001
0100
0001
1000
0100
1000
0001
0010
0100
1000
0001
0010
,
0001
1000
0100
0010
0100
1000
0001
0100
0001
1000
0100
1000
0001
0100
0001
1000
,
0010
0100
0001
0100
0010
1000
0001
1000
0100
0010
0001
1000
0100
1000
0001
0100
,
0001
1000
0010
0100
0010
1000
0001
0100
0001
1000
0100
0010
0001
1000
0100
1000
,
0001
0100
0001
1000
0001
0100
0010
0100
0001
1000
0100
0010
0001
1000
0100
1000
,
0001
0100
0001
1000
0010
0100
0010
1000
0001
0100
0001
1000
0001
0100
0010
1000
,
0001
1000
0100
1000
0001
0010
0100
1000
0001
0100
0001
1000
0001
0100
0010
0100
,
0001
1000
0001
1000
0001
0100
0001
0100
0010
1000
0010
1000
0001
0100
0001
0100
,
0010
1000
0001
1000
0001
0100
0001
1000
0100
1000
0001
0010
0100
1000
0001
0100
,
0001
1000
0100
1000
0100
0010
0001
1000
0100
0010
0100
0010
0001
1000
0100
1000
,
0001
0010
0100
0010
0100
1000
0001
1000
0100
1000
0001
1000
0001
0100
0010
1000
,
0010
0100
0001
1000
0001
0100
0001
1000
0100
0010
0001
1000
0001
0100
0010
0100
,
0001
1000
0001
0100
0010
0100
0001
1000
0100
1000
0001
0010
0100
1000
0001
0100
,
0001
1000
0001
0100
0010
0100
0001
1000
0100
1000
0001
0010
0100
1000
0001
1000
,
0001
0100
0010
0100
0001
1000
0001
0100
0001
1000
0100
0010
0100
1000
0001
0010
,
0100
1000
0001
1000
0001
0100
0001
0100
0001
1000
0010
1000
0010
0100
0001
0100
,
0001
1000
0010
1000
0001
0100
0001
1000
0100
1000
0001
0010
0100
1000
0001
0100
,
0001
1000
0100
1000
0100
0010
0001
1000
0100
0010
0100
0010
0001
1000
0100
1000
,
0001
0100
0001
1000
0100
0010
0100
0010
0001
1000
0001
1000
0100
0010
0001
0100
,
0010
0100
0001
1000
0001
0100
0010
0100
0001
1000
0001
0100
0001
1000
0010
0100
,
0010
1000
0001
1000
0100
1000
0001
0100
0010
0100
0001
1000
0001
0010
0100
1000
,
0001
0100
0001
1000
0001
0100
0010
0100
0001
1000
0100
0010
0001
1000
0001
0100
,
0001
1000
0010
0100
0010
1000
0001
0100
0001
1000
0100
0010
0001
1000
0100
1000
,
0001
0100
0010
0100
0001
1000
0001
0010
0100
1000
0001
0100
0001
1000
0001
0100
,
0010
0100
0001
1000
0100
1000
0001
1000
0010
0100
0010
0100
0001
1000
0001
0010
,
0100
1000
0001
1000
0100
1000
0001
0100
0010
0100
0001
1000
0010
0100
0010
1000
,
0001
0100
0001
1000
0100
0010
0001
1000
0100
1000
0001
0100
0001
0100
0010
1000
,
0001
1000
0100
0010
0001
1000
0100
1000
0001
0100
0001
1000
0001
0100
0010
0100
,
0001
1000
0001
0010
0100
1000
0001
0100
0001
1000
0010
0100
0010
1000
0001
0010
,
0100
0010
0001
1000
0100
1000
0001
0100
0001
1000
0010
0100
0001
1000
0001
1000
,
0100
0010
0001
1000
0100
1000
0001
0100
0001
1000
0001
0100
0010
0100
0001
1000
,
0100
1000
0001
1000
0010
0100
0010
1000
0001
0100
0001
1000
0100
1000
0001
0010
,
0100
1000
0001
1000
0100
1000
0001
0100
0010
0100
0001
1000
0100
0010
0001
1000
,
0100
1000
0001
0100
0001
1000
0001
0100
0010
0100
0001
1000
0001
0010
0100
0010
,
0100
1000
0001
0100
0001
1000
0100
1000
0001
1000
0001
0100
0001
1000
0100
1000
,
0010
0100
0001
1000
0001
0100
0001
1000
0100
1000
0001
0100
0001
1000
0100
1000
,
0001
0010
0001
0010
0100
1000
0001
0100
0001
1000
0100
1000
0001
0100
0001
1000
,
0100
0010
0001
1000
0001
0100
0010
0100
0001
1000
0100
0010
0001
1000
0001
0100
,
0010
0100
0001
1000
0100
1000
0001
1000
0010
0100
0010
1000
0001
0100
0001
1000
,
0001
1000
0010
1000
0001
0010
0100
1000
0001
1000
0001
0100
0001
1000
0010
1000
,
0010
0100
0001
1000
0100
1000
0100
0010
0001
1000
0001
1000
0100
0010
0001
1000
,
0100
1000
0100
0010
0001
1000
0001
1000
0010
0100
0010
1000
0001
0100
0001
1000
,
0100
1000
0001
0010
0100
1000
0100
1000
0001
0100
0001
0100
0010
1000
0001
1000
,
0100
0010
0100
1000
0001
0010
0001
1000
0100
0010
0001
1000
0001
0010
0100
1000
,
0001
0100
0001
1000
0001
0100
0010
1000
0010
1000
0001
1000
0100
0010
0001
1000
,
0100
1000
0001
0010
0100
1000
0001
0100
0001
1000
0010
1000
0010
0100
0001
1000
,
0100
0010
0001
1000
0100
1000
0001
0010
0100
0010
0001
1000
0100
1000
0001
0100
,
0010
0100
0001
1000
0100
0010
0001
1000
0100
1000
0001
0100
0010
0100
0001
1000
,
0010
0100
0010
1000
0001
1000
0010
0100
0001
1000
0001
0010
0100
1000
0001
1000
,
0001
0100
0010
1000
0001
1000
0100
1000
0001
0100
0001
1000
0010
1000
0010
0100
,
0001
1000
0001
1000
0100
1000
0001
0100
0010
0100
0001
1000
0001
0100
0001
1000
,
0100
0010
0100
0010
0001
1000
0100
1000
0001
0010
0001
1000
0100
1000
0001
0100
,
0010
1000
0001
1000
0001
0100
0001
1000
0100
0010
0001
1000
0100
1000
0001
1000
,
0001
0100
0001
1000
0010
0100
0010
1000
0001
1000
0100
1000
0001
0100
0001
1000
,
0010
0100
0010
1000
0001
0100
0001
1000
0001
1000
0100
0010
0100
1000
0001
0010
,
0100
1000
0001
0100
0001
1000
0100
1000
0001
0010
0100
1000
0001
0100
0001
1000
,
0100
0010
0100
1000
0001
0100
0001
1000
0010
1000
0001
1000
0001
0100
0001
0100
,
0010
1000
0010
0100
0001
1000
0001
0010
0100
1000
0001
0010
0100
0010
0100
1000
,
0001
0100
0001
1000
0001
0100
0010
0100
0001
1000
0100
1000
0001
0010
0100
0010
,
0001
1000
0001
0100
0010
0100
0001
1000
0001
1000
0100
1000
0001
0010
0100
1000
,
0001
0100
0010
0100
0001
1000
0010
0100
0001
1000
0001
0100
0001
1000
0010
0100
,
0010
1000
0001
1000
0100
0010
0001
1000
0001
0010
0100
0010
0001
1000
0100
1000
,
0001
0100
0010
1000
0010
0100
0001
1000
0100
0010
0001
1000
0100
1000
0001
0100
,
0001
1000
0001
1000
0100
1000
0001
0100
0001
0100
0010
1000
0010
0100
0001
1000
,
0100
0010
0001
1000
0100
0010
0100
0010
0001
1000
0100
1000
0001
0010
0100
0010
,
0001
1000
0100
1000
0001
1000
0010
0100
0001
1000
0001
0100
0010
0100
0001
1000
,
0001
0010
0100
1000
0001
1000
0001
0100
0010
0100
0001
1000
0100
0010
0001
1000
;

//---------------dance-single - J. Nero----------------
#NOTES:
     dance-single:
     J. Nero:
     Hard:
     18:
     1.000,1.000,0.028,0.007,1.000,3332.000,8.000,2.000,0.000,0.000:
1000
0000
0001
0000
0100
0000
0001
0000
0010
0000
0100
1000
0001
1000
0010
0000
,
0100
0001
0010
0001
1000
0100
0010
0100
,
1000
0000
0010
0000
0100
0000
0010
0000
1000
0000
0001
0010
0100
1000
0001
0000
,
0100
0000
0001
1000
0001
0000
1000
0000
0100
0000
0010
0000
0100
0000
1000
0000
,
0010
0000
0100
0000
0001
0000
1000
0000
0100
0000
1000
0100
1000
0001
0010
0000
,
0100
1000
0010
0100
0010
1000
0100
0010
,
0001
0000
0100
0000
0001
0000
1000
0000
0100
0000
1000
0001
0010
0100
1000
0000
,
0001
0000
0100
0010
0100
0000
0001
0000
0010
0000
0100
0000
1000
0100
0010
0001
,
0100
0000
0001
0000
1000
0000
0100
0000
0010
0000
0100
1000
0001
0100
0001
0000
,
0100
0010
1000
0100
1000
0001
0010
0100
,
1000
0000
0001
0000
0100
0000
0001
0000
1000
0000
0100
0010
0001
1000
0001
0000
,
0100
0000
0001
1000
0100
0000
0010
0000
0100
0000
1000
0000
0010
0000
1000
0000
,
0100
0000
0010
0000
0001
0000
0100
0000
0010
0000
0100
0001
1000
0001
0010
0000
,
0100
1000
0010
0100
0001
0010
0100
1000
,
0001
0000
0100
0000
0001
0000
1000
0000
0100
0000
0010
0001
1000
0001
0100
0000
,
0010
0000
0100
0001
1000
0000
0001
0000
0010
0000
0100
1000
0001
1000
0010
1000
,
0100
0000
0010
0000
0001
0000
1000
0000
0010
0000
0100
0001
1000
0001
0010
0000
,
0100
1000
0010
0100
0010
1000
0100
0010
,
0001
0000
0100
0000
0010
0000
0100
0000
0001
0000
1000
0100
0010
0001
1000
0000
,
0001
0000
0100
0001
0100
0000
0001
0000
0010
0000
0100
0000
1000
0000
0010
0000
,
0100
0000
0010
0000
1000
0000
0100
0000
0010
0000
0001
1000
0001
0100
0001
0000
,
0010
0100
1000
0010
0100
0010
1000
0100
,
0010
0000
0001
0000
1000
0000
0100
0000
1000
0000
0001
0100
0001
1000
0100
0000
,
0010
0000
0001
1000
0001
0000
1000
0000
0010
0000
0100
0000
0010
0000
1000
0000
,
0100
0000
0010
0000
0001
0000
1000
0000
0001
0000
0100
0001
1000
0001
0010
0000
,
0100
1000
0001
0100
0010
0100
0001
1000
,
0100
0000
1000
0000
0010
0000
0100
0000
0001
0000
1000
0100
0010
0001
1000
0000
,
0001
0000
0100
0010
0100
0000
0001
0000
0010
0000
0100
0000
1000
0000
0010
0000
,
0100
0000
0001
0000
1000
0000
0001
0000
0010
0000
0100
1000
0001
0100
0001
0000
,
1000
0100
0010
0001
1000
0010
0100
0010
,
1000
0000
0100
0000
0010
0000
0100
0000
1000
0000
0001
0100
0010
0100
0001
0000
,
1000
0000
0001
0000
0010
0000
0100
0000
1000
0000
0001
0100
0001
1000
0100
0010
,
0001
0100
0001
1000
0001
0100
0001
1000
0100
1000
0001
0100
0001
1000
0100
1000
,
0001
0010
0001
0010
0100
1000
0001
0100
0001
1000
0100
1000
0001
0100
0001
1000
,
0100
0010
0001
1000
0001
0100
0010
0100
0001
1000
0100
0010
0001
1000
0001
0100
,
0010
0100
0001
1000
0100
1000
0001
1000
0010
0100
0010
1000
0001
0100
0001
1000
,
0001
1000
0010
1000
0001
0010
0100
1000
0001
1000
0001
0100
0001
1000
0010
1000
,
0010
0100
0001
1000
0100
1000
0100
0010
0001
1000
0001
1000
0100
0010
0001
1000
,
0100
1000
0100
0010
0001
1000
0001
1000
0010
0100
0010
1000
0001
0100
0001
1000
,
0100
1000
0001
0010
0100
1000
0100
1000
0001
0100
0001
0100
0010
1000
0001
1000
,
0100
0010
0100
1000
0001
0010
0001
1000
0100
0010
0001
1000
0001
0010
0100
1000
,
0001
0100
0001
1000
0001
0100
0010
1000
0010
1000
0001
1000
0100
0010
0001
1000
,
0100
1000
0001
0010
0100
1000
0001
0100
0001
1000
0010
1000
0010
0100
0001
1000
,
0100
0010
0001
1000
0100
1000
0001
0010
0100
0010
0001
1000
0100
1000
0001
0100
,
0010
0100
0001
1000
0100
0010
0001
1000
0100
1000
0001
0100
0010
0100
0001
1000
,
0010
0100
0010
1000
0001
1000
0010
0100
0001
1000
0001
0010
0100
1000
0001
1000
,
0001
0100
0010
1000
0001
1000
0100
1000
0001
0100
0001
1000
0010
1000
0010
0100
,
0001
1000
0001
1000
0100
1000
0001
0100
0010
0100
0001
1000
0001
0100
0001
1000
,
0100
0010
0100
0010
0001
1000
0100
1000
0001
0010
0001
1000
0100
1000
0001
0100
,
0010
1000
0001
1000
0001
0100
0001
1000
0100
0010
0001
1000
0100
1000
0001
1000
,
0001
0100
0001
1000
0010
0100
0010
1000
0001
1000
0100
1000
0001
0100
0001
1000
,
0010
0100
0010
1000
0001
0100
0001
1000
0001
1000
0100
0010
0100
1000
0001
0010
,
0100
1000
0001
0100
0001
1000
0100
1000
0001
0010
0100
1000
0001
0100
0001
1000
,
0100
0010
0100
1000
0001
0100
0001
1000
0010
1000
0001
1000
0001
0100
0001
0100
,
0010
1000
0010
0100
0001
1000
0001
0010
0100
1000
0001
0010
0100
0010
0100
1000
,
0001
0100
0001
1000
0001
0100
0010
0100
0001
1000
0100
1000
0001
0010
0100
0010
,
0001
1000
0001
0100
0010
0100
0001
1000
0001
1000
0100
1000
0001
0010
0100
1000
,
0001
0100
0010
0100
0001
1000
0010
0100
0001
1000
0001
0100
0001
1000
0010
0100
,
0010
1000
0001
1000
0100
0010
0001
1000
0001
0010
0100
0010
0001
1000
0100
1000
,
0001
0100
0010
1000
0010
0100
0001
1000
0100
0010
0001
1000
0100
1000
0001
0100
,
0001
1000
0001
1000
0100
1000
0001
0100
0001
0100
0010
1000
0010
0100
0001
1000
,
0100
0010
0001
1000
0100
0010
0100
0010
0001
1000
0100
1000
0001
0010
0100
0010
,
0001
1000
0100
1000
0001
1000
0010
0100
0001
1000
0001
0100
0010
0100
0001
1000
,
0001
0010
0100
1000
0001
1000
0001
0100
0010
0100
0001
1000
0100
0010
0001
1000
,
0001
0000
0100
0000
0001
0000
0010
0000
0100
0000
1000
0100
0010
0100
1000
0000
,
0001
0100
0010
0100
0001
0010
0100
1000
,
0001
0000
0100
0000
0001
0000
1000
0000
0010
0000
0100
0001
1000
0001
0010
0000
,
0100
0000
1000
0001
1000
0000
0010
0000
1000
0000
0100
0000
0010
0000
0001
0000
,
0100
0000
0010
0000
0100
0000
0010
0000
1000
0000
0010
0100
0001
1000
0001
0000
,
1000
0100
0010
0100
1000
0010
0100
0001
,
0010
0000
0001
0000
1000
0000
0010
0000
0100
0000
0010
1000
0010
0100
0001
0000
,
0010
0000
0100
1000
0001
0000
0100
0000
0010
0000
1000
0000
0001
0010
0001
1000
,
0001
0000
1000
0000
0100
0000
0010
0000
0100
0000
1000
0001
1000
0001
0010
0000
,
0001
0100
0010
1000
0100
0010
0001
1000
,
0010
0000
0100
0000
0001
0000
0010
0000
0001
0000
1000
0100
0010
0001
1000
0000
,
0001
0000
0100
0001
1000
0000
0001
0000
0010
0000
0001
0000
0100
0000
0010
0000
,
1000
0000
0100
0000
1000
0000
0001
0000
0010
0000
0100
1000
0001
0100
0001
0000
,
0100
0010
0100
0001
0010
0100
1000
0001
,
1000
0000
0100
0000
0010
0000
0100
0000
1000
0000
0001
0100
0001
1000
0100
0000
,
0010
0000
0001
1000
0001
0000
0100
0000
0010
0000
1000
0001
0010
0100
1000
0010
,
0100
0000
0001
0000
1000
0000
0001
0000
0100
0000
0010
1000
0001
1000
0100
0000
,
0010
0001
0100
0010
0100
0001
0010
0100
,
1000
0000
0010
0000
0100
0000
0010
0000
1000
0000
0001
0010
0100
1000
0001
0000
,
1000
0000
0010
1000
0010
0000
1000
0000
0100
0000
0010
0000
0001
0000
0100
0000
,
0010
0000
0100
0000
0001
0000
0010
0000
0100
0000
1000
0001
1000
0010
1000
0000
,
0100
0010
0001
0100
0010
0100
0001
0010
,
0100
0000
1000
0000
0001
0000
0010
0000
0001
0000
1000
0010
1000
0001
0010
0000
,
0100
0000
1000
0001
1000
0000
0001
0000
0100
0000
0001
0100
0001
0010
0100
1000
,
0001
0000
0100
0000
0010
0000
0100
0000
0001
0000
0010
0001
1000
0010
1000
0000
,
0100
1000
0001
0100
0010
0100
0001
1000
,
0100
0000
1000
0000
0010
0000
0100
0000
0001
0000
1000
0100
0010
0001
1000
0000
,
0001
0000
0100
0010
0100
0000
0001
0000
0010
0000
0100
0000
1000
0000
0010
0000
,
0100
0000
0001
0000
1000
0000
0001
0000
0010
0000
0100
1000
0001
0100
0001
0000
,
1000
0100
0010
0001
1000
0010
0100
0010
,
1000
0000
0100
0000
0010
0000
0100
0000
1000
0000
0001
0100
0010
0100
0001
0000
,
1000
0000
0001
0100
0001
0000
0010
0000
0100
0000
1000
0010
1000
0001
0100
0010
,
1000
0100
1000
0001
0010
0100
1000
0001
0100
0001
1000
0100
1000
0001
0100
0001
,
1000
0010
1000
0010
0100
0001
1000
0100
1000
0001
0100
0001
1000
0100
1000
0001
,
0100
0010
1000
0001
1000
0100
0010
0100
1000
0001
0100
0010
1000
0001
1000
0100
,
0010
0100
1000
0001
0100
0001
1000
0001
0010
0100
0010
0001
1000
0100
1000
0001
,
1000
0001
0010
0001
1000
0010
0100
0001
1000
0001
1000
0100
1000
0001
0010
0001
,
0010
0100
1000
0001
0100
0001
0100
0010
1000
0001
1000
0001
0100
0010
1000
0001
,
0100
0001
0100
0010
1000
0001
1000
0001
0010
0100
0010
0001
1000
0100
1000
0001
,
0100
0001
1000
0010
0100
0001
0100
0001
1000
0100
1000
0100
0010
0001
1000
0001
,
0100
0010
0100
0001
1000
0010
1000
0001
0100
0010
1000
0001
1000
0010
0100
0001
,
1000
0100
1000
0001
1000
0100
0010
0001
0010
0001
1000
0001
0100
0010
1000
0001
,
0100
0001
1000
0010
0100
0001
1000
0100
1000
0001
0010
0001
0010
0100
1000
0001
,
0100
0010
1000
0001
0100
0001
1000
0010
0100
0010
1000
0001
0100
0001
1000
0100
,
0010
0100
1000
0001
0100
0010
1000
0001
0100
0001
1000
0100
0010
0100
1000
0001
,
0010
0100
0010
0001
1000
0001
0010
0100
1000
0001
1000
0010
0100
0001
1000
0001
,
1000
0100
0010
0001
1000
0001
0100
0001
1000
0100
1000
0001
0010
0001
0010
0100
,
1000
0001
1000
0001
0100
0001
1000
0100
0010
0100
1000
0001
1000
0100
1000
0001
,
0100
0010
0100
0010
1000
0001
0100
0001
1000
0010
1000
0001
0100
0001
1000
0100
,
0010
0001
1000
0001
1000
0100
1000
0001
0100
0010
1000
0001
0100
0001
1000
0001
,
1000
0100
1000
0001
0010
0100
0010
0001
1000
0001
0100
0001
1000
0100
1000
0001
,
0010
0100
0010
0001
1000
0100
1000
0001
1000
0001
0100
0010
0100
0001
1000
0010
,
0100
0001
1000
0100
1000
0001
0100
0001
1000
0010
0100
0001
1000
0100
1000
0001
,
0100
0010
0100
0001
1000
0100
1000
0001
0010
0001
1000
0001
1000
0100
1000
0100
,
0010
0001
0010
0100
1000
0001
1000
0010
0100
0001
1000
0010
0100
0010
0100
0001
,
1000
0100
1000
0001
1000
0100
0010
0100
1000
0001
0100
0001
1000
0010
0100
0010
,
1000
0001
1000
0100
0010
0100
1000
0001
1000
0001
0100
0001
1000
0010
0100
0001
,
1000
0100
0010
0100
1000
0001
0010
0100
1000
0001
1000
0100
1000
0001
0010
0100
,
0010
0001
1000
0001
0100
0010
1000
0001
1000
0010
0100
0010
1000
0001
0100
0001
,
1000
0100
0010
0001
0010
0100
1000
0001
0100
0010
1000
0001
0100
0001
1000
0100
,
1000
0001
1000
0001
0100
0001
1000
0100
1000
0100
0010
0001
0010
0100
1000
0001
,
0100
0010
1000
0001
0100
0010
0100
0010
1000
0001
0100
0001
1000
0010
0100
0010
,
1000
0001
0100
0001
1000
0001
0010
0100
1000
0001
1000
0100
0010
0100
1000
0001
,
1000
0010
0100
0001
1000
0001
1000
0100
0010
0100
1000
0001
0100
0010
1000
0001
,
0100
0001
1000
0100
0010
0001
1000
0001
0100
0001
0010
0100
1000
0001
0100
0001
,
0010
0100
1000
0001
0100
0001
0010
0100
1000
0001
0100
0001
0010
0100
1000
0001
,
0100
0000
0001
0000
1000
0000
0100
0000
0010
0000
0100
1000
0001
0100
0001
0000
,
1000
0000
0010
0100
0010
0000
1000
0000
0001
0000
0010
0000
0100
0000
1000
0000
,
0001
0100
0001
1000
0010
0100
0010
1000
0001
0100
0010
1000
0010
1000
0100
0010
,
0001
1000
0010
1000
0100
0010
0001
1000
0010
1000
0100
0010
0001
1000
0010
1000
,
0100
0000
0010
0000
0001
0000
0100
0000
0010
0000
0100
0001
1000
0001
0010
0000
,
0100
0000
1000
0001
1000
0000
0010
0000
0100
0000
0001
0000
0010
0001
1000
0000
,
0001
0100
0001
1000
0010
0100
0010
1000
0001
0100
0001
0010
0100
1000
0001
0100
,
0001
0010
0100
1000
0001
0100
0001
0010
0100
1000
0001
0100
0001
0010
0100
1000
,
0001
0000
0100
0000
0010
0000
0100
0000
0001
0000
1000
0100
0010
0001
1000
0000
,
0001
0000
0100
0001
0100
0000
0001
0000
0010
0000
0100
0000
1000
0000
0010
0000
,
0100
0010
0100
0001
1000
0001
0010
0100
1000
0001
0100
0001
1000
0010
1000
0100
,
0010
0001
1000
0010
1000
0100
0010
0001
1000
0010
1000
0100
0010
0001
1000
0010
,
1000
0000
0001
0000
0100
0000
0001
0000
0010
0000
0100
1000
0001
1000
0010
0000
,
0100
0000
0001
1000
0001
0000
0100
0000
0001
0000
1000
0100
1000
0001
0100
0001
,
0010
0001
1000
0100
0010
0001
1000
0001
0100
0001
0010
0100
1000
0001
0100
0001
,
0010
0100
1000
0001
0100
0001
0010
0100
1000
0001
0100
0001
0010
0100
1000
0001
,
1000
0000
0100
0000
1000
0000
0001
0000
0100
0000
0001
1000
0001
0010
0100
0000
,
1000
0000
0001
0100
0001
0000
0010
0000
0100
0000
1000
0000
0001
0000
0100
0000
,
0001
1000
0010
1000
0001
0010
0001
1000
0001
1000
0010
1000
0001
0100
0001
0010
,
0100
1000
0001
0100
0001
0010
0100
1000
0001
0100
0001
0010
0100
1000
0001
0100
,
0001
0000
1000
0000
0010
0000
0100
0000
0010
0000
1000
0001
0010
0100
1000
0000
,
0001
0000
1000
0100
1000
0000
0001
0000
0100
0000
0010
0000
1000
0001
0100
0010
,
1000
0001
0010
0100
1000
0001
0100
0001
0010
0100
1000
0001
0100
0001
0010
0100
,
1000
0001
0100
0001
0010
0100
1000
0001
0100
0001
0010
0100
1000
0001
0100
0001
,
0010
0000
0100
0000
1000
0000
0001
0000
0100
0000
0010
1000
0001
1000
0100
0000
,
0010
0000
0001
1000
0001
0000
0100
0000
0001
0000
0010
0000
0100
0000
1000
0000
,
0001
0100
0001
1000
0010
0100
0010
1000
0001
0010
0100
1000
0001
0100
0001
0010
,
0100
1000
0001
0100
0001
0010
0100
1000
0001
0100
0001
0010
0100
1000
0001
0100
,
0001
0000
0100
0000
0010
0000
0100
0000
0001
0000
1000
0100
0010
0001
1000
0000
,
0001
0000
0100
0010
0100
0000
0001
0000
0010
0000
0100
1000
0010
0100
0001
1000
,
0001
0000
0000
0101
0000
0000
1001
0000
,
0000
1100
0000
0000
0110
0000
0010
0000
,
0000
0000
0000
0000
0000
0000
0000
0000
0000
0000
0000
0000
0000
0000
0000
0000
0011
0000
0000
0000
0000
0000
0000
0000
0000
0000
0000
0000
0000
0000
0000
0000
0001
0000
0000
0000
0000
0000
0000
0000
0000
0000
0000
0000
0000
0000
0000
0000
0000
0000
0000
0000
0000
0000
0000
0000
0000
0000
0000
0000
0000
0000
0000
2002
,
0000
3003
0000
0000
0000
0000
0000
0000
0000
0000
0000
0000
0000
0000
0000
0000
0101
0000
0000
0000
0000
0000
0000
0000
0000
0000
0000
0000
0000
0000
0000
0000
0110
0000
0000
0000
0000
0000
0000
0000
0000
0000
0000
0000
0000
0000
0000
0000
0010
0000
0000
0000
1000
0000
0000
0000
0010
0000
0000
0000
1000
0000
0000
0000
,
0100
0010
0001
1000
0001
1000
0010
0100
0001
1000
0001
0100
0001
1000
0010
1000
,
0001
1000
0010
0100
0010
1000
0001
0100
0001
1000
0100
0010
0001
1000
0001
0100
,
0010
0100
0001
1000
0001
0010
0001
1000
0100
0010
0001
1000
0001
0100
0010
0100
,
0001
1000
0100
1000
0001
1000
0001
0100
0001
1000
0010
0100
0010
1000
0001
0100
,
0010
1000
0001
0010
0001
1000
0100
1000
0100
0010
0001
1000
0100
1000
0001
0010
,
0100
0010
0001
1000
0100
1000
0001
0100
0010
0100
0001
1000
0010
0100
0001
1000
,
0001
0100
0010
0100
0001
1000
0100
1000
0001
0010
0100
0010
0100
1000
0001
0100
,
0001
1000
0001
1000
0010
0100
0010
1000
0001
1000
0001
0100
0010
0100
0001
1000
,
0100
1000
0001
1000
0001
0100
0010
0100
0001
1000
0100
1000
0001
0100
0001
1000
,
0010
0100
0010
1000
0001
1000
0001
1000
0100
0010
0001
1000
0100
1000
0001
1000
,
0010
0100
0010
1000
0001
0100
0001
1000
0010
0100
0010
1000
0001
0100
0001
0100
,
0010
1000
0001
1000
0100
1000
0001
0010
0100
0010
0001
1000
0100
0010
0001
1000
,
0100
1000
0001
0010
0100
1000
0001
1000
0001
0100
0010
0100
0001
1000
0010
0100
,
0001
1000
0001
0100
0010
0100
0001
1000
0100
1000
0001
0010
0100
1000
0001
1000
,
0100
1000
0001
0100
0010
0100
0001
1000
0100
1000
0001
0010
0100
1000
0001
0100
,
0001
1000
0100
0010
0001
1000
0001
0100
0010
0100
0001
1000
0010
0100
0010
1000
,
0001
0100
0001
0100
0010
1000
0001
1000
0100
0010
0001
1000
0100
1000
0001
1000
,
0001
0100
0001
1000
0010
1000
0001
0100
0001
1000
0010
1000
0010
0100
0001
1000
,
0100
0010
0001
1000
0100
1000
0001
0100
0001
1000
0010
0100
0010
1000
0001
0100
,
0010
0100
0001
1000
0100
1000
0001
1000
0010
0100
0010
1000
0001
0100
0001
1000
,
0001
1000
0010
1000
0001
0010
0100
1000
0001
1000
0100
1000
0001
0100
0001
1000
,
0100
1000
0001
0100
0001
0100
0010
1000
0001
1000
0010
0100
0010
1000
0001
0100
,
0001
1000
0001
0010
0100
1000
0001
0100
0001
1000
0010
0100
0010
1000
0001
1000
,
0100
0010
0001
1000
0001
0100
0010
0100
0001
1000
0001
0100
0010
0100
0001
1000
,
0100
0010
0100
1000
0001
0010
0001
1000
0100
0010
0100
1000
0001
0100
0001
1000
,
0001
0100
0010
1000
0001
0100
0001
1000
0100
1000
0001
0010
0100
1000
0001
0010
,
0001
1000
0100
0010
0100
1000
0001
0100
0001
1000
0100
1000
0001
0100
0001
1000
,
0010
0100
0001
0100
0010
1000
0001
1000
0100
0010
0001
1000
0100
1000
0001
0100
,
0001
0000
1000
0000
0010
0000
1000
0000
0100
0000
0010
0001
1000
0001
0100
0000
,
0010
1000
0100
1000
0001
0010
0100
0010
,
0001
0000
0100
0000
0010
0000
0100
0000
0001
0000
1000
0100
0010
0001
1000
0000
,
0010
0000
1000
0001
1000
0000
0001
0000
0010
0000
0100
0000
0010
0000
0001
0000
,
0100
0000
0010
0000
1000
0000
0001
0000
0010
0000
0001
0010
0001
1000
0100
0000
,
0010
0001
0100
0010
0100
0001
0010
0100
,
1000
0000
0010
0000
1000
0000
0001
0000
0010
0000
0001
1000
0100
0010
0001
0000
,
1000
0000
0010
0100
0010
0000
1000
0000
0100
0000
0010
0000
0001
0010
0100
1000
,
0010
0000
1000
0000
0001
0000
0010
0000
0100
0000
0010
0001
1000
0010
1000
0000
,
0010
0100
0001
0010
0001
1000
0100
0010
,
0001
0000
1000
0000
0010
0000
1000
0000
0001
0000
0010
0100
1000
0001
1000
0000
,
0010
0000
1000
0001
0010
0000
0100
0000
0010
0000
0001
0000
0100
0000
0001
0000
,
0010
0000
0100
0000
1000
0000
0010
0000
0100
0000
0010
1000
0001
1000
0100
0000
,
0010
0001
0100
0010
1000
0100
0010
0001
,
1000
0000
0010
0000
1000
0000
0001
0000
0010
0000
0100
1000
0001
1000
0010
0000
,
0100
0000
0010
1000
0001
0000
1000
0000
0100
0000
0010
0001
1000
0001
0100
0001
,
0010
0000
0100
0000
1000
0000
0001
0000
0100
0000
0010
1000
0001
1000
0100
0000
,
0010
0001
0100
0010
0100
0001
0010
0100
,
1000
0000
0010
0000
0100
0000
0010
0000
1000
0000
0001
0010
0100
1000
0001
0000
,
1000
0000
0010
1000
0010
0000
1000
0000
0100
0000
0010
0000
0001
0000
0100
0000
,
0010
0000
0100
0000
0001
0000
0010
0000
0100
0000
1000
0001
1000
0010
1000
0000
,
0100
0010
0001
0100
0010
0100
0001
0010
,
0100
0000
1000
0000
0001
0000
0010
0000
0001
0000
1000
0010
1000
0001
0010
0000
,
0100
0000
1000
0001
1000
0000
0001
0000
0100
0000
0010
0000
0100
0001
0010
0100
,
1000
0000
0100
0000
1000
0000
0001
0000
1000
0000
0010
1000
0001
1000
0100
0000
,
0010
0001
1000
0010
0100
0010
1000
0001
,
0010
0000
0001
0000
0100
0000
0010
0000
1000
0000
0001
0010
0100
1000
0001
0000
,
1000
0000
0010
0100
0010
0000
1000
0000
0100
0000
0010
0000
0001
0000
0100
0000
,
0010
0000
1000
0000
0001
0000
1000
0000
0100
0000
0010
0001
1000
0010
1000
0000
,
0001
0010
0100
1000
0001
0100
0010
0100
,
0001
0000
0010
0000
0100
0000
0010
0000
0001
0000
1000
0010
0100
0010
1000
0000
,
0001
0000
1000
0001
1000
0000
0001
0000
0010
0000
0001
1000
0100
1000
0100
0010
,
0001
0100
0001
1000
0001
0100
0001
1000
0100
1000
0001
0100
0001
1000
0100
1000
,
0001
0010
0001
0010
0100
1000
0001
0100
0001
1000
0100
1000
0001
0100
0001
1000
,
0100
0010
0001
1000
0001
0100
0010
0100
0001
1000
0100
0010
0001
1000
0001
0100
,
0010
0100
0001
1000
0100
1000
0001
1000
0010
0100
0010
1000
0001
0100
0001
1000
,
0001
1000
0010
1000
0001
0010
0100
1000
0001
1000
0001
0100
0001
1000
0010
1000
,
0010
0100
0001
1000
0100
1000
0100
0010
0001
1000
0001
1000
0100
0010
0001
1000
,
0100
1000
0100
0010
0001
1000
0001
1000
0010
0100
0010
1000
0001
0100
0001
1000
,
0100
1000
0001
0010
0100
1000
0100
1000
0001
0100
0001
0100
0010
1000
0001
1000
,
0100
0010
0100
1000
0001
0010
0001
1000
0100
0010
0001
1000
0001
0010
0100
1000
,
0001
0100
0001
1000
0001
0100
0010
1000
0010
1000
0001
1000
0100
0010
0001
1000
,
0100
1000
0001
0010
0100
1000
0001
0100
0001
1000
0010
1000
0010
0100
0001
1000
,
0100
0010
0001
1000
0100
1000
0001
0010
0100
0010
0001
1000
0100
1000
0001
0100
,
0010
0100
0001
1000
0100
0010
0001
1000
0100
1000
0001
0100
0010
0100
0001
1000
,
0010
0100
0010
1000
0001
1000
0010
0100
0001
1000
0001
0010
0100
1000
0001
1000
,
0001
0100
0010
1000
0001
1000
0100
1000
0001
0100
0001
1000
0010
1000
0010
0100
,
0001
1000
0001
1000
0100
1000
0001
0100
0010
0100
0001
1000
0001
0100
0001
1000
,
0100
0010
0100
0010
0001
1000
0100
1000
0001
0010
0001
1000
0100
1000
0001
0100
,
0010
1000
0001
1000
0001
0100
0001
1000
0100
0010
0001
1000
0100
1000
0001
1000
,
0001
0100
0001
1000
0010
0100
0010
1000
0001
1000
0100
1000
0001
0100
0001
1000
,
0010
0100
0010
1000
0001
0100
0001
1000
0001
1000
0100
0010
0100
1000
0001
0010
,
0100
1000
0001
0100
0001
1000
0100
1000
0001
0010
0100
1000
0001
0100
0001
1000
,
0100
0010
0100
1000
0001
0100
0001
1000
0010
1000
0001
1000
0001
0100
0001
0100
,
0010
1000
0010
0100
0001
1000
0001
0010
0100
1000
0001
0010
0100
0010
0100
1000
,
0001
0100
0001
1000
0001
0100
0010
0100
0001
1000
0100
1000
0001
0010
0100
0010
,
0001
1000
0001
0100
0010
0100
0001
1000
0001
1000
0100
1000
0001
0010
0100
1000
,
0001
0100
0010
0100
0001
1000
0010
0100
0001
1000
0001
0100
0001
1000
0010
0100
,
0010
1000
0001
1000
0100
0010
0001
1000
0001
0010
0100
0010
0001
1000
0100
1000
,
0001
0100
0010
1000
0010
0100
0001
1000
0100
0010
0001
1000
0100
1000
0001
0100
,
0001
1000
0001
1000
0100
1000
0001
0100
0001
0100
0010
1000
0010
0100
0001
1000
,
0100
0010
0001
1000
0100
0010
0100
0010
0001
1000
0100
1000
0001
0010
0100
0010
,
0001
1000
0100
1000
0001
1000
0010
0100
0001
1000
0001
0100
0010
0100
0001
1000
,
0001
0010
0100
1000
0001
1000
0001
0100
0010
0100
0001
1000
0100
0010
0001
1000
;
