#TITLE:Spark Mandrill;
#SUBTITLE:;
#ARTIST:Mega Man X;
#TITLETRANSLIT:;
#SUBTITLETRANSLIT:;
#ARTISTTRANSLIT:;
#CREDIT:;
#BANNER:Banner.png;
#BACKGROUND:Intro.png;
#LYRICSPATH:;
#CDTITLE:;
#MUSIC:Mega Man X - Spark Mandrill.ogg;
#OFFSET:-0.040;
#SAMPLESTART:36.799;
#SAMPLELENGTH:12.000;
#SELECTABLE:YES;
#BPMS:0.000=162.960;
#STOPS:;
#BGCHANGES:3.000=1Ready.png=1.000=0=0=0,
19.500=2Ladder.png=1.000=0=0=0,
35.500=3Enemy.png=1.000=0=0=0,
51.500=4ETank.png=1.000=0=0=0,
68.000=5AerialDodge.png=1.000=0=0=0,
86.000=6Lighting.png=1.000=0=0=0,
100.500=7RapidFire.png=1.000=0=0=0,
111.500=8Dash.png=1.000=0=0=0,
124.000=9SubBoss.png=1.000=0=0=0,
139.500=10JustKillIt.png=1.000=0=0=0,
155.500=11Splosion.png=1.000=0=0=0,
171.500=12Danger.png=1.000=0=0=0,
187.500=13DodgeBullets.png=1.000=0=0=0,
204.000=14OMGTurtle.png=1.000=0=0=0,
222.000=15HTank.png=1.000=0=0=0,
236.500=16BetweenDangers.png=1.000=0=0=0,
247.500=17TooClose.png=1.000=0=0=0,
260.000=18EndStage.png=1.000=0=0=0,
99999=-nosongbg-=1.000=0=0=0 // don't automatically add -songbackground-
;
// cache tags:
#FIRSTBEAT:0.000;
#LASTBEAT:267.000;
#SONGFILENAME:Songs/toune 2/Mega Man X - Spark Mandrill/Mega Man X - Spark Mandrill.sm;
#HASMUSIC:1;
#HASBANNER:1;
#MUSICLENGTH:111.362;
// end cache tags

//---------------dance-single - simfile by Z4N----------------
#NOTES:
     dance-single:
     simfile by Z4N:
     Challenge:
     8:
     0.523,0.659,0.000,0.557,0.242,346.000,0.000,62.000,0.000,0.000:
1000
0100
1000
0010
0100
0001
2000
0000
,
0000
0000
0000
0000
,
3001
0010
0001
0100
0010
0100
0001
0020
,
0000
0000
0032
0000
0000
0000
0000
0000
0000
0000
0000
0000
1003
0000
0010
0100
,
0002
0000
0000
0000
0000
0000
0000
0000
0000
0000
1003
0100
1000
0010
0200
0000
,
0000
0000
0000
0300
,
0010
1000
0001
1000
0100
1000
0001
0020
,
0000
0032
0000
0000
1003
0100
2000
0000
,
3200
0000
0000
0000
0000
0000
0000
0000
0000
0000
0310
0001
1000
0001
0020
0000
,
0000
0000
0000
0030
,
0001
1000
0100
1000
0001
0100
0010
0200
,
0000
0000
0302
0000
0000
0000
0000
0000
0000
0000
0000
0000
1003
0000
0001
1000
,
0200
0000
0000
0000
0000
0000
0000
0000
0000
0000
1300
0001
0100
0001
2000
0000
,
0000
0000
0000
3000
,
0001
0100
0001
0010
0100
1000
0001
0200
,
0000
0302
0000
0000
1003
0100
0020
0000
,
0000
0000
0000
0030
,
0001
1000
0001
0010
0100
1000
0001
0010
,
0001
0010
0100
1000
0001
0100
0001
2000
,
0000
0000
0000
0000
3002
0000
0000
0000
0000
0000
0203
0000
0000
0000
0310
1000
,
0010
0000
0000
0000
0100
0001
0100
0000
0010
1000
0010
0000
0000
0000
0000
0000
,
0000
0000
0000
0000
0100
0100
0010
0010
,
1000
1000
0001
0001
1000
1000
0100
0010
,
0001
0010
0001
1000
0100
0010
0002
0000
,
0000
0000
0000
0003
,
0000
0000
0020
0000
0000
0000
0000
0000
0000
0000
0031
1000
0001
0100
0020
0000
,
0000
0000
0130
0000
0020
0000
0000
0000
0000
0000
1030
0001
0100
0000
0020
0000
,
0000
0000
1030
0001
0100
0001
0100
0010
1000
0010
1000
0001
0100
0000
0020
0000
,
0130
0020
0130
0020
0130
0020
0130
0002
,
0000
0000
0000
0000
1003
0100
0010
0000
0000
0000
0000
0000
0001
0010
0100
0000
,
0000
0000
0000
0000
1000
0100
0010
0001
0010
0001
1000
0100
0010
0001
0000
0000
,
1000
0001
0010
0001
1000
0100
2000
0000
,
0000
0000
0000
3000
,
0000
0000
0000
0000
,
0000
0000
0000
0000
0000
0000
0000
0000
0000
0000
0001
1000
0100
0010
0002
0000
,
0000
0000
0000
0000
,
1003
0010
1000
0100
0010
0100
1000
0020
,
0000
0000
2030
0000
0000
0000
0000
0000
0000
0000
0000
0000
3001
0000
0010
0100
,
2000
0000
0000
0000
0000
0000
0000
0000
0000
0000
3001
0100
0001
0010
0200
0000
,
0000
0000
0000
0300
,
0010
0001
1000
0001
0100
0001
1000
0020
,
0000
2030
0000
0000
3001
0100
0002
0000
,
0203
0000
0000
0000
0000
0000
0000
0000
0000
0000
0310
1000
0001
1000
0020
0000
,
0000
0000
0000
0030
,
1000
0001
0100
0001
1000
0100
0010
0200
,
0000
0000
2300
0000
0000
0000
0000
0000
0000
0000
0000
0000
3001
0000
1000
0001
,
0200
0000
0000
0000
0000
0000
0000
0000
0000
0000
0301
1000
0100
1000
0002
0000
,
0000
0000
0000
0003
,
1000
0100
1000
0010
0100
0001
1000
0200
,
0000
2300
0000
0000
3001
0100
0020
0000
,
0000
0000
0000
0030
,
1000
0001
1000
0010
0100
0001
1000
0010
,
1000
0010
0100
0001
1000
0100
1000
0002
,
0000
0000
0000
0000
2003
0000
0000
0000
0000
0000
3200
0000
0000
0000
0310
0001
,
0010
0000
0000
0000
0100
1000
0100
0000
0010
0001
0010
0000
0000
0000
0000
0000
,
0000
0000
0000
0000
0100
0100
0010
0010
,
0001
0001
1000
1000
0001
0001
0100
0010
,
1000
0010
1000
0001
0100
0010
2000
0000
,
0000
0000
0000
3000
,
0000
0000
0020
0000
0000
0000
0000
0000
0000
0000
1030
0001
1000
0100
0020
0000
,
0000
0000
0130
0000
0020
0000
0000
0000
0000
0000
0031
1000
0100
0000
0020
0000
,
0000
0000
0031
1000
0100
1000
0100
0010
0001
0010
0001
1000
0100
0000
0020
0000
,
0130
0020
0130
0020
0130
0020
0130
2000
,
0000
0000
0000
0000
3001
0100
0010
0000
0000
0000
0000
0000
1000
0010
0100
0000
,
0000
0000
0000
0000
0001
0100
0010
1000
0010
1000
0001
0100
0010
1000
0000
0000
,
0001
1000
0010
1000
0001
0100
0002
0000
,
0000
0000
0000
0003
;
