#TITLE:Ride;
#SUBTITLE:Beastiality Violation;
#ARTIST:Captain Ahab;
#TITLETRANSLIT:;
#SUBTITLETRANSLIT:;
#ARTISTTRANSLIT:;
#CREDIT:;
#BANNER:../BV - ban.png;
#BACKGROUND:../BV - bg.png;
#LYRICSPATH:;
#CDTITLE:;
#MUSIC:Ride.ogg;
#OFFSET:0.007;
#SAMPLESTART:84.028;
#SAMPLELENGTH:12.000;
#SELECTABLE:YES;
#DISPLAYBPM:240.000;
#BPMS:0.000=240.000;
#STOPS:;
#BGCHANGES:;
// cache tags:
#FIRSTBEAT:0.000;
#LASTBEAT:716.000;
#SONGFILENAME:Songs/Beastiality Violation/Ride - [Aoreo]/Ride.sm;
#HASMUSIC:1;
#HASBANNER:1;
#MUSICLENGTH:179.750;
// end cache tags

//---------------dance-single - ----------------
#NOTES:
     dance-single:
     :
     Challenge:
     19:
     1.000,1.000,0.122,0.345,1.000,1521.000,22.000,62.000,0.000,0.000:
2000
3000
0000
0000
,
2000
0000
3000
0200
0000
0300
0020
0000
,
0032
0003
0000
0000
,
2000
0000
3000
0200
0000
0300
0020
0000
,
0032
0003
0000
0000
,
2000
0000
3000
0200
0000
0300
0020
0000
,
0032
0000
0000
0000
0000
0000
0000
0003
,
0200
0000
0000
0000
0000
0000
0000
0300
,
0001
0010
0100
1000
0010
0100
0001
0010
,
0100
1000
0000
1000
0100
0100
0001
0000
,
1000
0100
0010
0001
0100
0010
1000
0100
,
0010
0001
0000
0001
0100
0100
1000
0000
,
0001
0010
0100
1000
0010
0100
0001
0010
,
0100
1000
0000
1000
0100
0100
0001
0000
,
0002
0000
0000
1000
0000
0000
1000
0003
,
2000
0000
0000
0100
0000
0000
0001
0000
,
3001
0100
0010
0100
0001
0000
1000
0100
,
0010
0100
1000
0000
0001
0100
0010
0100
,
0001
0100
0010
0000
1000
0100
0010
0100
,
1000
0000
0001
0010
0100
0010
0001
0000
,
1000
0010
0100
0010
1000
0000
0001
0010
,
0100
0010
0001
0000
1000
0010
0100
0010
,
1000
0001
0100
0000
0001
0010
0100
0000
,
1000
0010
0100
0000
0001
0010
0100
0000
,
1000
0001
0010
0100
0010
0001
1000
0010
,
0100
0010
1000
0100
0010
0001
0100
0010
,
1000
0100
0010
0100
1000
0010
0100
0001
,
0010
0100
1000
0010
0100
0010
1000
0001
,
0010
0100
1000
0010
1000
0100
0010
0100
,
1000
0010
0100
0001
0010
0100
1000
0001
,
2000
0000
3020
0000
,
0230
0000
0302
0000
,
0003
0000
0000
0000
,
0000
0000
0000
0000
,
0000
0000
0000
0000
,
0000
0000
0000
0000
,
0000
0000
0000
0000
,
0000
0000
0000
0000
,
0000
0000
0000
0000
,
0000
0000
0000
0000
1000
0000
0000
0000
0001
0000
0000
0000
,
1000
0000
0000
0000
0010
0000
0000
0000
0100
0000
0000
0000
,
0001
0000
0000
0000
0010
0000
0000
0000
0100
0000
0000
0000
,
1000
0000
0000
0000
0010
0000
0000
0000
0100
0000
0000
0000
,
0001
0000
0000
0000
0000
0000
0000
0000
1000
0000
0000
0000
,
0001
0000
0000
0000
0100
0000
0000
0000
0010
0000
0000
0000
,
0100
0000
0000
0000
0001
0000
0000
0000
0010
0000
0000
0000
,
0200
0000
0000
0300
,
0000
2000
3000
0001
,
2000
3000
0000
0000
0001
0000
0000
0000
0010
0000
0000
0000
0100
0000
0000
0000
1000
0000
0000
0000
0010
0000
0000
0000
0100
0000
0000
0000
0001
0000
0000
0000
,
1000
0100
0010
0001
0100
0010
1000
0001
,
0200
0300
0000
0000
0001
0000
0000
0000
0010
0000
0000
0000
0100
0000
0000
0000
1000
0000
0000
0000
0010
0000
0000
0000
0100
0000
0000
0000
0001
0000
0000
0000
,
2000
3000
0000
0000
0100
0000
0000
0000
0010
0000
0000
0000
0001
0000
0000
0000
0100
0000
0000
0000
0010
0000
0000
0000
1000
0000
0000
0000
0001
0000
0000
0000
,
0020
0030
0000
0000
0100
0000
0000
0000
1000
0000
0000
0000
0010
0000
0000
0000
0100
0000
0000
0000
0001
0000
0000
0000
0010
0000
0000
0000
0100
0000
0000
0000
,
1000
0010
0100
0001
1000
0100
0010
0100
,
2000
3000
0000
0000
0010
0000
0000
0000
0100
0000
0000
0000
0001
0000
0000
0000
0010
0000
0000
0000
0100
0000
0000
0000
0010
0000
0000
0000
0001
0000
0000
0000
,
2000
3000
0000
0000
0010
0000
0000
0000
0100
0000
0000
0000
0001
0000
0000
0000
0010
0000
0000
0000
0100
0000
0000
0000
1000
0000
0000
0000
0010
0000
0000
0000
,
0200
0300
0000
0000
0001
0000
0000
0000
1000
0000
0000
0000
0100
0000
0000
0000
0010
0000
0000
0000
0001
0000
0000
0000
0100
0000
0000
0000
0010
0000
0000
0000
,
0100
0001
0010
0100
1000
0010
0100
0001
,
2000
3000
0000
0000
0100
0000
0000
0000
0010
0000
0000
0000
0100
0000
0000
0000
1000
0000
0000
0000
0010
0000
0000
0000
0100
0000
0000
0000
0001
0000
0000
0000
,
2000
3000
0000
0000
0010
0000
0000
0000
0100
0000
0000
0000
0001
0000
0000
0000
0010
0000
0000
0000
0100
0000
0000
0000
1000
0000
0000
0000
0001
0000
0000
0000
,
2002
3003
0000
0000
0000
0000
0000
0000
,
0000
0000
0000
0000
,
2002
3003
0000
0000
0000
0000
0000
0000
,
0000
1000
1001
0000
,
0001
0100
0010
0100
0001
0010
0100
1000
,
0001
1000
0010
0100
0001
0010
0100
1000
,
0010
0100
0001
0100
0010
1000
0001
1000
,
0100
0000
0010
0000
0100
0000
1000
0001
1000
0010
0100
0001
1000
0001
1000
0000
,
0001
1000
0100
0010
0001
0100
0010
0100
,
0001
1000
0100
0010
0001
1000
0001
0100
,
0010
0100
0001
0010
0100
1000
0001
1000
,
0010
0000
0100
0000
0001
0000
1000
0100
1000
0100
0010
0001
1000
0001
1000
0000
,
0001
0100
0010
0100
0001
0010
0100
1000
,
0001
1000
0100
0010
0100
1000
0010
0100
,
0001
1000
0010
0100
0001
0010
0100
1000
,
0010
0000
0100
0000
0001
0000
1000
0001
0100
0001
1000
0010
0100
0000
0000
0000
,
0001
0100
0010
0100
0001
0010
0100
1000
,
0001
0010
0100
1000
0010
0100
0001
1000
,
0100
0010
0100
1000
0010
0100
0001
0010
,
0100
0000
1000
0000
0010
0000
0100
0001
1000
0001
0010
0100
1000
0001
1000
0000
,
0001
0010
0100
1000
0001
1000
0010
0100
,
0001
0000
1000
0000
0000
0000
0010
0000
0400
0000
0000
0000
0300
0000
0001
1000
,
0001
1000
0100
0010
0400
1300
0001
0100
,
0010
0000
0100
0000
0001
0000
0010
0000
0100
0000
1000
0000
0001
1000
0001
0000
,
0100
0000
0001
0000
0010
0000
0100
0000
1000
0000
0001
0000
,
1000
0000
0010
0000
0100
0000
0001
0000
0010
0000
0100
0000
,
1000
0100
0010
0100
1000
0001
0100
0010
,
1000
0002
0003
0000
1000
0000
1000
0000
,
0001
0100
0010
1000
0001
1000
0010
0100
0001
0100
0010
1000
0010
0100
0001
1000
,
0010
0100
0001
0100
0010
1000
0001
1000
0001
0010
0100
1000
0100
0010
0001
1000
,
0100
0010
0001
0010
0100
1000
0001
1000
0001
0100
0010
1000
0010
0100
0001
1000
,
0010
1000
0010
0100
0001
0100
0001
1000
0001
0010
0100
1000
0100
0010
0001
1000
,
0100
1000
0100
0010
0001
0010
0001
1000
0001
0100
0010
1000
0001
0100
0010
0100
,
0010
1000
0010
0100
0001
1000
0001
1000
0001
0010
0100
1000
0001
0010
0100
0010
,
0100
1000
0100
0010
0001
1000
0001
1000
0010
0100
0010
0100
0001
1000
0001
0100
,
0010
1000
0001
0100
0010
1000
0010
0100
0001
1000
0001
1000
0010
0100
0001
0100
,
0001
1000
0010
0100
0001
1000
0010
0100
0001
1000
0100
1000
0100
0010
0001
0010
,
0001
1000
0100
0010
0001
0010
0100
1000
0001
1000
0010
1000
0010
0100
0001
0100
,
0001
1000
0010
0100
0001
0100
0010
1000
0001
0010
0100
0010
0100
1000
0001
0010
,
0100
0010
0100
1000
0001
0010
0100
1000
0001
0100
0010
0100
0010
1000
0001
0100
,
0010
0100
0010
1000
0001
0100
0010
1000
0001
0010
0100
1000
0100
0010
0001
1000
,
0100
1000
0001
0010
0100
1000
0001
1000
0001
0100
0010
1000
0010
0100
0001
1000
,
0010
1000
0001
0100
0010
1000
0001
1000
0001
0010
0100
1000
0100
0010
0001
1000
,
0100
1000
0001
0010
0001
1000
0100
0010
0001
1000
0100
0010
0100
1000
0001
1000
,
0100
1000
0100
0010
0001
1000
0100
0010
0001
1000
0001
0100
0010
1000
0001
0100
,
0001
1000
0010
0100
0001
0100
0010
1000
0001
0010
0001
1000
0100
1000
0001
0010
,
0100
1000
0001
0010
0001
1000
0100
1000
0001
0100
0001
1000
0010
1000
0001
0100
,
0010
1000
0001
1000
0010
0100
0001
1000
0001
0010
0001
1000
0100
0010
0001
1000
,
0001
0010
0100
1000
0001
1000
0001
0100
0010
1000
0001
1000
0010
0100
0001
0100
,
0001
1000
0010
0100
0001
1000
0001
1000
0100
0010
0001
1000
0100
1000
0001
0010
,
0001
0010
0100
1000
0001
1000
0100
0010
0001
1000
0001
1000
0010
0100
0001
1000
,
0001
0100
0001
1000
0010
1000
0010
0100
0001
1000
0010
1000
0001
0100
0010
1000
,
0001
0100
0010
1000
0001
0100
0010
1000
0001
1000
0100
0010
0001
0010
0001
1000
,
0100
0010
0001
1000
0001
0010
0001
1000
0001
1000
0010
0100
0001
1000
0010
1000
,
0001
0100
0001
0100
0010
1000
0001
0100
0001
1000
0001
0010
0100
1000
0001
1000
,
0100
0010
0001
1000
0100
1000
0100
0010
0001
1000
0010
1000
0001
0100
0010
1000
,
0001
1000
0010
0100
0001
1000
0001
0100
0001
1000
0100
0010
0001
0010
0001
1000
,
0001
1000
0100
0010
0001
0010
0100
1000
0001
1000
0010
0100
0001
0100
0010
1000
,
0001
1000
0010
0100
0001
0100
0010
1000
0001
1000
0001
0010
0100
1000
0001
0010
,
0001
1000
0100
0010
0001
1000
0100
0010
0001
1000
0100
0010
0100
1000
0001
1000
,
0001
0000
0000
0000
,
1001
0000
0000
0000
,
1001
0000
0000
0000
,
1001
0000
0000
0000
,
2002
3003
0000
0000
0000
0000
0000
0000
0000
0000
0000
0000
0000
0000
0000
0000
,
1001
0000
0000
0000
,
2002
3003
0000
0000
0000
0000
0000
0000
0000
0000
0000
0000
0000
0000
0000
0000
,
2002
3003
0000
0000
0000
0000
0000
0000
0000
0000
0000
0000
0000
0000
0000
0000
,
1000
0000
0001
0000
,
0202
0303
0000
0000
0000
0000
0000
0000
0000
0000
0000
0000
0000
0000
0000
0000
,
0100
0010
0000
0000
0000
0000
0000
0000
,
0200
0300
0000
0000
0110
0000
0000
0000
0000
0000
1010
0000
0000
0000
0000
0000
,
1001
0000
0000
0000
,
0001
0100
0000
0000
0000
0000
0000
0000
,
2002
3003
0000
0000
0000
0000
0000
0000
0000
0000
0000
0000
0001
0000
1000
0000
,
0100
0010
0100
1000
0001
1000
0010
0000
,
0100
0000
0001
0100
0000
0000
0001
1000
,
0100
0000
1000
0100
0000
0000
1000
0001
,
0100
0000
0001
0100
0000
0000
0001
1000
,
0100
0010
0001
1000
0001
0100
0010
1000
,
0002
0003
0000
0000
0100
0000
0010
0000
0000
0000
0000
0000
0100
0000
0001
0000
,
2000
3000
0000
0000
0010
0000
0100
0000
0000
0000
0000
0000
0001
0000
0000
0000
,
1000
0100
0010
0001
,
1000
0100
0010
0001
,
1000
0100
0010
0001
1000
0100
0010
0100
1000
0001
0010
0100
1000
0001
0010
0100
,
1000
0001
0010
0001
1000
0100
1000
0001
0010
0100
1000
0001
0010
0100
1000
0001
,
1000
0001
0100
0001
1000
0010
0100
0001
0100
0010
1000
0001
1000
0010
0100
0001
,
1000
0001
0100
0010
1000
0001
1000
0010
0100
0001
1000
0010
1000
0001
0100
0001
,
1000
0001
0010
0100
1000
0001
1000
0100
0010
0001
1000
0100
0010
0100
1000
0001
,
0010
0100
1000
0001
1000
0001
0010
0100
1000
0001
0010
0100
0010
0001
1000
0001
,
1000
0010
0100
0001
0100
0010
1000
0010
0100
0001
1000
0001
0100
0010
1000
0001
,
1000
0010
0100
0001
0100
0010
1000
0001
0100
0001
1000
0010
0100
0001
1000
0001
,
1000
0100
0010
0001
1000
0001
0010
0100
1000
0001
1000
0001
0010
0100
1000
0001
,
0010
0001
1000
0100
0010
0001
1000
0001
0010
0100
1000
0001
0010
0100
0010
0001
,
1000
0001
1000
0010
0100
0001
0100
0010
1000
0010
0100
0001
1000
0010
0100
0001
,
1000
0001
0100
0001
1000
0010
0100
0010
1000
0001
0100
0001
1000
0010
0100
0001
,
1000
0001
0010
0100
1000
0001
0010
0100
0010
0001
1000
0100
0010
0001
1000
0100
,
0010
0001
1000
0100
0010
0001
1000
0001
0010
0100
1000
0001
0010
0100
1000
0001
,
1000
0001
0100
0001
1000
0010
0100
0001
0100
0010
1000
0001
1000
0001
0100
0010
,
0100
0001
1000
0010
0100
0010
1000
0001
0100
0010
1000
0001
1000
0010
0100
0001
,
1000
0001
0010
0001
1000
0100
0010
0001
0010
0100
1000
0001
1000
0100
0010
0001
,
1000
0001
0010
0100
1000
0001
1000
0100
0010
0001
1000
0100
1000
0001
0010
0001
,
1000
0001
0100
0010
1000
0001
1000
0010
0100
0001
1000
0010
0100
0010
1000
0001
,
0100
0010
1000
0001
1000
0001
0100
0010
1000
0001
0100
0010
0100
0001
1000
0001
,
1000
0100
0010
0001
0010
0100
1000
0100
0010
0001
1000
0001
0010
0100
1000
0001
,
1000
0100
0010
0001
0010
0100
1000
0001
0010
0001
1000
0100
0010
0001
1000
0001
,
1000
0010
0100
0001
1000
0001
0100
0010
1000
0001
1000
0001
0100
0010
1000
0001
,
0100
0001
1000
0010
0100
0001
1000
0001
0100
0010
1000
0001
0100
0010
0100
0001
,
1000
0001
1000
0100
0010
0001
0010
0100
1000
0100
0010
0001
1000
0100
0010
0001
,
1000
0001
0010
0001
1000
0100
0010
0100
1000
0001
0010
0001
1000
0100
0010
0001
,
1000
0001
0100
0010
1000
0001
0100
0010
0100
0001
1000
0010
0100
0001
1000
0010
,
0100
0001
1000
0010
0100
0001
1000
0001
0100
0010
1000
0001
0100
0010
1000
0001
,
2000
3000
0000
0000
,
0000
0000
0000
0000
,
2002
3003
0000
0000
,
0000
0000
1000
0000
2002
3003
0000
0000
,
2002
0000
0000
0000
,
3003
0000
2002
3003
0000
2002
3003
0000
,
2002
0000
0000
0000
,
3003
0000
0000
0000
;
