#TITLE:Symphony In His Ass;
#SUBTITLE:;
#ARTIST:Lord Of Sp33d;
#TITLETRANSLIT:;
#SUBTITLETRANSLIT:;
#ARTISTTRANSLIT:;
#CREDIT:Rynker;
#BANNER:symphony in his bn.png;
#BACKGROUND:symphony in his bg.png;
#LYRICSPATH:;
#CDTITLE:;
#MUSIC:2. Lord Of Sp33d - Symphony In His Ass.ogg;
#OFFSET:-0.021;
#SAMPLESTART:100.014;
#SAMPLELENGTH:12.000;
#SELECTABLE:YES;
#BPMS:0.000=175.000;
#STOPS:;
#BGCHANGES:;
// cache tags:
#FIRSTBEAT:21.000;
#LASTBEAT:455.000;
#SONGFILENAME:Songs/SPEEEDCOOOORE 2/Symphony In His Ass - [Rynker]/symphony in his ass.sm;
#HASMUSIC:1;
#HASBANNER:1;
#MUSICLENGTH:156.135;
// end cache tags

//---------------dance-single - Rynker----------------
#NOTES:
     dance-single:
     Rynker:
     Challenge:
     14:
     1.000,1.000,0.256,0.378,1.000,1107.000,40.000,59.000,0.000,0.000:

0000
0000
0000
0000
,
0000
0000
0000
0000
,
0000
0000
0000
0000
,
0000
0000
0000
0000
,
0000
0000
0000
0000
,
0000
0000
1001
1001
0000
0000
0000
0000
,
0000
0000
0000
0000
,
0000
0000
0000
0000
,
0000
0000
0000
0000
,
0000
0000
0000
0000
0000
0000
1001
1001
,
0000
0000
0000
0000
,
0000
0000
0000
0000
,
0000
0000
0000
0000
,
0000
0000
0000
0000
,
0000
0000
0000
0000
,
0000
0000
0001
0100
0010
1000
0001
0010
,
0100
0000
0010
0000
0001
1000
0001
0000
0100
0000
0010
0000
0100
0000
0000
0000
,
0002
2003
3200
0320
,
0031
0100
0020
0230
,
0302
0000
0023
0000
0130
1000
0001
0000
,
0200
0320
2030
3200
,
0010
2300
0001
3020
,
0230
0000
0301
0000
0010
0100
1000
0000
,
0002
0203
0320
2030
,
3100
0010
0100
0000
1000
0000
0000
0000
0020
0000
0000
0000
0230
0000
0000
0000
,
0302
0000
0000
0000
0000
0000
0000
0000
0000
0000
0000
0000
0000
0000
0000
0000
0023
0000
0000
0000
0000
0000
0000
0000
0000
0000
0000
0000
0000
0000
0000
0030
1100
0000
0000
0000
0000
0000
0000
0000
0000
0000
0000
0000
0000
0000
0000
0000
1000
0000
0000
0000
0000
0000
0000
0000
0000
0000
0000
0000
0000
0000
0000
0000
,
0020
0230
0302
2003
,
0100
3020
0100
2030
,
3002
0000
0013
0000
1001
1001
1000
0010
,
0200
0301
0020
0130
2000
3001
0200
0310
,
0100
0000
0000
0001
0000
0000
1000
0000
0000
0100
0000
0000
0020
0000
0000
0031
0000
0000
0100
0001
0100
0001
1000
0001
,
1000
0001
0100
0010
0100
0001
0011
0010
,
0002
0103
0020
0130
0002
1003
0200
0310
,
0001
1000
0020
0130
0010
1000
0002
0013
,
0200
0000
0000
0310
0000
0000
0001
0000
0000
1000
0000
0000
0010
0100
0001
1000
0001
1000
0001
0000
0000
1000
0000
0000
,
0020
0130
0020
1030
0200
0310
0002
1003
,
0010
0100
0110
0010
2000
3100
0020
0031
,
2000
0000
0000
3010
0000
0000
0200
0000
0000
0310
0000
0000
1000
0001
1000
0001
0100
0001
0100
0000
0000
0001
0000
0000
,
0020
0130
2000
3010
0200
0301
2000
3100
,
0010
0001
2000
3001
0100
0010
0200
0301
,
1000
0000
0000
0100
0000
0000
1000
0000
0000
0000
0000
0000
0100
0000
0000
0010
0000
0000
0100
0000
0000
0000
0000
0000
0010
0000
0001
0000
0010
0000
0001
0000
1000
0000
0001
0000
1000
0000
0000
0000
0000
0000
0001
0000
0000
0000
0000
0000
,
0100
0010
0100
0001
0010
0100
1000
0001
,
0100
0100
0010
1000
0100
0010
0001
0100
,
0010
0100
0001
0010
0100
0100
1000
0001
,
0100
0010
1000
0001
0010
0100
0010
0001
,
0100
0010
1000
0001
0100
0010
1000
0100
,
0010
0100
1000
1000
0001
0001
0010
0100
,
1000
0001
0100
0010
1000
0100
0010
0001
,
0100
0100
0010
0100
0001
0010
0100
1000
,
0001
0100
0010
0100
0001
0001
0010
0100
,
0010
0001
1000
0010
0100
0010
1000
0001
,
1000
0001
0010
0100
0010
0100
1000
0001
,
0100
0000
0000
0000
0000
0000
0010
0000
0000
0000
0000
0000
0100
0000
0000
0000
0000
0000
0001
0000
0000
0000
0000
0000
1000
0000
0001
0000
0100
0000
0001
0000
0100
0000
0001
0000
1000
0000
0000
0001
0000
0000
0100
0000
0000
0010
0000
0000
,
0100
0001
1000
0010
0100
0010
1000
0001
0010
0100
1000
0001
0010
0001
0100
0010
,
1000
1000
0010
0100
0001
0010
0100
1000
,
0010
0000
0100
0000
0010
0000
1000
0000
0001
0010
0100
0010
0001
1000
0001
0100
,
0010
0100
0001
1000
0100
0010
0001
0100
0010
0100
0001
1000
0001
0000
0100
0000
,
0010
0000
0100
0000
0001
0100
0010
1000
0010
0100
0001
1000
0100
0010
0001
0100
,
0010
0100
0010
1000
0001
0010
0100
0010
0001
1000
0001
0100
0010
0100
0001
1000
,
0100
0010
0001
0100
0010
0100
0001
0010
0100
1000
0100
0010
0001
0000
1000
0000
,
0001
0000
1000
0000
0001
0100
0010
0100
0001
1000
0100
0010
0100
1000
0001
0010
,
0001
0100
0010
0100
0001
1000
0100
0010
0001
1000
0001
0100
0010
0100
0001
1000
,
0100
0010
0100
1000
0001
0010
0001
0100
0010
1000
0010
0100
0001
1000
0010
0100
,
0010
0000
0000
1000
0000
0000
0001
0000
0000
0010
0000
0000
0100
0000
1000
0000
0100
0000
1000
0000
0001
0000
1000
0000
0001
0000
0000
0000
0000
0000
0100
0000
0000
0000
0000
0000
0010
0000
0000
0000
0000
0000
0100
0000
0000
0000
0000
0000
,
0001
0000
0010
0000
0001
1000
0001
1000
0001
0000
1000
0000
0010
0100
0010
0100
,
0001
0000
0000
1000
0000
0000
0100
0000
0000
0010
0000
0000
0100
0000
0000
1000
0000
0000
0001
0000
0000
0010
0000
0000
0001
0000
0000
0100
0000
0000
0010
0000
0000
0100
0000
0000
0001
0000
1000
0000
0001
0000
0100
0000
0010
0000
0100
0000
,
0001
0000
1000
0000
0001
0000
1000
0000
0010
0000
0100
0000
0010
0000
0000
1000
0000
0000
0001
0000
0000
0010
0000
0000
0001
0000
0000
0100
0000
0000
0010
0000
0000
0100
0000
0000
0001
0000
0000
1000
0000
0000
0001
0000
0000
0010
0000
0000
,
0100
0000
1000
0000
0010
0000
0100
0000
0010
1000
0100
0000
0010
0001
1000
0001
,
0100
0010
0100
0001
1000
0100
0010
0001
1000
0001
0100
0010
0100
0001
1000
0100
,
0010
0000
0100
0000
1000
0000
0001
0000
0100
0000
0010
0000
0100
0001
1000
0100
,
0010
0100
1000
0001
0100
0010
0100
0001
1000
0000
0001
0000
0010
0000
0100
0000
,
1000
0000
0010
0000
0100
0000
0001
0000
1000
0000
0001
0000
0010
0001
0010
0001
,
1000
0000
0000
0001
0000
0000
1000
0000
0000
0001
0000
0000
0100
0000
0000
0001
0000
0000
0100
0000
0000
0010
0000
0000
0100
0000
0001
0000
0100
0000
0001
0000
1000
0000
0001
0000
1000
0000
0000
0001
0000
0000
1000
0000
0000
0001
0000
0000
,
0010
0100
0010
0100
1000
0100
1000
0001
1000
0001
1000
0001
1000
0001
1000
0001
,
0010
0001
0010
0100
1000
0100
1000
0010
0100
0010
0100
0001
1000
0001
1000
0100
,
0010
0100
0010
0001
0010
0001
0010
0100
1000
0100
1000
0010
0100
0010
0100
0001
,
0010
0000
0000
0001
0000
0000
0010
0000
0000
0100
0000
0000
1000
0000
0000
0100
0000
0000
1000
0000
0000
0001
0000
0000
0100
0000
0001
0000
0100
0000
0001
0000
1000
0000
0001
0000
1000
0000
0000
0100
0000
0000
0010
0000
0000
0001
0000
0000
,
0100
0010
0100
0001
0010
0100
1000
0010
0100
0010
1000
0100
0010
0001
0100
0010
,
1000
0100
0010
0100
1000
0010
0100
0001
0010
0100
1000
0010
0100
0010
1000
0100
,
0010
0000
0100
1000
0010
0100
0001
0010
0100
0010
0001
0100
0010
1000
0100
0010
,
0001
1000
0010
0100
0001
1000
0001
1000
0001
0010
0100
0010
0001
0100
0010
0100
,
0001
0010
0001
1000
0010
0100
0001
0010
0100
1000
0010
0100
0001
0010
0100
1000
,
0001
1000
0010
0100
0001
0010
0100
1000
0010
0100
0010
1000
0100
0010
0001
1000
,
0001
0100
0010
0100
0001
0010
0100
1000
0010
0100
0010
1000
0100
0010
0001
0100
,
0010
1000
0100
0010
0100
1000
0100
1000
0100
0010
0001
0100
0010
1000
0100
0010
,
0100
1000
0010
0100
0001
0010
0100
1000
0002
0000
0000
0000
0103
0010
0100
0010
,
1000
0100
0010
0001
0100
0010
0100
0001
0010
0100
1000
0010
0100
0000
0100
0000
,
0001
0010
0100
1000
0010
0100
0010
1000
0100
0010
0001
0100
0010
1000
0100
0010
,
0001
0000
0001
0000
1000
0000
0000
0000
0010
0000
0100
0001
0010
0100
1000
0010
,
0100
0001
0010
0100
1000
0010
0100
0001
0010
0100
1000
0010
0100
0000
0001
0100
,
0010
1000
0100
0010
0001
0100
0010
1000
0100
0010
0001
0100
0010
1000
0100
0010
,
0001
0100
0010
1000
0010
0100
0001
1000
0100
0010
0001
0100
0010
1000
0010
0100
,
0001
0010
0100
1000
0010
0100
0010
1000
0100
0010
0100
0010
0100
1000
0010
0100
,
0001
0010
0100
1000
0010
0100
0010
1000
0100
0010
0001
1000
0001
0000
1000
0000
,
0001
0100
0010
1000
0100
0010
0001
0100
0010
0100
0001
0010
0100
1000
0010
0100
,
0001
1000
0001
1000
0001
0100
0010
1000
0100
0010
0001
0100
0010
0100
0001
0010
,
0100
1000
0010
0100
0010
1000
0100
0010
0001
0100
0010
0100
0001
0010
0100
1000
,
0010
0100
0001
0010
0001
0100
0010
1000
0001
0000
1000
0100
1000
0000
0001
0100
,
0001
1000
0100
0010
0001
0100
0010
0100
0001
0010
0100
1000
0001
0100
0001
1000
,
0010
0100
0001
0010
0100
1000
0010
0100
0010
1000
0100
0010
0001
0100
0010
1000
,
0100
0010
0100
1000
0010
0100
0001
0010
0100
1000
0010
0100
0001
0000
0000
0000
,
0011
0010
0011
0001
0101
0100
0101
0001
,
0010
0100
0010
0100
1000
0000
0001
0000
0101
0000
0100
0000
0101
0000
0001
0000
,
1001
0000
1000
0000
1001
0000
0001
0000
0010
0100
0010
0100
1000
0000
0001
0000
,
0101
0100
0101
0001
1001
1000
1100
0100
,
0010
0001
0101
0001
0010
0100
1100
1000
,
1010
0010
0100
0010
1000
0010
0100
0001
,
0011
0010
0011
0001
0101
0100
0101
0001
,
0010
0100
0010
0100
1000
0000
0001
0000
0101
0000
0100
0000
0101
0000
0001
0000
,
0011
0000
0010
0000
0011
0000
0001
0000
0100
0010
0100
0010
1000
0000
0001
0000
,
0011
0010
0011
0001
0101
0100
0110
0010
,
1010
0000
1000
0000
1100
0000
0100
0000
0110
0000
0010
0000
0001
1000
0001
1000
,
0001
0100
0010
1000
0100
0010
0001
0100
0010
1000
0100
0000
2002
0000
0000
0000
,
0000
0003
0000
3000
;

//---------------dance-single - Rynker----------------
#NOTES:
     dance-single:
     Rynker:
     Hard:
     19:
     1.000,1.000,0.058,0.371,1.000,1363.000,9.000,58.000,0.000,0.000:





0000
0000
0000
0000
,
0000
0000
0000
0000
,
0000
0000
0000
0000
,
0000
0000
0000
0000
,
0000
0000
0000
0000
,
0000
0000
1001
1001
0000
0000
0000
0000
,
0000
0000
0000
0000
,
0000
0000
0000
0000
,
0000
0000
0000
0000
,
0000
0000
0000
0000
0000
0000
1001
1001
,
0000
0000
0000
0000
,
0000
0000
0000
0000
,
0000
0000
0000
0000
,
0000
0000
0000
0000
,
0000
0000
0000
0000
,
0000
0000
0001
0100
0010
1000
0001
0010
,
0100
0000
0010
0000
0001
1000
0001
0000
0100
0000
0010
0000
0100
0000
0000
0000
,
0002
2003
3200
0320
,
0031
0100
0020
0230
,
0302
0000
0023
0000
0130
1000
0001
0000
,
0200
0320
2030
3200
,
0010
2300
0001
3020
,
0230
0000
0301
0000
0010
0100
1000
0000
,
0002
0203
0320
2030
,
3100
0010
0100
0000
1000
0000
0000
0000
0020
0000
0000
0000
0230
0000
0000
0000
,
0302
0000
0000
0000
0000
0000
0000
0000
0000
0000
0000
0000
0000
0000
0000
0000
0023
0000
0000
0000
0000
0000
0000
0000
0000
0000
0000
0000
0000
0000
0000
0030
1100
0000
0000
0000
0000
0000
0000
0000
0000
0000
0000
0000
0000
0000
0000
0000
1000
0000
0000
0000
0000
0000
0000
0000
0000
0000
0000
0000
0000
0000
0000
0000
,
0020
0230
0302
2003
,
0100
3020
0100
2030
,
3002
0000
0013
0000
1001
1001
1000
0010
,
0200
0301
0020
0130
2000
3001
0200
0310
,
0100
0000
0000
0001
0000
0000
1000
0000
0000
0100
0000
0000
0020
0000
0000
0031
0000
0000
0100
0001
0100
0001
1000
0001
,
1000
0001
0100
0010
0100
0001
0011
0010
,
0002
0103
0020
0130
0002
1003
0200
0310
,
0001
1000
0020
0130
0010
1000
0002
0013
,
0200
0000
0000
0310
0000
0000
0001
0000
0000
1000
0000
0000
0010
0100
0001
1000
0001
1000
0001
0000
0000
1000
0000
0000
,
0020
0130
0020
1030
0200
0310
0002
1003
,
0010
0100
0110
0010
2000
3100
0020
0031
,
2000
0000
0000
3010
0000
0000
0200
0000
0000
0310
0000
0000
1000
0001
1000
0001
0100
0001
0100
0000
0000
0001
0000
0000
,
0020
0130
2000
3010
0200
0301
2000
3100
,
0010
0001
2000
3001
0100
0010
0200
0301
,
1000
0000
0000
0100
0000
0000
1000
0000
0000
0000
0000
0000
0100
0000
0000
0010
0000
0000
0100
0000
0000
0000
0000
0000
0010
0000
0001
0000
0010
0000
0001
0000
1000
0000
0001
0000
1000
0000
0000
0000
0000
0000
0001
0000
0000
0000
0000
0000
,
0100
0010
0100
0001
0010
0100
1000
0001
,
0100
0100
0010
1000
0100
0010
0001
0100
,
0010
0100
0001
0010
0100
0100
1000
0001
,
0100
0010
1000
0001
0010
0100
0010
0001
,
0100
0010
1000
0001
0100
0010
1000
0100
,
0010
0100
1000
1000
0001
0001
0010
0100
,
1000
0001
0100
0010
1000
0100
0010
0001
,
0100
0100
0010
0100
0001
0010
0100
1000
,
0001
0100
0010
0100
0001
0001
0010
0100
,
0010
0001
1000
0010
0100
0010
1000
0001
,
1000
0001
0010
0100
0010
0100
1000
0001
,
0100
0000
0000
0000
0000
0000
0010
0000
0000
0000
0000
0000
0100
0000
0000
0000
0000
0000
0001
0000
0000
0000
0000
0000
1000
0000
0001
0000
0100
0000
0001
0000
0100
0000
0001
0000
1000
0000
0000
0001
0000
0000
0100
0000
0000
0010
0000
0000
,
0100
0001
1000
0010
0100
0010
1000
0001
0010
0100
1000
0001
0010
0001
0100
0010
,
1000
1000
0010
0100
0001
0010
0100
1000
,
0010
0000
0100
0000
0010
0000
1000
0000
0001
0010
0100
0010
0001
1000
0001
0100
,
0010
0100
0001
1000
0100
0010
0001
0100
0010
0100
0001
1000
0001
0000
0100
0000
,
0010
0000
0100
0000
0001
0100
0010
1000
0010
0100
0001
1000
0100
0010
0001
0100
,
0010
0100
0010
1000
0001
0010
0100
0010
0001
1000
0001
0100
0010
0100
0001
1000
,
0100
0010
0001
0100
0010
0100
0001
0010
0100
1000
0100
0010
0001
0000
1000
0000
,
0001
0000
1000
0000
0001
0100
0010
0100
0001
1000
0100
0010
0100
1000
0001
0010
,
0001
0100
0010
0100
0001
1000
0100
0010
0001
1000
0001
0100
0010
0100
0001
1000
,
0100
0010
0100
1000
0001
0010
0001
0100
0010
1000
0010
0100
0001
1000
0010
0100
,
0010
0000
0000
1000
0000
0000
0001
0000
0000
0010
0000
0000
0100
0000
1000
0000
0100
0000
1000
0000
0001
0000
1000
0000
0001
0000
0000
0000
0000
0000
0100
0000
0000
0000
0000
0000
0010
0000
0000
0000
0000
0000
0100
0000
0000
0000
0000
0000
,
0001
0000
0010
0000
0001
1000
0001
1000
0001
0000
1000
0000
0010
0100
0010
0100
,
0001
0000
0000
1000
0000
0000
0100
0000
0000
0010
0000
0000
0100
0000
0000
1000
0000
0000
0001
0000
0000
0010
0000
0000
0001
0000
0000
0100
0000
0000
0010
0000
0000
0100
0000
0000
0001
0000
1000
0000
0001
0000
1000
0000
0001
0000
1000
0000
,
0001
0000
0100
0000
0001
0000
0100
0000
0001
0000
0100
0000
0001
0000
0000
1000
0000
0000
0100
0000
0000
0010
0000
0000
0001
0000
0000
0100
0000
0000
0010
0000
0000
0100
0000
0000
0001
0000
0000
1000
0000
0000
0001
0000
0000
0010
0000
0000
,
0100
0000
1000
0000
0010
0000
0100
0000
0010
1000
0100
0000
0010
0001
1000
0001
,
0100
0010
0100
0001
1000
0100
0010
0001
1000
0001
0100
0010
0100
0001
1000
0100
,
0010
0000
0100
0000
1000
0000
0001
0000
0100
0000
0010
0000
0100
0001
1000
0100
,
0010
0100
1000
0001
0100
0010
0100
0001
1000
0000
0001
0000
0010
0000
0100
0000
,
1000
0000
0010
0000
0100
0000
0001
0000
1000
0000
0001
0000
0010
0001
0010
0001
,
1000
0000
0000
0001
0000
0000
1000
0000
0000
0001
0000
0000
0100
0000
0000
0001
0000
0000
0100
0000
0000
0010
0000
0000
0100
0000
0001
0000
0100
0000
0001
0000
1000
0000
0001
0000
1000
0000
0000
0001
0000
0000
1000
0000
0000
0001
0000
0000
,
0010
0100
0010
0100
1000
0100
1000
0001
1000
0001
1000
0001
1000
0001
1000
0001
,
0010
0001
0010
0100
1000
0100
1000
0010
0100
0010
0100
0001
1000
0001
1000
0100
,
0010
0100
0010
0001
0010
0001
0010
0100
1000
0100
1000
0010
0100
0010
0100
0001
,
0010
0000
0000
0001
0000
0000
0010
0000
0000
0100
0000
0000
1000
0000
0000
0100
0000
0000
1000
0000
0000
0001
0000
0000
0100
0000
0001
0000
0100
0000
0001
0000
1000
0000
0001
0000
0100
0000
0010
0000
0100
0000
0001
0000
1000
0000
0010
0000
,
0100
0010
1000
0001
0100
0010
0100
0001
1000
0100
0010
0100
1000
0001
0010
0100
0010
0001
1000
0100
0010
0001
1000
0100
,
0010
0100
1000
0001
0010
0100
1000
0001
1000
0001
0100
0010
0100
0001
1000
0001
1000
0010
1000
0010
0100
0001
1000
0001
,
1000
0000
0000
0001
0010
0100
0010
0001
1000
0100
1000
0001
0010
0001
1000
0100
0010
0100
1000
0001
1000
0001
0010
0001
,
1000
0100
1000
0001
0010
0100
1000
0001
1000
0001
0100
0010
0100
0001
1000
0010
1000
0001
0100
0010
0100
0001
1000
0010
,
0100
0010
1000
0001
0100
0010
0100
0001
1000
0010
0100
0001
1000
0010
0100
0010
1000
0001
0100
0010
0100
0001
1000
0100
,
0010
0100
1000
0001
0010
0100
0010
0001
1000
0001
0010
0100
1000
0100
1000
0001
0010
0001
1000
0100
0010
0001
1000
0001
,
1000
0100
0010
0100
1000
0001
1000
0001
0100
0010
0100
0001
1000
0010
0100
0001
1000
0010
0100
0010
1000
0001
1000
0001
,
0100
0010
0100
0001
1000
0001
0010
0100
1000
0100
0010
0001
1000
0100
0010
0100
1000
0001
0010
0100
1000
0001
0010
0001
,
1000
0100
1000
0001
0010
0100
1000
0001
1000
0001
0010
0100
2000
0000
0000
3000
0000
0000
0001
0100
0001
1000
0010
0100
,
0010
1000
0001
0100
0001
1000
0010
1000
0010
0100
0001
1000
0010
0100
0001
1000
0001
1000
0001
0000
0000
1000
0000
0000
,
0001
0100
0001
1000
0010
0100
0010
1000
0001
0100
0010
0100
0001
1000
0001
1000
0010
0100
0010
1000
0001
1000
0001
0100
,
0010
0000
0000
1000
0000
0000
0100
0000
0000
0000
0000
0000
0100
0000
0000
0010
0001
0010
0100
1000
0100
0010
0001
1000
,
0001
1000
0100
0010
0100
1000
0001
0010
0100
1000
0100
0010
0001
1000
0001
0010
0100
1000
0001
0000
0000
0100
0001
0100
,
0001
1000
0001
0100
0010
0100
0001
1000
0010
0100
0010
1000
0001
0100
0010
0100
0001
1000
0100
0010
0100
1000
0001
0010
,
0100
0010
0001
1000
0100
0010
0001
1000
0100
0010
0100
1000
0001
0010
0100
1000
0001
1000
0010
0100
0001
0100
0010
1000
,
0001
1000
0001
0100
0010
1000
0010
0100
0001
1000
0010
0100
0010
1000
0001
0010
0100
0010
0001
1000
0100
0010
0100
1000
,
0001
0010
0100
1000
0001
0010
0100
0010
0001
1000
0100
0010
0001
1000
0001
1000
0010
0100
0001
0000
0000
1000
0000
0000
,
0001
0100
0010
0100
0001
1000
0010
0100
0010
1000
0001
0100
0010
0100
0001
1000
0001
1000
0010
0100
0010
1000
0001
1000
,
0100
0010
0001
0010
0100
1000
0100
0010
0001
1000
0001
0010
0100
0010
0001
1000
0001
0010
0100
1000
0100
0010
0001
1000
,
0001
0010
0100
0010
0001
1000
0100
0010
0100
1000
0001
1000
0001
0100
0010
0100
0001
1000
0010
0100
0010
1000
0001
0100
,
0010
0100
0001
1000
0010
1000
0001
0100
0001
1000
0010
0100
0001
0000
0000
0100
0001
0100
0001
0000
0000
0100
0010
0100
,
0001
1000
0010
0100
0001
1000
0001
0100
0010
0100
0001
1000
0010
0100
0010
1000
0001
1000
0100
0010
0100
1000
0001
0010
,
0001
1000
0100
1000
0001
0010
0100
1000
0100
0010
0001
1000
0001
0010
0100
1000
0001
1000
0001
0100
0010
0100
0001
1000
,
0010
0100
0010
1000
0001
1000
0001
0100
0010
0100
0001
1000
0010
0100
0010
1000
0001
1000
0001
0000
0000
0000
0000
0000
,
0010
0001
0010
0001
1000
0100
1000
0100
0010
0001
0010
0001
1000
0001
1000
0001
,
1000
0001
1000
0001
1000
0001
1000
0001
0100
0010
0100
0010
1000
0100
1000
0100
,
0010
0001
0010
0001
0100
0001
0100
0001
0100
0001
0100
0001
0100
0001
0100
0001
,
1000
0010
1000
0010
0100
0001
0100
0001
1000
0001
1000
0100
0010
0100
0010
0100
,
0010
0100
0010
0100
1000
0001
1000
0001
1000
0001
1000
0001
0100
0010
0100
0010
,
1000
0001
1000
0001
1000
0001
1000
0001
1000
0001
1000
0001
1000
0001
1000
0001
,
0010
0001
0010
0001
1000
0100
1000
0100
0010
0001
0010
0001
0100
0010
0100
0010
,
0100
0010
0100
0010
0100
0010
0100
0010
1000
0010
1000
0010
0100
0001
0100
0001
,
1000
0100
1000
0100
0010
0001
0010
0001
0010
0001
0010
0001
0010
0001
0010
0001
,
1000
0010
1000
0010
0100
0001
0100
0001
1000
0100
1000
0100
0010
0001
0010
0001
,
0100
0010
0100
0010
1000
0100
1000
0100
0010
0001
0010
0001
0100
0010
0100
0010
,
1000
0100
1000
0100
0010
0001
0010
0001
0100
0010
1000
0100
0020
0000
0000
0000
,
0000
0000
0000
0000
0000
0030
0000
0000
0000
0000
0000
0000
0000
0000
0000
0000
;
