#TITLE:\/(FOR RYAN);
#SUBTITLE:;
#ARTIST:GITAROO MAN VS. WICK;
#TITLETRANSLIT:;
#SUBTITLETRANSLIT:;
#ARTISTTRANSLIT:;
#CREDIT:;
#BANNER:V(FOR RYAN).PNG.png;
#BACKGROUND:V(FOR RYAN)-bg.PNG.PNG;
#LYRICSPATH:;
#CDTITLE:;
#MUSIC:V(FOR RYAN).MP3.mp3;
#OFFSET:1.850;
#SAMPLESTART:60.940;
#SAMPLELENGTH:12.000;
#SELECTABLE:YES;
#BPMS:0.000=150.500;
#STOPS:;
#BGCHANGES:;
// cache tags:
#FIRSTBEAT:5.000;
#LASTBEAT:369.750;
#SONGFILENAME:Songs/IzzySM Keyboard Mega Pack/V (For Ryan)/V(FOR RYAN).SM.sm;
#HASMUSIC:1;
#HASBANNER:1;
#MUSICLENGTH:146.711;
// end cache tags

//---------------dance-single - ----------------
#NOTES:
     dance-single:
     :
     Hard:
     10:
     1.000,1.000,1.000,0.014,1.000,959.000,190.000,2.000,0.000,0.000:
0000
0000
0000
0000
,
0000
1001
0101
1001
,
0011
1001
0101
1001
,
0011
0110
1010
0110
,
0011
0110
1010
0110
,
0011
0110
0101
0110
,
1100
0110
0101
0110
,
1100
0000
0001
1001
0000
0000
1010
0000
0000
1001
0000
0000
,
1100
1001
1010
1001
,
1100
0000
0100
0011
0000
0000
0110
0000
0000
1001
0000
0000
,
0011
0110
1100
0011
,
0110
0000
1000
1001
0000
0000
0011
0000
0000
0110
0000
0000
,
1100
0110
0110
1001
,
0011
0000
0010
0110
0000
0000
1001
0000
0000
0110
0000
0000
,
0110
1001
0011
0110
,
1100
0000
0100
0011
0000
0000
1100
0000
0000
0011
0000
0000
,
1010
0110
1001
0011
,
0110
0000
1000
1001
0000
0000
0011
0000
0000
0110
0000
0000
,
1001
0110
1100
0011
,
0110
0000
1000
0101
0000
0000
1010
0000
0000
0110
0000
0000
,
1100
0011
0011
0110
,
1100
0000
0100
0110
0000
0000
0011
0000
0000
0011
0000
0000
,
1100
1001
0011
1100
,
1001
0000
0000
0000
1000
0100
1000
0100
1000
0100
1000
0100
0010
0001
0010
0001
,
0010
0001
0010
0001
0010
1000
0100
0010
0001
0010
0100
1000
0100
0010
0001
0010
,
0100
1000
0100
0010
0100
1000
0100
0010
0100
1000
0100
0010
0001
0010
0001
0010
,
0001
0010
0001
0010
0001
0010
0100
1000
0100
1000
0100
1000
0100
1000
0100
0010
,
0100
0010
0100
0010
0100
1001
0000
0000
0000
1010
0000
0000
0000
0011
0000
0000
,
0000
1001
0000
0000
0000
1010
0001
0010
0100
1000
0100
1000
0100
1000
0100
1000
,
0100
0010
0001
0010
0001
0010
0001
0010
0001
0010
0001
0010
0100
1000
0100
0010
,
0001
1000
0100
0010
0001
1000
0100
0010
0001
1000
0100
0010
0001
1000
0100
0010
,
0001
1000
0100
0010
0001
0100
1000
0100
1000
0100
1000
0100
1000
0100
1000
0100
,
1000
0100
1000
0000
0000
1010
0000
0000
0000
0101
0000
0000
0000
1001
0000
0000
,
0000
1010
0000
0000
0000
1000
0100
0001
1000
0010
0001
1000
0100
0001
1000
0010
,
0001
1000
0100
0001
1000
0010
0001
1000
0100
0001
1000
0010
0001
1000
0100
0001
,
1000
0010
0001
1000
0100
0001
1000
0010
0001
1000
0010
0001
0010
0100
1000
0100
,
0010
0001
0010
0100
1000
0100
0010
0001
0010
0100
1000
0100
1000
0100
1000
0010
,
0001
0010
0001
0000
0000
1010
0000
0000
0000
0110
0000
0000
0000
0011
0000
0000
,
0000
0110
0000
0000
0000
1100
0000
0000
0000
0011
0000
0000
0000
1001
0000
0000
,
0000
0110
0000
0000
0000
0100
0000
0011
0000
1000
0000
0110
0000
0001
0000
1100
,
0000
0010
0000
0110
0000
0001
0000
1001
0000
0010
0000
0110
0000
1000
0000
0011
,
0000
0010
0000
1100
0000
0010
0000
0110
0000
0001
0000
0011
0000
0100
0000
0110
,
0000
0010
0000
0011
0000
0010
0000
0110
0000
0100
0000
1100
0000
0100
0000
0110
,
0000
0001
0000
1001
0000
0100
0000
0011
0000
0100
0000
1100
0000
0100
0000
1001
,
0000
0010
0000
0110
0000
0001
0000
0000
0100
1000
0100
1000
0100
1000
0100
0000
,
0100
0100
0100
0011
1100
0011
1100
0011
,
1100
0000
0011
0000
1100
0000
0100
0001
0100
0001
0100
0001
0100
0001
0100
0000
,
0100
0100
0100
1010
0101
1010
0101
1010
,
0101
0000
1010
0000
0101
0000
1000
0100
1000
0100
1000
0100
1000
0100
1000
0000
,
1000
1000
1000
0110
1001
0110
1001
0110
,
1001
0000
0110
0000
1001
0000
0010
0100
0010
0100
0010
0100
0010
0100
0010
0000
,
0010
0010
0010
1100
0011
1100
0011
1100
,
0011
0000
1100
0000
0011
0000
1000
0100
0010
0001
0010
0100
1000
0100
0010
0001
,
0010
0100
1000
0100
0010
0001
0010
0100
1000
0100
0010
0001
0010
0100
1000
0100
,
0010
0001
0010
0100
1000
0100
0010
0000
0000
0000
0000
0010
0100
1000
0100
0010
,
0001
0010
0100
1000
0100
0010
0001
0010
0100
1000
0100
0010
0001
0010
0100
1000
,
0100
1000
0100
1000
0100
1000
0100
0010
0001
0010
0100
1000
0100
0010
0001
0010
,
0100
1000
0100
0010
0001
0010
0100
1000
0000
0000
0000
0100
0010
0001
0010
0100
,
1000
0100
0010
0001
0010
0100
1000
0100
0010
0001
0010
0100
1000
0100
0010
0001
,
0010
0100
1000
0100
0010
0001
0010
0100
1000
0100
0010
0001
0010
0100
1000
0100
,
0010
0001
0010
0100
1000
0100
0010
0001
0000
0000
0000
0000
0010
0100
1000
0100
,
0010
0001
0010
0100
1000
0100
0010
0001
0010
0100
1000
0100
0010
0001
0010
0100
,
1000
0100
0010
0001
0010
0100
1000
0100
0010
0001
0010
0100
1000
0100
0010
0001
,
0010
0100
1000
0100
0010
0001
1000
0100
1000
0100
1000
0100
1000
0100
1000
0001
,
1000
0001
1000
0010
1000
0010
1000
0100
1000
0100
1000
0100
1000
0100
1000
0001
,
1000
0001
1000
0010
1000
0010
1000
0001
0100
0010
1000
0001
0100
0010
1000
0001
,
0100
0010
1000
0001
0100
0010
1000
0001
0100
0010
1000
0001
0100
0010
1000
0001
,
0100
0010
1000
0001
0100
0010
1000
0001
1000
0010
1000
0010
1000
0010
1000
0000
,
1000
1000
1000
0011
1100
0011
1100
0101
,
1010
0000
0101
0000
1010
0000
0001
0100
0001
0100
0001
0100
0001
0100
0001
0000
,
0001
0001
0001
0011
1100
1100
0101
1010
,
0101
0000
1010
0000
0101
0000
1000
0010
1000
0010
1000
0010
1000
0010
1000
0000
,
1000
1000
1000
0011
1100
0011
1001
0110
,
0011
0000
1100
0000
1001
0000
0010
0100
0010
0100
0010
0100
0010
0100
0010
0000
,
0010
0010
0010
0011
1100
0110
1001
1100
,
0011
0000
0110
0000
1001
0000
0010
1000
0010
1000
0010
1000
0010
1000
0001
0010
,
0001
0010
0001
0010
0001
0010
0100
1000
0100
1000
0100
1000
0100
1000
0001
0010
,
0001
0010
0001
0010
0001
0010
0100
0000
0000
0000
0000
1000
0010
0100
0001
1000
,
0010
0100
0001
1000
0010
0100
0001
1000
0010
0100
0001
0010
0100
0010
1000
0001
,
0100
1000
0001
0010
1000
0100
1000
0100
0010
0010
0001
0100
0010
1000
0010
0100
,
0010
1000
0001
0010
0100
0010
1000
0000
0000
0000
0000
0001
0010
0100
1000
0001
,
0010
0100
1000
0001
0010
0100
1000
0001
0010
0100
1000
0001
0010
0100
1000
0001
,
0010
0100
1000
0001
1000
0010
0100
0001
1000
0010
0100
0001
1000
0010
0100
0001
,
0010
0100
1000
0100
0001
0100
0010
0000
0000
0000
0000
0010
0100
1000
0001
0010
,
0100
1000
0001
0100
0010
1000
0001
0010
0100
1000
0001
0100
0010
1000
0010
1000
,
0001
0100
0010
1000
0001
0010
0100
1000
0001
0100
0010
1000
0001
0010
0100
1000
,
0001
0100
0010
1000
0010
0100
0001
1000
0001
1000
0001
1000
0001
1000
0001
0010
,
0001
0010
0001
0100
0001
0100
0001
1000
0001
1000
0001
1000
0001
1000
0001
0010
,
0001
0010
0001
0100
0001
0100
0001
0010
1000
0100
0001
0010
1000
0100
0001
0010
,
1000
0100
0001
0010
1000
0100
0001
0010
1000
0100
0001
0010
1000
0100
0001
0010
,
1000
0100
0001
0010
1000
0100
0001
2002
0000
0000
0000
0000
0000
0000
0000
0000
,
0000
0000
0000
0000
,
0000
0000
0000
0000
0000
0000
0000
3003
0000
0000
0000
0000
0000
0000
0000
0000
;
