#TITLE:Nemesis;
#SUBTITLE:;
#ARTIST:DJ Setup;
#TITLETRANSLIT:;
#SUBTITLETRANSLIT:;
#ARTISTTRANSLIT:;
#CREDIT:;
#BANNER:Nemesis-bn.png;
#BACKGROUND:Nemesis-bg.png;
#LYRICSPATH:;
#CDTITLE:!spazzbiteTitle.png;
#MUSIC:nemesis.mp3;
#OFFSET:1.431;
#SAMPLESTART:35.168;
#SAMPLELENGTH:12.000;
#SELECTABLE:YES;
#BPMS:0.000=164.000,324.000=82.000;
#STOPS:;
#BGCHANGES:;
// cache tags:
#FIRSTBEAT:4.750;
#LASTBEAT:332.750;
#SONGFILENAME:Songs/Fresh Flock of Fantastic Files F4/(Spazzbite) Nemesis/nemesis.sm;
#HASMUSIC:1;
#HASBANNER:1;
#MUSICLENGTH:129.418;
// end cache tags

//---------------dance-single - Copied from----------------
#NOTES:
     dance-single:
     Copied from:
     Hard:
     10:
     0.752,1.000,0.487,0.039,0.738,613.000,63.000,5.000,0.000,0.000:
0000
0000
0000
0000
,
0000
0000
0000
2000
0000
0000
0000
0000
0000
0000
0000
0000
0000
0000
0000
0000
,
0000
0000
0000
3002
0000
0000
0000
0000
0000
0000
0000
0000
0000
0000
0000
0000
,
0000
0000
0000
2003
0000
0000
0000
0000
0000
0000
0000
0000
0000
0000
0000
0000
,
0000
0000
0000
3002
0000
0000
0000
0000
0000
0000
0000
0000
0000
0000
0000
0000
,
0003
1000
0000
0010
0000
0000
0100
0000
0000
0001
0000
0010
0000
0000
0100
0000
,
0000
0010
0000
0001
0000
0000
1000
0000
0000
0100
0000
1000
0000
0000
0010
0000
,
0000
0100
0000
0001
0000
0000
2010
0000
0000
0010
0000
0001
0000
0000
3100
0000
,
0000
0000
0000
0000
,
1010
1000
0100
1000
0001
0100
0010
0100
,
0001
0000
1000
0000
0001
0000
1000
0000
0100
1000
0010
0000
0001
0000
1000
0000
,
0100
0001
0100
1000
0010
0100
0001
0100
,
0010
0000
0001
0000
1000
0000
0010
0000
0100
1000
0100
0000
0001
0000
1000
0100
,
1001
0000
0001
0000
0101
0000
0010
0100
0010
0100
0010
0000
1100
0000
0100
0000
,
0101
0000
1000
0000
0010
0000
0001
0100
0010
0100
0001
0000
0110
0000
0100
0000
,
1000
0000
0100
0000
1100
0000
0100
1000
0010
1000
0100
0000
0101
0000
0010
0000
,
1000
0000
0000
0100
0000
0000
1000
0000
0000
0100
0000
0000
1000
0000
0000
0100
0000
0000
1000
0000
0000
0100
0000
0000
1000
0000
0000
0000
0000
0000
0100
0000
0000
0000
0000
0000
1000
0000
0100
0000
1000
0000
0100
0000
1000
0000
0100
0000
,
0010
0000
0001
0000
0100
0000
0010
0100
0001
1000
0100
0000
0011
0000
0010
0000
,
1100
0000
0001
0000
0010
0000
0100
1000
0010
0001
0010
0000
1100
0000
0001
0000
,
1001
0000
0010
0000
0110
0000
1000
0001
0010
0001
1000
0000
0011
0000
0100
0000
,
0101
0000
1000
0000
1010
0000
0010
0100
0001
0100
0010
0000
0110
0000
0101
0000
,
1001
0000
0001
0000
0011
0000
0010
0001
0100
1000
0100
0000
1100
0000
0010
0000
,
0101
0000
1000
0000
0101
0000
0010
1000
0010
1000
0010
0000
1100
0000
0010
0000
,
0110
0000
0100
0000
0001
0000
1000
0100
0010
0001
1000
0000
1001
0000
0010
0000
,
0100
0000
0000
0001
0000
0000
0100
0000
0000
0001
0000
0000
0100
0000
0000
0001
0000
0000
0100
0000
0000
0001
0000
0000
0100
0000
0000
0000
0000
0000
0001
0000
0000
0000
0000
0000
1000
0000
0001
0000
1000
0000
0001
0000
1000
0000
0001
0000
,
0100
0001
0010
0000
0100
0000
0000
0010
0100
1000
0100
0000
0010
0000
0000
0001
,
0100
1000
0100
0000
1000
0000
0000
1000
0100
0001
0100
0000
1000
0000
0000
1000
,
0010
1000
0100
0000
0010
0000
0000
0100
0001
1000
0010
0000
0100
0000
0000
0010
,
1000
0001
0100
0000
0001
0000
0000
0010
0100
0001
0010
0000
0100
0000
0000
0100
,
1000
0001
0100
0000
0010
0000
0000
0100
0001
1000
0100
0000
0010
0000
0000
0100
,
1000
0100
1000
0000
0001
0000
0000
0100
0010
0100
0010
0000
1000
0000
0000
0001
,
0010
0100
1000
0000
0001
0000
0000
1000
0010
0100
0001
0000
1000
0000
0000
0000
,
0010
0000
0000
1000
0000
0000
0100
0000
0000
1000
0000
0000
0010
0000
0000
1000
0000
0000
0100
0000
0000
1000
0000
0000
0001
0000
0000
0000
0000
0000
1000
0000
0000
0000
0000
0000
0001
0000
0010
0000
0100
0000
1000
0000
0100
0000
0010
0000
,
0001
1000
0100
0000
0001
0000
0000
0000
0100
1000
0010
0000
0100
0000
0000
0000
,
0010
0100
1000
0000
0001
0000
0000
0000
0010
0100
0010
0000
1000
0000
0000
0000
,
0100
0001
1000
0000
0010
0000
0000
0000
0100
1000
0100
0000
0001
0000
0000
0000
,
1000
0100
1000
0000
0010
0000
0000
0000
0001
0100
0001
0000
0010
0000
0000
0100
,
1000
0001
0010
0000
0001
0000
0000
0100
1000
0010
0100
0000
0100
0000
0000
0001
,
1000
0100
0010
0000
0001
0000
0000
1000
0010
0100
0010
0000
0010
0000
0000
0000
,
1001
0000
0000
1000
0100
0000
0000
0100
0011
0000
0000
0001
1000
0000
0000
1000
,
0001
0000
0000
0010
0000
0000
0100
0000
0000
1000
0000
0000
0001
0000
0000
0010
0000
0000
0100
0000
0000
1000
0000
0000
0010
0000
0000
0100
0000
0000
0010
0000
0000
0100
0000
0000
0010
0000
0100
0000
0010
0000
0100
0000
0010
0000
0100
0000
,
1001
0000
0000
0000
,
0000
0000
0000
0000
,
0000
0000
0000
0000
,
1000
0000
0000
0000
,
1001
0000
0000
0000
,
0000
0000
0000
0000
,
0000
0000
0000
0000
,
0000
0000
0000
0000
,
1000
0000
0000
1000
0000
0000
0000
0000
,
0000
1000
0100
0010
,
0001
0000
0000
0001
0000
0000
0000
0000
,
0000
0000
1000
0010
,
0100
0000
0000
0100
0000
0000
0000
0000
,
0000
0000
0010
0100
,
0001
0000
0000
0001
0000
0000
0000
0000
,
0000
0001
0010
0100
,
1000
0000
0000
1000
0000
0000
0000
0000
,
0000
1000
0100
0010
,
0001
0000
0000
0001
0000
0000
0000
0000
,
0000
0000
0001
1000
,
0010
0100
0010
0100
0010
0100
0010
0100
0010
0100
0010
0100
0010
0100
0010
0100
,
0001
1000
0001
1000
0001
1000
0001
1000
0001
1000
0001
1000
0001
1000
0001
1000
,
0010
0100
0010
1000
0001
0100
0010
0100
0001
0010
0100
1000
0100
0010
0001
1000
,
0010
1000
0100
0010
0001
0010
0001
0100
0010
1000
0100
0001
0100
1000
0010
0100
,
0001
0000
1000
0000
1100
0000
0010
0001
0100
0001
0010
0000
1001
0000
0010
0000
,
0101
0000
1000
0000
1010
0000
0100
0001
1000
0010
0001
0000
0011
0000
1000
0000
,
0011
0000
0100
0000
0101
0000
1000
0010
0001
0010
0001
0000
0110
0000
0010
0000
,
1010
0000
0001
0000
1001
0000
0010
0001
0010
0100
0010
0000
1100
0000
0010
0000
,
0110
0000
1000
0000
0110
0000
0100
1000
0010
0001
0100
0000
0011
0000
0100
0000
,
0101
0000
1000
0000
1010
0000
0001
0100
0001
0100
0001
0000
0110
0000
0001
0000
,
1100
0000
0000
0100
0010
0000
0000
0010
0001
0000
0000
0001
0010
0000
0000
0100
,
1000
0000
0000
0001
0000
0000
1000
0000
0000
0001
0000
0000
1000
0000
0000
0001
0000
0000
1000
0000
0000
0001
0000
0000
1000
0000
0000
0000
0000
0000
0010
0000
0000
0000
0000
0000
0001
0000
0100
0000
0010
0000
1000
0000
0010
0000
0100
0000
,
0011
0100
1000
0101
0010
1000
0100
0010
,
0001
1000
1010
0100
1100
0001
1001
0010
,
0110
0010
0100
1001
0010
0001
1000
0100
,
0010
0100
1000
0001
0101
0010
1010
0001
,
0011
1000
0001
1100
0001
0010
0100
0001
,
1000
0100
0010
0001
0011
1000
0011
0100
,
0110
0000
0000
0001
0010
0000
0000
1000
0010
0000
0000
0010
0100
0000
0000
0100
,
0001
0000
0000
1000
0000
0000
0001
0000
0000
0010
0000
0000
0001
0000
0000
1000
0000
0000
0010
0000
0000
1000
0000
0000
0100
0000
0000
0000
0000
0000
0001
0000
0000
0000
0000
0000
1000
0000
0100
0000
0010
0000
0100
0000
0010
0000
0100
0000
,
1000
0000
0000
0001
0000
0000
0000
0000
0000
0000
1000
0000
0010
0000
0100
0000
,
0001
0000
0000
0001
0000
0000
0000
0000
0000
0000
0000
0000
1000
0000
0010
0000
,
0100
0000
0000
0100
0000
0000
0000
0000
0000
0000
0000
0000
0000
0000
0000
0000
;
