#TITLE:Nocturne;
#SUBTITLE:;
#ARTIST:Evert Taube (DJ Izzy);
#TITLETRANSLIT:;
#SUBTITLETRANSLIT:;
#ARTISTTRANSLIT:;
#CREDIT:;
#BANNER:Nocturne-banner.png;
#BACKGROUND:Nocturne-bg.png;
#LYRICSPATH:;
#CDTITLE:Izzy MiniLittle copy.png;
#MUSIC:Nocturne.mp3;
#OFFSET:0.000;
#SAMPLESTART:50.000;
#SAMPLELENGTH:12.000;
#SELECTABLE:YES;
#BPMS:0.000=120.000;
#STOPS:;
#BGCHANGES:;
// cache tags:
#FIRSTBEAT:0.000;
#LASTBEAT:132.000;
#SONGFILENAME:Songs/Izzy/Nocturne/Nocturne.sm;
#HASMUSIC:1;
#HASBANNER:1;
#MUSICLENGTH:68.052;
// end cache tags

//---------------dance-single - ----------------
#NOTES:
     dance-single:
     :
     Hard:
     6:
     0.453,0.558,0.676,1.000,0.000,85.000,46.000,85.000,0.000,28.000:
0220
0000
2330
3200
,
0322
0000
0000
0000
,
2233
0000
3322
0000
,
0233
0000
2300
0000
,
3202
0303
1010
0110
,
2002
0000
3113
1100
,
0011
0000
0101
1010
,
2002
0000
0000
3003
,
0220
0000
2330
3200
,
0322
0000
0000
0000
,
2233
0000
3322
0000
,
0233
0000
2300
0000
,
3202
0303
1010
0110
,
2002
0000
3113
1100
,
0011
0000
0101
1010
,
2002
0000
0000
3003
,
0002
0000
1000
1000
,
0223
0000
0000
0330
,
0002
0000
0023
0000
,
0230
0000
2300
0000
,
3002
0000
0010
0010
,
2203
0000
3302
0023
,
0230
0320
0230
2300
,
3220
0000
2332
0000
,
3223
0000
2330
3200
,
0322
0000
0000
0000
,
2233
0000
3322
0000
,
0233
0000
2300
0000
,
3202
0303
1010
0110
,
2002
0000
3113
1100
,
0011
0000
0101
1010
,
2000
3200
0320
0032
0023
0230
2300
3200
,
0320
0032
0023
2032
0000
0000
0000
0000
,
3003
0000
0000
0000
;

//---------------dance-single - Copied from----------------
#NOTES:
     dance-single:
     Copied from:
     Challenge:
     10:
     1.000,0.946,1.000,0.088,1.000,491.000,78.000,6.000,0.000,0.000:
1001
0010
0100
0001
0010
0100
1000
0001
0011
1000
0010
0001
0010
1000
0010
0001
,
0101
1000
0100
0001
1100
1000
0100
0001
0010
0001
0010
0001
0110
0001
0010
0100
,
1000
0100
1000
0100
1001
0100
1000
0100
0010
0100
0010
0100
1010
0100
0010
0001
,
1000
0001
1000
0001
1010
0001
1000
0010
1000
0100
1000
0010
1100
0001
1000
0010
,
1000
0100
1000
0001
0011
0001
0100
0001
1000
0001
0100
0001
0110
0001
0010
0100
,
1000
0100
0010
0001
0011
0100
1000
0100
0010
1000
0100
0010
1001
0010
0100
0001
,
0010
0100
0010
0100
0101
1000
0001
1000
0010
0100
0001
1000
0011
1000
0010
0100
,
2002
0000
0000
0000
0000
0000
0000
0000
0000
0000
0000
0000
0000
0000
0000
3003
,
1001
0100
0010
0001
0010
0100
1000
0100
0110
0001
0010
0100
1000
0100
1000
0100
,
1001
0100
1000
0100
1000
0001
1000
0100
1010
0001
1000
0100
1000
0001
1000
0100
,
1100
0001
0010
0001
1000
0001
0010
0001
1001
0001
0010
0001
1000
0001
0010
0001
,
1010
0001
0100
0010
1000
0001
0100
0010
1100
0001
0100
0010
1000
0001
0100
0010
,
1001
1000
0010
0100
0001
1000
0010
0100
1001
1000
0010
0100
0001
1000
0010
0100
,
0101
0010
0100
1000
0100
0010
0001
0010
0101
1000
0100
0010
0001
0010
0100
1001
,
1001
1010
1100
1010
1001
1010
1100
1010
1001
1010
1100
1010
1001
1010
1100
1010
,
2002
0000
0000
0000
0000
0000
0000
0000
0000
0000
0000
0000
0000
0000
0000
3003
,
1001
0010
0100
1000
0100
0010
0001
0010
1100
0010
0001
0010
0100
0010
0001
0010
,
1100
0010
0001
0010
0100
0010
0001
0010
0101
1000
0100
0010
0010
0100
1000
0100
,
0011
0100
1000
0100
0010
0100
1000
0100
0011
0100
1000
0100
0010
0001
0010
0100
,
1001
0001
0010
0100
1000
0001
0010
0100
1001
0001
0010
0100
1000
1000
0100
0010
,
1001
1000
0100
0010
0001
1000
0100
0010
1001
1000
0100
0010
0001
0100
0010
1000
,
0101
0010
0001
0100
0010
1000
0100
0010
1001
0100
0010
0001
0010
0100
1000
0010
,
0110
0001
0010
0100
1000
0010
0100
0001
0011
0100
1000
0100
0010
0001
0010
0100
,
1001
0100
0010
0001
0010
0100
1000
0100
1001
0100
1000
0100
1000
0100
1000
0100
,
1001
0100
0010
0001
0010
0001
0010
0001
0110
0001
0010
0001
0010
0100
0010
0001
,
1001
0010
0100
0010
1000
0100
0010
0100
1100
0001
0100
0010
0100
0001
0010
0100
,
1010
0001
0100
0010
0100
0001
1000
0001
1100
0010
0100
1000
0001
0010
0100
1000
,
1001
0001
0010
0100
1000
0010
0100
0010
1100
0010
0001
0010
0100
1000
0100
0010
,
1001
0010
0100
1000
0100
0010
0001
0010
0110
1000
1000
0100
0010
0001
1000
0100
,
0110
0001
0001
0010
0100
1000
0001
0010
0101
1000
0001
0010
0100
1000
0100
0010
,
1001
0010
0100
1000
0100
0010
0001
0010
0101
1000
0001
0010
0100
1000
0001
0010
,
0110
1000
0100
0010
0001
0010
0100
1000
0100
0010
0001
0010
0100
1000
0100
0010
,
0001
0010
0100
1000
0100
0010
0001
0010
2002
0000
0000
0000
0000
0000
0000
0000
,
3003
0000
0000
0000
;
