#TITLE:Feldschlacht (J.Z. Mix);
#SUBTITLE:SaGa Frontier 2 (1999);
#ARTIST:Glome;
#TITLETRANSLIT:;
#SUBTITLETRANSLIT:;
#ARTISTTRANSLIT:;
#CREDIT:;
#BANNER:Feldschlacht (J.Z. Mix).jpg;
#BACKGROUND:Feldschlacht (J.Z. Mix)-bg.jpg;
#LYRICSPATH:;
#CDTITLE:kn33grow.png;
#MUSIC:Feldschlacht (J.Z. Mix).mp3;
#OFFSET:0.383;
#SAMPLESTART:68.140;
#SAMPLELENGTH:12.000;
#SELECTABLE:YES;
#BPMS:0.000=145.800;
#STOPS:;
#BGCHANGES:;
// cache tags:
#FIRSTBEAT:0.938;
#LASTBEAT:220.500;
#SONGFILENAME:Songs/VGMP 3/Feldschlacht (J.Z. Mix) [Kn33groW]/Feldschlacht (J.Z. Mix).sm;
#HASMUSIC:1;
#HASBANNER:1;
#MUSICLENGTH:93.936;
// end cache tags

//---------------dance-single - Blank----------------
#NOTES:
     dance-single:
     Blank:
     Hard:
     11:
     1.000,1.000,1.000,0.128,1.000,610.000,200.000,12.000,22.000,32.000:

0000
0000
0000
0000
0000
0000
0000
0000
0000
0000
0000
0000
0000
0000
0000
0000
0000
0000
0000
0000
0000
0000
0000
0000
0000
0000
0000
0000
0000
0000
0000
0000
0000
0000
0000
0000
0000
0000
0000
0000
0000
0000
0000
0000
0000
1000
0000
0000
0110
0000
0000
0001
0000
0000
0000
0000
0000
1000
0000
0000
0000
0000
0000
0000
0000
0000
0000
0000
0000
0000
0000
0000
0000
0000
0000
0000
0000
0000
0000
0000
0000
0000
0000
0000
0000
0000
0000
0000
0000
0000
0000
0000
0000
0000
0000
0000
0000
0000
0000
0000
0000
0000
0000
0000
0000
0000
0000
0000
0000
0000
0000
0000
0000
0000
0000
0000
0000
0000
0000
0000
1000
0000
0000
0000
0000
0000
0000
0000
0000
0000
0000
0000
0100
0000
0000
0000
1000
0000
0000
0000
0000
0000
0000
0000
0011
0000
0000
0000
0000
0000
0000
0000
0000
0000
0000
0000
0000
0000
0000
0000
0000
0000
0000
0000
0000
0000
0000
0000
1100
0000
0000
0000
0000
0000
0000
0000
0000
0000
0000
0000
0000
0000
0000
0000
0000
0000
0000
0000
0000
0000
0000
0000
,
0010
0000
0000
0000
0000
0000
1001
0000
0000
0000
0100
0000
1011
0000
0000
0000
0000
0000
0100
0000
0000
1010
0000
0000
0001
0000
0000
0000
0000
0000
1100
0000
0000
0000
0000
0000
00M0
0000
0000
0000
0000
0000
0001
0000
0000
0000
0000
0000
,
1000
0000
1101
0000
0000
0000
0010
1001
,
0100
2022
0000
0000
0000
0000
0000
0000
,
0000
0000
0000
3033
0100
0000
0100
0000
0100
0100
0000
0100
0000
0100
0100
0000
,
0100
0000
0000
0000
0000
0000
0100
0000
1000
0000
0011
0000
0100
0000
0000
0000
0000
0000
0100
0000
0000
0000
0000
0000
0100
0000
0000
0000
0000
0000
0100
0000
0000
0100
0000
0000
0000
0000
0000
01M1
0000
0000
0100
0000
0000
0000
0000
0000
,
0100
0010
0100
0010
1000
0100
0010
0100
0001
0010
1000
0100
0010
0001
0100
0010
,
1000
0001
0010
0100
1000
0100
0010
0100
0010
0001
1000
0001
1000
0101
0010
0001
,
1100
0010
0101
1000
0011
0000
0000
0000
0010
1000
0000
1000
0000
0000
0100
0000
,
0010
0000
0001
0000
1000
0000
0010
0000
0100
0001
0000
0010
0000
0010
0000
0101
,
1000
0000
0011
0000
1100
0000
0000
0000
0001
0101
0000
0011
0000
1000
0001
0000
,
0110
1000
0001
0010
0001
0000
1000
0000
0100
0000
0010
0001
0000
0001
0000
0100
,
1010
0000
0101
0000
1011
0000
0000
0000
0010
1000
0000
1000
0000
0000
0100
0000
,
0010
0000
0101
0000
1010
0000
0101
0000
1000
0001
0100
0010
1000
0010
0100
0001
,
1010
0000
0101
0000
1100
0000
0000
0000
0011
0001
0000
0001
0100
1010
0000
0000
,
0110
0000
0001
0000
1001
0000
1010
0000
0101
1010
0100
1001
0010
0101
1000
0101
,
1010
0100
1001
0010
0101
0000
0000
0000
0110
1000
0000
1000
0001
0100
0010
0000
,
0110
0000
0101
0000
1010
0100
1000
0000
0101
0010
0000
1000
0000
0110
0000
1110
,
0101
0000
1011
0000
0111
0000
1000
0000
1001
0101
0010
1001
0110
1001
0100
0010
,
1101
0010
1001
0100
1011
0000
0101
0000
1010
0101
1000
0011
0000
1001
0000
0100
,
1010
0000
0101
0000
1011
0000
0000
0000
0010
1000
0000
1000
0000
0000
0100
0000
,
0010
0000
0101
0000
1010
0000
0101
0000
1000
0001
0100
0010
1000
0010
0100
0001
,
1010
0000
0101
0000
1100
0000
0000
0000
0011
0001
0000
0001
0100
1010
0000
0000
,
0110
0000
0000
0001
0000
0000
1001
0000
0000
0000
0000
0000
0100
0010
0100
0010
0100
0010
0100
0010
0100
0010
0100
0010
,
0100
0000
0010
0000
0100
0000
0010
0000
0100
0000
0010
0000
0101
0000
1000
0000
0000
0000
0000
0000
0000
0100
0000
0000
0010
0000
0000
0000
0000
0000
1000
0000
0000
0001
0000
0000
0000
0000
0000
0110
0000
0000
0000
0000
0000
0000
0000
0000
,
1011
0000
1100
0000
0011
0000
0000
0010
0101
0000
1000
0110
0000
1000
0000
0000
,
0101
0000
0000
0000
0000
0000
0010
0000
0000
0000
0000
0000
1001
0000
0100
0000
0000
0000
1000
0000
0000
0000
0000
0000
0111
0000
0000
0000
0000
0000
0000
0000
0000
1000
0000
0000
0010
0000
0000
0100
0000
0000
0000
0000
0000
0011
0000
0000
,
1000
0000
0110
0000
1000
0000
0010
0000
1101
0000
0011
1001
0000
0110
0000
0000
,
1011
0000
0000
0000
0000
0000
0100
0000
0000
0000
0000
0000
1010
0000
0001
0000
0000
0000
0000
0000
0000
1000
0000
0000
0011
0000
0000
0000
0001
0000
0100
0000
0000
0000
0001
0000
0000
0000
0000
1000
0010
0000
0000
0000
0000
0000
0000
0000
,
1011
0000
0101
0000
1010
0000
0000
0100
1000
0000
0010
0001
0000
0000
1000
0000
,
0101
0000
0000
0000
0000
0000
0010
0000
0000
0000
0000
0000
1001
0000
0100
0000
0000
0000
0000
0000
0000
0000
0000
0000
1011
0000
0000
0000
0000
0000
0100
0000
0000
1000
0000
0000
0010
0000
0000
0001
0000
0000
1000
0000
0000
0100
0000
0000
,
1011
0000
0000
0000
0000
0000
0000
0000
0100
0000
0000
0000
0000
0000
0000
0000
1000
0000
0000
0000
0000
0000
0000
0000
0001
0000
0000
0000
0000
0000
0000
0000
1110
0000
0000
0000
0000
0000
0000
0000
0001
0000
0000
0000
0101
0000
0000
0000
0000
0000
0000
0000
0010
1000
0000
0000
0100
0000
0000
0000
0000
0010
0000
0000
,
1101
0000
0000
0000
0000
0010
0000
0000
0001
0000
0000
0000
0000
0100
0000
0000
1001
0000
0000
0000
0000
0000
0000
0000
1000
0000
0000
0000
0000
0000
0000
0000
0011
0000
0000
0000
0000
0000
0000
0000
1100
0000
0000
0000
0010
0000
0000
0000
0100
0000
0000
0000
0010
0000
0000
0000
1001
0000
0000
0000
0100
0000
0000
0000
,
1011
0000
0000
0100
0000
0000
1010
0000
0000
0000
0000
0000
0101
0000
0000
0000
0000
0000
0100
0000
0000
0000
0000
0000
0011
0000
0000
0000
0000
0000
1010
0000
0000
0001
0100
0000
1000
0000
0000
0000
0100
0000
0010
0000
0000
0000
0100
0000
,
1011
0000
0101
0000
1010
0000
0010
0000
0101
0000
1000
0100
0010
1000
1100
0010
,
1001
0000
1100
0000
0011
0000
1001
0000
0100
0000
0010
1000
0101
0010
1000
1000
,
0101
0010
0100
1010
0000
0100
0011
0000
0000
1000
0000
0000
0100
0000
0000
1011
0000
0000
0100
0000
0000
0011
0000
0000
,
1101
0000
0000
0000
0000
0000
0000
0000
0000
0000
0000
0000
0010
0000
0000
0000
0000
0000
0000
0000
0000
0000
0000
0000
1001
0000
0000
0000
0000
0000
0000
0000
0000
0000
0000
0000
0000
0000
0000
0000
0000
0000
0000
0000
0000
0000
0000
0000
0122
0000
0000
0000
0000
0000
0000
0000
0000
0000
0000
0000
0000
0000
0000
0000
0000
0000
0000
0000
0000
0000
0000
0000
0000
0000
0000
0000
0000
0000
0000
0000
0000
0000
0000
0000
0000
0000
0000
0000
0000
0000
0000
0000
0000
0000
0000
0000
1000
0000
0000
0000
0000
0000
0000
0000
0000
0000
0000
0000
0000
0000
0000
0000
0000
0000
0000
0000
0000
0000
0000
0000
0000
0000
0000
0000
0000
0000
0000
0000
0000
0000
0000
0000
0000
0000
0000
0000
0000
0000
0000
0000
0000
0000
0000
0000
1000
0000
0000
0000
0000
0000
0000
0000
0000
0000
0000
0000
0000
0000
0000
0000
0000
0000
0000
0000
0000
0000
0000
0000
0000
0000
0000
0000
0000
0000
0030
0000
0100
0000
0000
0000
0000
0000
0000
0000
1000
0000
0000
0000
0000
0000
0000
0000
,
0010
0000
0000
0000
0000
0000
0000
0000
0000
0000
0000
0000
0000
0000
0000
0000
0000
0000
0000
0000
0000
0000
0000
0000
1000
0000
0000
0000
0000
0000
0000
0000
0000
0000
0000
0000
1003
0000
0000
0000
0000
0000
0000
0000
0000
0000
0000
0000
0101
0000
0000
0000
0000
0000
0000
0000
0000
0000
0000
0000
0010
0000
0000
0000
0000
0000
0000
0000
0000
0000
0000
0000
0101
0000
0000
0000
0000
0000
0000
0000
0000
0000
0000
0000
0010
0000
0000
0000
0000
0000
0000
0000
0000
0000
0000
0000
1001
0000
0000
0000
0000
0000
0000
0000
0100
0000
0000
0000
0000
0000
0000
0000
0010
0000
0000
0000
0000
0000
0000
0000
1001
0000
0000
0000
0000
0000
0000
0000
0100
0000
0000
0000
0000
0000
0000
0000
1000
0000
0000
0000
0000
0000
0000
0000
0011
0000
0000
0000
0000
0000
0000
0000
0000
0000
0000
0000
1000
0000
0000
0000
0000
0000
0000
0000
0000
0000
0000
0000
0121
0000
0000
0030
0000
0000
0000
0000
0000
0000
0000
0000
1020
0000
0000
0030
0000
0000
0000
0000
0000
0000
0000
0000
,
0100
0001
0010
1000
0101
0010
0001
0100
1010
0101
0010
1001
0100
0010
1000
0101
,
1010
0101
1000
0110
0001
1000
0100
0000
1000
0010
0000
0100
0001
0001
1100
0000
,
0010
1001
0100
1010
0001
0100
1000
0011
MM00
0000
2002
0100
0010
0000
0100
3003
,
1000
0010
0101
1000
0MM0
0001
0010
0100
M0M0
0001
1000
0010
0100
1000
0100
0010
,
1001
0110
1001
0000
1010
0100
0010
0001
MM00
0000
0101
0010
0001
1000
0MM0
0000
,
1000
0111
1000
0100
0010
0001
1010
0101
00M0
1000
0100
0010
MM00
0001
0000
0101
,
0001
0000
0001
1010
0001
0001
0000
0001
0001
0000
0001
0001
0000
0011
0001
0000
,
0000
0001
0000
0001
0000
0001
0001
0010
1001
0001
0000
0001
0110
0000
0000
1001
,
1100
0000
0011
M000
0100
0010
100M
0100
0010
1000
0100
0010
1000
0100
0010
1000
,
0100
0010
1000
0100
0010
1000
0100
0010
1000
0100
0010
1000
0100
0010
1000
0M00
,
00M0
0001
0010
0100
0000
0000
1011
0000
0100
0000
0000
1010
0001
0001
1100
0010
,
0000
0101
1010
0101
0010
1001
0100
1010
0001
0100
1010
0101
1000
0010
1001
0110
,
1001
0010
0100
0010
1001
0100
1000
0101
1000
0100
1001
0100
0010
0001
1100
0010
,
1001
0100
0000
0020
0000
0030
1001
0000
0011
0000
1100
0000
0101
1010
0000
1010
,
0000
0000
0000
00M0
0000
0000
0100
0000
0000
M001
0000
0000
0010
0000
0000
0100
0000
0000
1000
0000
0000
0010
0000
0000
0100
0000
0000
1000
0000
0000
0001
0000
0000
0010
0000
0000
0100
0000
0010
0000
0100
0000
0010
0000
0100
0000
0010
0000
,
0100
0010
0001
1000
0100
0010
M001
0100
0010
0001
1000
0101
0000
0101
0000
0202
,
0000
0303
0000
0000
0000
0000
0000
0000
;
