#TITLE:Make Some Noize;
#SUBTITLE:;
#ARTIST:Hypercore;
#TITLETRANSLIT:;
#SUBTITLETRANSLIT:;
#ARTISTTRANSLIT:;
#CREDIT:;
#BANNER:make some noize bn.png;
#BACKGROUND:make some noize bg.png;
#LYRICSPATH:;
#CDTITLE:;
#MUSIC:Make Some Noize.ogg;
#OFFSET:0.886;
#SAMPLESTART:100.086;
#SAMPLELENGTH:12.000;
#SELECTABLE:YES;
#BPMS:0.000=274.000;
#STOPS:;
#BGCHANGES:;
// cache tags:
#FIRSTBEAT:4.000;
#LASTBEAT:588.000;
#SONGFILENAME:Songs/SPEEEDCOOOORE 3/Make Some Noize - [Garrett]/makenoize.sm;
#HASMUSIC:1;
#HASBANNER:1;
#MUSICLENGTH:128.352;
// end cache tags

//---------------dance-single - G. Moese----------------
#NOTES:
     dance-single:
     G. Moese:
     Challenge:
     14:
     1.000,1.000,0.530,0.717,0.697,942.000,68.000,92.000,18.000,0.000:

0000
0000
0000
0000
,
1000
0100
0010
0001
1000
0100
0010
0100
1000
0001
0100
0010
,
1000
0001
0100
0010
0100
0001
1000
0100
0010
0001
1000
0001
,
0100
0010
0010
1000
,
0001
1000
0100
0010
,
0001
1000
1000
0001
,
0100
0001
0010
0100
,
1000
0001
0001
0100
,
0001
0100
0010
1000
,
0001
0010
0010
0100
,
0010
0001
0100
0010
,
1010
1000
0001
0011
,
0010
0100
1000
0001
,
1001
1000
0010
0110
,
0100
0001
0011
0010
,
0110
0100
1000
1001
,
0001
0100
0001
1000
,
0010
1000
0001
0010
0100
1000
0001
0100
,
0010
0000
1000
0000
0001
0000
0100
0000
0010
0000
0000
0000
1000
0010
1000
0001
,
1000
0001
0101
0100
,
0110
0000
0000
0000
0010
0000
0000
0000
1010
0000
0000
0000
1000
0100
0010
0001
,
1000
0100
0110
0001
,
1000
0000
0100
0000
0010
0000
0001
1000
0001
0000
0000
0000
1000
0010
0100
0001
,
1000
1000
1010
0010
,
0110
0000
0000
0000
0001
0000
0000
0000
1000
0010
0100
0010
1000
0000
0001
0010
,
0100
0000
0000
0000
1000
0000
0000
0000
1001
0000
0000
0000
0001
0100
0001
0100
,
0010
0000
0100
0000
0010
1000
0001
1000
0001
0000
0100
0000
0000
0000
0100
0010
,
1000
0010
0110
0010
,
1010
0000
0000
0000
1000
0000
0000
0000
1001
0000
0000
0000
0001
0100
0010
1000
,
0001
0010
0100
1000
0001
0000
0101
0000
,
0110
0000
0000
0000
1010
0000
0000
0000
1001
0000
0001
0000
0000
0000
0M00
0M00
,
0M00
1000
0001
1000
0001
0000
0100
0000
,
0100
0000
0000
0000
0010
0000
0000
0000
0010
0000
0000
0000
1000
0001
0100
0001
,
1000
0001
0100
0010
,
1000
0000
0100
0000
0010
0000
0001
0000
1000
0001
1000
0001
4000
0000
0000
0000
,
0000
0000
0000
0000
,
0004
3000
0000
0000
0000
0000
0000
0000
0000
0000
0000
0000
0000
0000
0000
0000
,
1003
0010
1000
0010
0100
0001
0100
0001
1000
0010
0100
0001
1000
0001
0100
0000
,
0010
1000
0001
0010
0100
1000
0100
0010
,
0001
0100
0010
1000
0001
1000
0001
0010
,
0001
1000
0010
0100
0001
1000
0100
0000
,
1000
0000
0010
0000
0100
0000
0001
0000
1000
0000
0001
1000
0001
0100
0001
1000
,
0010
1000
0001
1000
0001
0000
0101
0000
,
1000
0100
0010
0100
1000
0000
0001
0000
0100
0000
0001
0000
1000
0000
0100
0010
,
0001
0000
1000
0000
0010
0000
0100
0000
0001
0000
1000
0000
0001
0100
0001
1000
,
0040
4030
3001
1000
0100
0010
0001
1000
,
0100
0010
0001
1000
0010
0100
0001
1000
0001
0000
1000
0000
0010
0000
0000
0000
,
0010
1000
0001
0010
0100
1000
0100
0010
,
0001
0100
0010
1000
0001
0100
0001
0000
,
0001
0000
0100
0000
0010
0000
1000
0000
0001
0000
1000
0010
0100
0001
1000
0001
,
0100
0010
1000
0001
1000
0000
1001
0000
,
0001
1000
0100
1000
0001
0000
0010
0000
0100
0000
1000
0000
0001
0000
0010
0100
,
1000
0000
0010
0000
0100
0000
0001
0000
1000
0000
0010
0000
0100
0001
0100
0010
,
4000
0000
0000
0000
0000
0000
0000
0000
0000
0000
0000
0000
0000
0000
0000
0000
0000
0000
0000
0000
0000
0000
0000
3000
0004
0000
0000
0000
0000
0000
0000
0000
0000
0000
0000
0000
0000
0000
0000
0000
0000
0000
0000
0000
0000
0000
0000
0000
0013
0000
0000
0000
0000
0000
0000
0000
0000
0000
0000
0000
0000
0000
0000
0000
0000
0000
0000
0000
0000
0000
0000
0000
0100
0000
0000
0000
0000
0000
0000
0000
0000
0000
0000
0000
0000
0000
0000
0000
0000
0000
0000
0000
0000
0000
0000
0000
1000
0000
0000
0000
0000
0000
0000
0000
0000
0000
0000
0000
0000
0000
0000
0000
0000
0000
0000
0000
0000
0000
0000
0000
0001
0000
0000
0000
0000
0000
0000
0000
0000
0000
0000
0000
0000
0000
0000
0000
0000
0000
0000
0000
0000
0000
0000
0000
0010
0000
0000
0000
0000
0000
0000
0000
0000
0000
0000
0000
0000
0000
0000
0000
0000
0000
0000
0000
0000
0000
0000
0000
0100
0000
0000
0000
0000
0000
0000
0000
0000
0000
0000
0000
0000
0000
0000
0000
0000
0000
0000
0000
0000
0000
0000
0000
,
1000
0001
1000
0010
1000
0001
0100
0001
0100
0000
0001
0000
1000
0000
0000
0000
,
0001
0101
1000
0110
,
0001
0000
0000
0000
1010
0000
0000
0000
1001
0000
0000
0000
0000
0000
0001
1000
,
0001
1001
0100
1010
,
1000
0000
0100
0000
0010
0000
0001
1000
0001
0000
0M00
0M00
0M00
0000
1000
0001
,
1000
1010
0010
0101
,
0100
0000
0000
0000
1001
0000
0000
0000
0001
0100
0010
1000
0001
0000
1000
0001
,
1000
0000
0000
0000
0010
0000
0000
0000
1001
0000
0000
0000
0001
1000
0001
1000
,
0001
0000
0010
0000
0100
1000
0100
1000
0001
0000
0100
0000
0000
0000
0001
0100
,
0001
0101
0010
1001
,
0100
0000
0000
0000
1010
0000
0000
0000
1000
0000
0000
0000
0001
0010
0100
1000
,
0001
0100
0010
1000
0001
0000
0101
0000
,
0100
0000
0000
0000
0110
0000
0000
0000
0010
0000
1000
0000
0M00
0M00
0M00
0000
,
0000
0001
1000
0010
0100
0000
0010
0000
,
1000
0000
0000
0000
0001
0000
0000
0000
0010
0000
0000
0000
0100
1000
0100
1000
,
0001
0100
0010
1000
,
0001
0000
0010
0000
0100
0000
1000
0000
0001
0100
0001
0000
4000
0000
0000
0000
,
0000
0000
0000
0000
,
3040
0000
0000
0000
,
1030
0001
0100
0001
1000
0010
1000
0010
0100
0001
0100
0001
1000
0010
0100
0001
,
1000
0001
0100
0010
1000
0001
0010
0001
,
2002
3003
0000
0000
0000
0000
0000
0000
,
2020
3030
0000
0000
0000
0000
0000
0000
,
0202
0303
0000
0000
,
0001
0000
1000
0000
0010
0100
0001
1000
0001
0000
0010
0000
0001
1000
0001
1000
,
0200
0300
0000
0000
,
0220
0330
0000
0000
,
2002
3003
0000
0000
,
0001
1000
0001
0100
0010
1000
0001
0100
0001
0000
1000
0000
0100
0000
0000
0000
,
2002
3003
0000
0000
0202
0303
0000
0000
,
2002
3003
0000
0000
2200
3300
0000
0000
,
0220
0330
0000
0000
0022
0033
0000
0000
,
0202
0303
0000
0000
0022
0033
1000
0000
,
0022
0033
0000
0000
2020
3030
0000
0000
,
2002
3003
0000
0000
0220
0330
0000
0000
,
2020
3030
0000
0000
0022
0033
1000
0000
,
0022
0033
0100
0000
0022
0033
1000
0000
,
0022
0033
1000
0000
1000
0000
0100
0000
,
1000
0010
0100
0001
,
1000
0100
0100
0010
,
0001
0100
0010
1000
,
0400
0000
0000
0000
,
4300
0000
0000
0000
,
3001
0100
0001
0100
0010
1000
0010
1000
0001
0100
0010
0100
0001
1000
0010
0100
,
0001
1000
0100
0010
0001
1000
0100
0010
,
0100
1000
0001
0100
0010
0100
0001
1000
,
0100
0010
0001
1000
0001
0100
0010
0000
,
1000
0000
0001
0000
0100
0000
0010
0000
1000
0000
0001
0100
0010
0100
0001
1000
,
0001
0010
0100
1000
0001
0000
1001
0000
,
1000
0100
0010
0001
1000
0000
0010
0000
0100
0000
0001
0000
1000
0000
0001
0100
,
0010
0000
0100
0000
0010
0000
1000
0000
0001
0000
0100
0000
0010
0100
0010
1000
,
0004
0000
0000
0000
0000
0000
0000
0000
0000
0000
0000
0000
0000
0000
0000
0000
0000
0000
0000
0000
0000
0000
0000
0003
4000
0000
0000
0000
0000
0000
0000
0000
0000
0000
0000
0000
0000
0000
0000
0000
0000
0000
0000
0000
0000
0000
0000
3000
0001
0000
0000
0000
0000
0000
0000
0000
0000
0000
0000
0000
0000
0000
0000
0000
0000
0000
0000
0000
0000
0000
0000
0000
0010
0000
0000
0000
0000
0000
0000
0000
0000
0000
0000
0000
0000
0000
0000
0000
0000
0000
0000
0000
0000
0000
0000
0000
0100
0000
0000
0000
0000
0000
0000
0000
0000
0000
0000
0000
0000
0000
0000
0000
0000
0000
0000
0000
0000
0000
0000
0000
1000
0000
0000
0000
0000
0000
0000
0000
0000
0000
0000
0000
0000
0000
0000
0000
0000
0000
0000
0000
0000
0000
0000
0000
0001
0000
0000
0000
0000
0000
0000
0000
0000
0000
0000
0000
0000
0000
0000
0000
0000
0000
0000
0000
0000
0000
0000
0000
1000
0000
0000
0000
0000
0000
0000
0000
0000
0000
0000
0000
0000
0000
0000
0000
0000
0000
0000
0000
0000
0000
0000
0000
,
0001
1000
0010
0100
0001
1000
0001
1000
0010
0000
1000
0000
0001
0000
0000
0000
,
1000
0010
1000
0010
0100
0001
0100
0001
,
0010
0100
1000
0001
0100
0010
1000
0000
,
0001
0000
0010
0000
0100
0000
1000
0000
0001
0000
0100
0010
1000
0001
0100
0001
,
1000
0001
1000
0001
0200
0000
0310
0000
,
1000
0010
0100
0001
1000
0000
0100
0000
0010
0000
0001
0000
1000
0000
0001
0010
,
0100
0000
1000
0000
0001
0000
1000
0000
0010
0000
0100
0000
0001
0100
0001
0100
,
0040
4030
3001
0100
0010
1000
0001
0010
,
0100
1000
0001
1000
0001
0100
0001
0000
1000
0000
0001
0000
0200
0000
0300
0000
,
0001
0010
0100
1000
0001
0010
0001
0100
,
0010
1000
0001
1000
0100
0010
0002
0003
,
1000
0000
0010
0000
0100
0000
0001
0000
1000
0000
0100
1000
0001
1000
0001
0100
,
0010
1000
0001
1000
0002
0003
2000
3000
,
0001
0100
0001
0100
0001
0000
0100
0000
0010
0000
1000
0000
0001
0000
1000
0100
,
0010
0000
0001
0000
1000
0000
0010
0000
0100
0000
0001
0000
1000
0100
0010
0100
,
4000
3004
0013
0100
1000
0001
0100
0010
,
1000
0010
0100
0001
1000
0001
0100
0000
0010
0000
1000
0000
0001
0000
0000
0000
,
2000
3200
0320
0032
,
2003
0000
0000
0000
3020
0000
0000
0000
0230
0000
0000
0000
0300
0000
0001
0100
,
0002
2003
3200
0320
,
0031
0000
1000
0000
0010
0000
0100
0001
2000
0000
3000
0000
0000
0000
0001
1000
,
0002
0023
0230
0320
,
0032
0000
0000
0000
2003
0000
0000
0000
3010
0100
0001
0100
0001
0000
0100
0010
,
0200
0000
0000
0000
0320
0000
0000
0000
2030
0000
0000
0000
3001
0100
0001
0100
,
0001
0000
0100
0000
0010
1000
0001
1000
0001
0000
1000
0000
00M0
00M0
00M0
0000
,
0002
0003
0002
0003
2000
3000
2000
3000
,
0020
0000
0030
0000
0020
0000
0030
0000
0200
0000
0300
0000
0000
0000
0001
0100
,
0002
0003
0002
0003
0200
0300
0200
0300
,
0001
0000
0010
0000
0100
0000
1000
0001
0100
0000
0000
0000
0000
0000
0001
1000
,
0002
0003
0002
0003
0020
0030
0020
0030
,
0200
0000
0300
0000
2000
0000
3000
0000
0001
0100
0010
0100
0001
0000
1000
0001
,
2000
0000
0000
0000
3002
0000
0003
0000
2000
0000
3000
0000
0100
1000
0100
1000
,
0001
0000
0100
0000
0010
1000
0010
1000
0001
0000
1000
0000
0M00
0M00
0M01
0000
,
1000
0100
0010
0100
1000
0001
0010
0100
,
0010
0000
0001
0000
1000
0000
0010
0000
0100
0000
0001
0000
1000
0000
0010
0100
,
0001
0010
0100
0010
0001
1000
0010
0100
,
0001
0000
1000
0000
0100
0000
1000
0001
1000
0000
0M00
0M00
0M00
0000
0000
0000
,
0001
0100
0010
1000
0100
0010
0001
1000
,
0100
0000
0010
0000
0100
0000
1000
0000
0001
1000
0001
1000
0010
0000
0100
0010
,
1000
0000
0100
0000
0010
0000
0001
0000
1000
0000
0001
0000
1000
0100
0010
0100
,
1000
0001
0001
0100
0001
1000
0002
0000
,
0003
0000
0000
0000
;
