#TITLE:eRAseRmOToRpHAntOM;
#SUBTITLE:;
#ARTIST:L.E.D.-G vs Guhroovy;
#TITLETRANSLIT:;
#SUBTITLETRANSLIT:;
#ARTISTTRANSLIT:;
#CREDIT:;
#BANNER:eRAseRmOToRpHAntOM-bn.png;
#BACKGROUND:eRAseRmOToRpHAntOM-bg.png;
#LYRICSPATH:;
#CDTITLE:paranoivm.png;
#MUSIC:eRAseRmOToRpHAntOM.mp3;
#OFFSET:-0.920;
#SAMPLESTART:44.424;
#SAMPLELENGTH:12.000;
#SELECTABLE:YES;
#BPMS:0.000=135.000,12.000=67.500,14.000=135.000,21.000=67.500,21.500=135.000,25.000=67.500,27.500=135.000,87.000=539.996,102.750=270.000,227.000=67.499,228.000=134.999,260.000=269.999;
#STOPS:;
#BGCHANGES:;
// cache tags:
#FIRSTBEAT:4.000;
#LASTBEAT:340.000;
#SONGFILENAME:Songs/juju steps/eRAseRmOToRpHAntOM/eRAseRmOToRpHAntOM.sm;
#HASMUSIC:1;
#HASBANNER:1;
#MUSICLENGTH:143.316;
// end cache tags

//---------------dance-single - ----------------
#NOTES:
     dance-single:
     :
     Hard:
     10:
     0.655,0.695,0.481,0.056,0.195,580.000,69.000,8.000,0.000,0.000:
0000
0000
0000
0000
,
1001
0000
0000
0000
0000
0000
0001
0100
,
1000
0000
0000
0000
,
1010
0000
0000
0000
0100
0000
0010
1000
0000
0000
0100
0000
1000
0000
0001
0000
0100
0000
0000
0000
0000
0000
0000
0000
1000
0000
0000
0000
0100
0000
0000
0000
,
1000
0000
0001
0010
0001
0000
1000
0000
0001
0000
0000
0000
0100
0000
0001
0000
,
1000
0000
0100
1000
0100
1000
0001
0000
0000
0000
0100
0000
0010
0000
1000
0000
,
0001
0100
0001
0000
0200
0010
0300
0000
1001
0000
0001
0100
0010
0000
1000
0100
,
1000
0100
1000
0000
0001
0000
0100
0000
0010
0000
0000
0000
1000
0000
0001
0100
,
0001
0100
0001
0000
1000
0000
0001
0000
0010
0000
1000
0000
0100
0000
1000
0000
,
0010
0000
0001
1000
0100
0000
1000
0001
,
0100
1000
0001
1000
0100
0000
1010
0000
,
0200
0001
0310
2000
0010
3001
0101
0000
,
0200
1000
0310
0002
1000
0013
1100
0000
,
1000
0000
0001
0000
0010
0000
0010
0000
0010
0000
0000
0000
0100
1000
0100
1000
,
0100
0010
0001
0010
0001
1000
0000
1000
0100
0000
0001
0000
0100
0000
0000
0000
,
0001
0000
0100
0000
0001
0000
1000
0100
1000
0000
0001
0000
1000
0000
0000
0000
,
0100
0000
1000
0000
0100
0000
0000
1000
0100
0000
0010
0000
0001
0000
0000
0000
,
1000
0000
0001
0000
0100
0000
0000
0001
0100
0000
1000
0000
0100
0000
0010
0000
,
1000
0001
0100
0100
1000
0100
0010
0000
,
0011
0000
0000
0001
0010
0000
0001
0000
1000
0000
0000
0001
0100
0000
0001
0000
,
1000
0100
0001
0100
1000
0001
0101
1100
,
1010
1100
1001
0101
0011
0101
1001
0000
,
0000
0000
0000
0000
,
0000
0000
0000
0000
,
0000
0000
0000
0000
,
0000
0000
0000
0000
0000
0000
0001
0010
,
0100
1000
0001
0010
0100
1000
0100
0010
,
0001
1000
0100
0010
0001
1000
0100
1000
,
0100
1000
0100
0010
0001
0010
0001
1000
,
0001
1000
0100
1000
0001
0010
0001
0100
,
0001
1000
0001
0100
1000
0100
0001
1000
,
0001
0010
1000
0001
1000
0010
0001
0100
,
1000
0100
0010
1000
0001
0010
0100
1000
,
0100
0010
0001
1000
0100
0010
0001
0010
,
1001
0101
1010
0110
,
0100
0001
1000
0100
0001
1000
0010
0001
,
0100
0110
1000
0101
,
0001
0100
0001
1000
0001
0010
0001
1000
,
0100
1000
0100
0010
0001
1000
0100
1000
,
0001
0010
0001
0010
0100
1000
0001
0010
,
0100
0010
0001
1000
0100
1000
0001
0010
,
0001
1000
0100
0010
0100
1000
0001
0100
,
1001
0000
1000
0010
1000
0010
1000
0010
,
1001
0000
0001
0100
0001
0100
0001
0100
,
1001
0000
0001
0010
0001
0010
0001
0010
,
1001
0001
1000
0100
1000
0100
1000
0100
,
1001
0100
0001
1000
0001
0100
1000
0100
,
0001
1000
0001
0010
0001
1000
0001
1000
,
0001
0100
1000
0001
1000
0100
0010
1000
,
0001
0010
0001
1000
0100
1000
0001
0010
,
0001
1000
0100
0010
0001
1000
0001
0100
,
0001
1000
0001
0100
1000
0100
0010
1000
,
0010
0001
0010
0100
1000
0100
0001
0010
,
1000
0010
0100
1000
0100
0001
0100
0010
,
0001
1000
0001
0010
0100
1000
0100
0010
,
0001
1000
0001
0100
0010
1000
0001
0100
,
0001
1000
0100
0010
0100
0001
1200
0000
,
1300
0000
0001
0010
0001
0000
1000
0000
0001
0100
0001
1000
0100
0000
0010
0000
,
0001
1000
0010
0000
0100
0001
0000
0001
0100
0010
1000
0001
0010
0000
0000
1000
,
0100
0001
0000
0001
0100
0000
0100
1000
0000
1000
0000
0100
1000
0000
1000
0100
,
0010
0000
0001
0010
0001
0000
0100
0001
1000
0100
0010
0001
1001
0000
0000
0000
,
0100
0000
0001
0100
0000
0100
0001
0000
1000
0000
0100
1000
0000
1000
0100
0000
,
1000
0000
0001
0010
0000
0010
0001
0000
1000
0000
0010
1000
0010
1000
0010
0000
,
0100
0000
0001
1000
0100
0000
0010
0001
1000
0000
0010
1000
0001
0000
0100
0000
,
1001
0000
0011
0000
1100
0000
0110
0000
1001
0000
0010
0000
1000
0000
0010
0100
,
1001
0101
0011
1001
,
1010
0000
0100
0000
1001
0000
0001
0100
,
1001
0100
1001
0011
,
1100
0000
1000
0100
0010
0001
0010
0001
,
1001
1100
1001
0011
,
0101
0000
0001
1000
0001
0100
1000
0000
,
0100
0001
0100
0000
1000
0100
1000
0000
,
0100
0001
0010
0000
0010
0001
1000
0000
,
0010
1000
0001
0100
0001
1000
0100
1000
,
0001
0010
0001
1000
0010
1000
0001
0100
,
0001
1000
0100
0010
0001
0010
0100
1000
,
0001
0010
0100
0010
1001
0000
1001
0000
,
0101
0100
0100
0000
0101
0100
0100
0000
,
0101
0001
0001
0000
0101
0001
0001
0000
,
0101
0101
0101
0000
0110
0110
0110
0000
,
1010
1010
1010
0000
1001
1001
1001
1001
,
2002
0000
0000
0000
,
0000
0000
0000
0000
,
3003
0000
0000
0000
;

//---------------dance-single - ----------------
#NOTES:
     dance-single:
     :
     Medium:
     8:
     0.373,0.474,0.133,0.007,0.087,354.000,19.000,1.000,0.000,0.000:
0000
0000
0000
0000
,
0100
0000
0000
0000
0000
0000
0100
1000
,
0001
0000
0000
0000
0000
0000
0100
0010
,
1000
0000
0000
0000
0101
0000
0000
0000
0000
0100
1000
0000
0001
0000
0000
0000
,
0100
0000
0000
0000
0010
0000
0000
0000
1000
0000
0000
0010
0000
1000
0000
0001
,
0100
0010
1000
0100
0000
0010
0001
0010
,
0100
0000
1000
0000
0000
0000
0001
0000
0100
0000
0010
0000
1000
0010
0000
0000
,
1000
0000
0010
0100
0001
0000
1000
0000
,
0001
0000
0100
1000
0100
0000
0010
1000
,
0001
0010
0100
1000
,
0100
0000
0010
0001
0100
0000
0001
0000
,
0100
0000
1000
0000
0100
0000
0010
1000
,
0010
0000
0000
0000
1000
0010
0000
0000
0010
1000
0001
0000
0100
0000
0000
0000
,
0010
0000
1000
0001
0100
0000
0010
1000
,
0010
0000
0000
0010
1000
0000
0010
0000
1000
0000
0001
0000
0100
0000
0000
0000
,
0100
0001
0000
0001
0100
0000
0001
0000
0100
0000
0010
0000
1000
0000
0000
0000
,
0010
1000
0000
1000
0010
0000
1000
0000
0010
0000
0100
0000
0001
0000
0000
0000
,
1000
0001
0100
0000
0001
1000
0100
0000
,
0010
0001
1000
0001
,
0001
0100
0100
1000
,
1000
0000
0010
0000
0010
0000
0001
0001
,
0100
0100
1000
1000
0010
0010
0001
0000
,
0000
0000
0000
0000
,
0000
0000
0000
0000
,
0000
0000
0000
0000
,
0000
0000
0000
0000
,
0000
0000
0001
0100
,
0001
0000
1000
0100
,
1000
0000
0010
0100
,
0001
0000
0100
0001
,
1000
0100
1000
0001
,
0010
0001
1000
0010
,
0100
0001
0100
0001
,
1000
0100
0000
1000
,
0100
0000
1000
0000
0100
1000
0100
0000
,
1000
0001
0000
0010
,
0001
0000
0010
0000
0001
0010
0001
0000
,
1000
0001
0000
0100
,
0010
1000
0000
0001
,
0100
0001
0000
0100
,
0001
0000
0100
0000
0000
0001
0000
0000
,
0100
0001
0100
0010
,
0000
1000
0000
0000
0010
0000
1000
0000
,
0000
0001
0000
0000
0100
0000
0001
0000
,
0000
1000
0000
0000
0100
0000
0001
0000
,
0000
0100
0000
0000
0010
0000
0001
0000
,
0000
1000
0000
0000
0010
0000
0001
0000
,
0000
1000
0000
0000
0100
0000
0001
0000
,
0000
1000
0000
0000
0100
0000
1000
0000
,
0000
0001
0000
0000
0010
0000
0001
0000
,
0100
0001
1000
0100
,
1000
0010
1000
0001
,
0010
0001
0100
0001
,
1000
0100
1000
0010
,
1000
0100
1000
0010
,
0100
0001
0010
0001
,
0100
0001
0100
1001
,
0001
0000
0000
0100
0001
0000
0000
0001
0100
0000
0010
0000
1000
0000
0000
0000
,
0100
0000
0000
1000
0100
0000
0000
0100
1000
0000
0100
0000
1000
0000
0000
0000
,
0001
0000
0000
0100
0001
0000
0000
0001
0100
0000
0001
0000
0100
0000
0000
0000
,
0010
0000
0000
1000
0010
0000
0000
0010
1000
0000
0010
0000
0100
0000
0000
0000
,
0001
0000
1000
0000
0100
0000
0000
0100
1000
0000
0001
0000
0100
0000
0000
0010
,
1000
0000
0001
0000
0010
0000
0000
0100
1000
0000
0100
0000
0001
0000
0000
0000
,
0100
0000
0010
0000
0001
0000
0000
0100
0000
0000
0001
0000
0100
0000
0000
0010
,
0000
1000
0010
0100
0001
1000
0100
0010
,
1001
0000
0101
0000
,
1001
1100
0000
1001
,
0101
0011
0000
0001
,
0100
0010
0000
1010
,
1001
1100
0000
0001
,
0010
1100
0000
1100
,
1001
0000
0000
0101
0000
0000
0101
0000
,
1001
0000
0000
1100
0000
0000
0001
0000
,
0100
0010
1000
0100
,
1000
0010
1000
0100
1000
0000
0010
0000
,
0100
0001
0010
0001
,
0100
0001
0010
0001
0100
0000
0010
0000
,
1000
0100
1000
0010
1000
0000
0001
0000
,
0010
0001
1000
0001
0100
0000
0001
0000
,
1000
0100
0010
0001
1000
0100
0010
0001
,
0010
0100
1000
0001
0010
0100
1000
0001
,
0200
0000
0000
0000
,
0000
0000
0000
0000
,
0000
0000
0000
0000
,
0000
0000
0000
0000
,
0300
0000
0000
0000
;
