#TITLE:Final Audition;
#SUBTITLE:;
#ARTIST:BanYa;
#TITLETRANSLIT:;
#SUBTITLETRANSLIT:;
#ARTISTTRANSLIT:;
#CREDIT:;
#BANNER:fa-bn.JPG;
#BACKGROUND:FA-bg.jpg;
#LYRICSPATH:;
#CDTITLE:;
#MUSIC:Final Audition.mp3;
#OFFSET:-3.680;
#SAMPLESTART:52.800;
#SAMPLELENGTH:11.820;
#SELECTABLE:YES;
#BPMS:0.000=130.500;
#STOPS:;
#BGCHANGES:;
// cache tags:
#FIRSTBEAT:0.000;
#LASTBEAT:203.000;
#SONGFILENAME:Songs/toune/Final Audition/Final Audition.sm;
#HASMUSIC:1;
#HASBANNER:1;
#MUSICLENGTH:97.967;
// end cache tags

//---------------dance-single - ----------------
#NOTES:
     dance-single:
     :
     Hard:
     6:
     0.397,0.440,0.225,0.041,0.000,246.000,22.000,4.000,0.000,0.000:
0100
0000
0001
0000
0100
0010
0100
0000
,
0001
0000
0100
0000
0010
1000
0010
0000
,
0001
0000
1000
0000
0001
1000
0001
0000
,
1000
0000
0010
0000
0100
0001
0100
0000
,
0001
0000
1010
0000
0010
1000
0010
0000
,
0001
0000
0011
0000
0010
0001
0010
0000
,
1000
0000
1100
0000
0100
1000
0100
0000
,
1100
0000
0000
0000
,
0000
0000
0100
0100
0010
0000
1000
0000
,
0010
0000
0100
0100
0001
0000
0010
0000
,
1000
0000
0100
0100
0010
0000
0100
0000
,
0001
0000
0100
0100
0010
0000
1000
0000
,
0100
0000
0100
0100
0001
0000
1000
0000
,
0001
0000
0100
0100
0010
0000
1000
0000
,
1010
0000
1000
0100
0010
0000
0001
0000
,
0101
0000
0001
0010
0100
0000
1000
0000
,
1010
0000
0010
0100
0010
0100
0010
0100
,
0010
0100
0001
1000
0001
1000
0001
1000
,
0001
0000
0100
1000
0010
0000
0100
0000
,
0101
0000
0001
0100
0010
0000
0100
0000
,
0110
0000
0001
0010
0001
0000
1000
0000
,
1100
0000
0010
1000
0010
0000
1010
0000
,
1001
0110
0000
0100
,
0100
0000
0001
0001
0001
0000
1001
0000
,
1001
0000
0001
0010
0100
1000
0100
0000
,
0100
0000
0010
0010
0010
0000
0011
0000
,
0011
0000
1000
0010
0100
0001
0100
0000
,
0001
1100
1001
0001
,
0010
0110
0100
0020
,
1000
0000
1030
0000
0000
0000
0100
0001
,
0100
0010
0001
1000
,
1000
0000
1000
0000
1000
0000
1000
0100
,
0010
0001
0010
0100
1000
0000
1000
0000
,
1000
1000
1000
0010
,
0010
0010
0010
0100
,
0100
0000
0100
0000
0100
0000
0001
0100
,
0010
1000
0100
0010
0001
0000
0001
0010
,
0100
1000
0001
0010
0100
1000
0001
0000
,
1000
0010
0100
0001
,
0000
0000
0000
0000
0000
0000
1000
0010
,
0001
0010
1000
0010
0001
0000
1000
0000
,
0000
0000
0000
0000
0000
0000
0010
0100
,
0010
0100
0010
0100
0010
0000
0001
0000
,
1000
0000
0001
0000
1100
0000
0100
0001
,
0100
0001
0100
0001
0100
0000
0010
0000
,
0100
0000
0010
0000
1001
0000
1000
0100
,
1000
0100
0020
0000
0000
0000
0130
0000
,
0001
0100
0001
0010
,
1000
0000
0010
0000
0100
0001
0200
0000
,
0000
0002
0303
0001
,
0010
0000
0100
0010
0100
0010
0100
0000
;

//---------------dance-single - ----------------
#NOTES:
     dance-single:
     :
     Beginner:
     1:
     0.098,0.130,0.051,0.010,0.000,61.000,5.000,1.000,0.000,0.000:
0100
0000
0000
0000
,
0010
0000
0000
0000
,
0100
0000
0000
0000
,
0010
0000
0000
0000
,
1000
0000
0000
0000
,
0001
0000
0000
0000
,
1000
0000
0000
0000
,
1001
0000
0000
0000
,
0000
0001
0000
0000
,
0000
0001
0000
0000
,
0000
1000
0000
0000
,
0000
1000
0000
0000
,
0000
0010
0000
0000
,
0000
0010
0000
0000
,
0000
0100
0000
0000
,
0000
0200
0000
0000
,
0300
0100
0000
0000
,
0000
0001
0000
0000
,
0000
1000
0000
0000
,
0000
0010
0000
0000
,
0000
0010
0000
0000
,
0000
0100
0000
0000
,
0000
0100
0000
0100
,
0100
0100
0000
0000
,
0000
0001
0001
0001
,
0000
1000
0000
1000
,
0000
0010
0010
0010
,
0000
0000
0000
0010
,
0000
0000
0100
0100
,
0000
0000
0000
0001
,
0000
0000
0000
1000
,
0000
0000
0000
1000
,
0000
0000
0000
0001
,
0000
0000
0000
0001
,
0000
0000
0000
0100
,
0000
0000
0000
0100
,
0000
0000
0000
0010
,
0000
0000
0000
0010
,
0000
0000
0000
0110
,
0000
0000
0000
0010
,
0000
0000
0000
1001
,
0000
0000
0000
1000
,
0000
0000
0000
1001
,
0000
0000
0000
0100
,
0000
0000
0000
1001
,
0000
0000
0000
0010
,
0000
0010
0000
0100
,
0000
0000
0000
0010
,
0000
0000
0000
0010
,
0000
1000
0000
0100
,
0000
0000
0000
0100
;

//---------------dance-single - ----------------
#NOTES:
     dance-single:
     :
     Easy:
     2:
     0.188,0.207,0.010,0.061,0.000,122.000,1.000,6.000,0.000,0.000:
0010
0100
0010
0000
,
1000
0001
1000
0000
,
0010
0001
0010
0000
,
1000
0100
1000
0000
,
0001
0100
1000
0000
,
0001
0010
1000
0000
,
1000
0010
0100
0000
,
0110
0000
0000
0000
,
0000
0001
0000
0000
,
0000
1000
0000
0000
,
0000
0010
0000
0000
,
0001
0100
1000
0100
,
0001
0100
0000
0000
,
0000
0010
0000
0000
,
0000
1000
0010
0001
,
0010
1000
0010
0001
,
0000
0010
0000
0000
,
1000
0100
0010
0001
,
0010
0100
0000
0000
,
0000
1000
0000
0000
,
0000
0001
0000
0000
,
0000
0100
0000
0000
,
0000
0001
0000
0001
,
1000
0010
0000
0100
,
0100
0001
0000
1000
,
0010
0100
0000
0001
,
0001
0010
0000
0100
,
0100
0100
0100
0010
,
0010
0010
0020
1030
,
0000
1000
0000
0100
,
0001
0100
0000
0010
,
0000
0000
1000
0010
,
0001
0010
1000
0001
,
0000
0000
0000
0010
,
0000
0000
0000
0100
,
0000
0000
0000
0001
,
0010
0100
1000
0001
,
0000
0000
0000
0010
,
0000
0000
0000
0200
,
0000
0000
0000
0301
,
0010
0001
0010
0002
,
0000
0000
0000
1003
,
0000
0000
0000
0200
,
0000
0000
0301
1000
,
0100
0010
0001
2000
,
0000
0000
3010
0001
,
0010
0200
0300
0100
,
0001
0100
0000
1000
,
0010
0100
0001
0100
,
0000
0010
0000
1000
,
0010
0100
0001
1000
;

//---------------dance-single - ----------------
#NOTES:
     dance-single:
     :
     Medium:
     5:
     0.351,0.363,0.174,0.051,0.000,219.000,17.000,5.000,0.000,0.000:
1000
0000
1000
0000
0001
1000
0001
0000
,
0010
0000
0010
0000
0100
0010
0100
0000
,
0001
0000
0001
0000
1000
0100
1000
0000
,
0100
0000
0100
0000
0001
0010
0001
0000
,
0010
0000
0010
0000
0100
0001
0100
0000
,
1000
0000
1000
0000
0010
1000
0010
0000
,
0100
0000
0100
0000
0001
1000
0001
0000
,
1001
0000
0000
0000
,
0000
1000
0100
0010
,
0001
0110
0100
1000
,
0001
1010
0010
0100
,
1000
0011
0100
0001
,
1000
1001
1000
0010
,
0100
0001
0010
0100
,
1000
1100
0100
0001
,
0010
1010
1000
0010
,
0100
0000
0001
0000
0010
0000
0100
1000
,
0100
0000
0010
0100
0010
0000
0001
0010
,
0001
1001
1000
0001
,
0010
0100
0010
0100
0010
0100
0010
0000
,
0011
0101
0100
1000
,
0001
0010
0100
1000
,
0001
1001
0000
0100
,
0100
0000
0010
0010
0010
0000
2000
0000
,
3010
0000
0100
0001
0100
0001
0100
0000
,
0010
0000
0100
0100
0100
0000
0001
0000
,
0100
0000
0010
1000
0010
1000
0010
0000
,
0100
0001
0011
0100
,
0100
0000
0100
0000
0200
0000
1300
0100
,
1000
0100
0000
0000
0000
0000
0010
0000
,
0001
0000
1000
0000
0100
0000
0010
0001
,
0010
0000
0001
0010
0001
0000
0010
0001
,
0010
0000
0001
0010
0001
0000
1000
0000
,
0010
0100
0010
0000
0100
0010
0100
0000
,
0010
0100
0010
0000
0001
0000
1000
0100
,
1000
0000
0100
1000
0100
0000
1000
0100
,
1000
0000
0100
1000
0100
0000
0001
0000
,
1000
0001
1000
0000
0001
1000
0001
0000
,
1000
0001
1000
0000
0010
0000
0100
0000
,
0000
0000
1001
1000
,
0010
0001
0010
1000
,
0000
0000
0000
0110
,
0010
0100
0001
2000
,
0000
3000
1100
0001
,
0010
0100
1000
0002
,
0000
0003
0101
1000
,
0100
0020
0030
0001
,
0100
0010
0000
0100
,
0100
0100
0100
0100
,
0000
1001
0000
0010
,
0010
0010
0010
0100
;
