#TITLE:Saturday Morning;
#SUBTITLE:;
#ARTIST:DJ SHARPNEL;
#TITLETRANSLIT:;
#SUBTITLETRANSLIT:;
#ARTISTTRANSLIT:;
#CREDIT:;
#BANNER:Saturday Morning-bn.jpg;
#BACKGROUND:Saturday Morning-bg.jpg;
#LYRICSPATH:;
#CDTITLE:Mina-icon.png;
#MUSIC:Saturday Morning.mp3;
#OFFSET:-0.370;
#SAMPLESTART:30.370;
#SAMPLELENGTH:12.000;
#SELECTABLE:YES;
#DISPLAYBPM:200.000;
#BPMS:0.000=200.000,260.000=100.000,324.000=200.000,592.000=100.000,596.000=200.000;
#STOPS:;
#BGCHANGES:;
// cache tags:
#FIRSTBEAT:8.000;
#LASTBEAT:628.125;
#SONGFILENAME:Songs/cedric step/[Minachan]Saturday Morning/Saturday Morning.sm;
#HASMUSIC:1;
#HASBANNER:1;
#MUSICLENGTH:213.622;
// end cache tags

//---------------dance-single - ----------------
#NOTES:
     dance-single:
     :
     Hard:
     12:
     1.000,1.000,1.000,0.679,0.669,1362.000,630.000,145.000,0.000,0.000:
0000
0000
0000
0000
,
0000
0000
0000
0000
,
0220
0000
0330
1100
1100
0000
0110
0110
,
0000
0011
0000
1100
1100
0000
0011
0000
,
0220
0000
0330
0011
0011
0000
1100
1100
,
0000
0110
0000
0011
0011
0000
1001
0000
,
0101
0100
0110
0010
1010
1000
1100
0100
,
0110
0000
0110
0000
0110
0000
0110
0000
0000
0000
1001
0000
2002
0000
0000
3003
,
0220
0000
0000
0000
0330
0000
1000
0000
1001
0100
0010
0100
0010
0100
1000
0010
,
1000
0001
1000
0001
0100
0010
1000
0100
0010
0001
0010
0100
0010
0001
0010
0100
,
0220
0000
0000
0000
0330
0000
0001
0000
1001
0010
0100
0010
0100
0010
0001
0100
,
0001
1000
0001
1000
0010
0100
0001
0010
0100
1000
0100
0010
0100
1000
0100
0010
,
1001
0000
0100
0000
1010
0000
0001
0000
0110
0000
1000
0000
0101
1000
0010
0000
,
1001
0000
0100
0000
1010
0000
0001
0000
0110
0000
1000
0000
0011
0100
0010
0000
,
2200
0000
0000
3300
0000
0000
0010
0000
0101
0000
0010
0000
1100
0010
0001
0000
,
0110
0000
1000
0000
0101
0000
0010
0000
1100
0000
0110
0000
0011
0100
0010
0000
,
2002
0000
0000
0000
3003
0000
0100
0000
0110
0001
1000
0001
1000
0100
1000
0001
,
0100
0010
0100
0001
0010
0100
1000
0100
0010
0001
0100
0010
1000
0001
1000
0010
,
2002
0000
0000
0000
3003
0000
0010
0000
0011
1000
0001
1000
0001
0100
0010
1000
,
0100
0010
0100
1000
0100
0010
0001
0100
0010
1000
0010
0100
0220
0000
0000
0330
,
1100
0000
0100
0000
0011
0100
0010
0000
1100
0000
0010
0000
0101
1000
0001
0000
,
0110
0000
1000
0000
0011
0000
0100
0000
1010
0100
0010
0000
1100
0000
0100
0000
,
0220
0000
0000
0000
0330
0000
0010
0000
0011
0000
0100
0000
1100
0010
0100
0000
,
0011
0100
1100
0010
0011
1100
0110
0011
,
1001
0000
1100
1001
1001
0000
0110
0010
,
1001
0000
0011
0110
0110
0000
1100
1000
,
1010
0000
0110
0101
0101
0000
1001
0001
,
1001
0000
1001
1100
1100
0000
0110
1000
,
1001
0010
0010
1100
1100
1000
1000
0101
,
0101
0010
0010
1001
1001
0100
0100
1010
,
1010
1000
1100
0100
0110
0010
0011
0001
,
0101
0100
0110
0010
1010
1000
1100
0100
,
0101
0000
1100
0000
1010
0000
0011
0000
0101
0000
2002
0000
0000
0000
0000
3003
,
1100
0000
0010
0000
0110
0000
0001
0010
1001
0000
0100
0000
1100
0000
0010
1000
,
0110
0000
0001
0000
0110
0000
0100
0001
1100
0000
0110
0000
0110
0000
0000
0000
,
1001
0000
1000
0000
1100
0000
0001
1000
0110
0000
1000
0000
1100
0000
0010
0001
,
0110
0000
1000
0000
1100
0000
0010
1000
0110
0000
0101
0000
0101
0000
0000
0000
,
1100
0000
1100
0000
1100
0000
1100
0001
0110
0000
0010
0000
0011
0000
0001
0010
,
1001
0000
1000
0000
1100
0000
0100
0001
0110
0000
0010
0000
0011
0000
0001
0000
,
0021
0000
0000
0000
0100
0000
0000
0000
0100
0000
0000
0030
1100
0000
1100
0000
,
1100
0001
0100
0000
0110
0001
0010
0000
0011
1000
0001
0000
1001
0000
0000
0000
,
1001
0000
0100
0000
0101
0000
1000
0001
1100
0000
0100
0000
0110
0000
1000
0100
,
1010
0000
0100
0000
0101
0000
0010
1000
0110
0000
0100
0000
0110
0000
0000
0000
,
0101
0000
0010
0000
0110
0000
1000
0100
1010
0000
0001
0000
0110
0000
0001
0010
,
0101
0000
1000
0000
1100
0000
0010
0100
0011
0000
0110
0000
1100
0000
0000
0000
,
2100
0000
0001
0000
3100
0000
0001
0100
1010
0000
1000
0000
1100
0000
0010
0100
,
1001
0000
0100
0000
0110
0000
1000
0100
1010
0000
0100
0000
0110
0000
0110
0000
,
1000
0100
1000
0100
1000
0100
1000
0100
1000
0100
1000
0100
1000
0100
1000
0100
,
1000
0100
1000
0100
1000
0100
1000
0100
1000
0100
1000
0100
1000
0100
1000
0100
,
0011
0000
0100
0000
0110
0000
1000
0100
1001
0000
0010
0000
0011
0000
0100
0001
,
0110
0000
1000
0000
0110
0000
0010
1000
0011
0000
0110
0000
0110
0000
0000
0000
,
1001
0000
0001
0000
0011
0000
1000
0001
0110
0000
0001
0000
0011
0000
0100
1000
,
0110
0000
0001
0000
0011
0000
0100
0001
0110
0000
1010
0000
1010
0000
0000
0000
,
0011
0000
0011
0000
0011
0000
0011
1000
0110
0000
0100
0000
1100
0000
1000
0100
,
1001
0000
0001
0000
0011
0000
0010
1000
0110
0000
0100
0000
1100
0000
1000
0000
,
1200
0000
0000
0000
0010
0000
0000
0000
0010
0000
0000
0300
0011
0000
0011
0000
,
0011
1000
0010
0000
0110
1000
0100
0000
1100
0001
1000
0000
1001
0000
0000
0000
,
1001
0000
0010
0000
1010
0000
0001
1000
0011
0000
0010
0000
0110
0000
0001
0010
,
0101
0000
0010
0000
1010
0000
0100
0001
0110
0000
0010
0000
0110
0000
0000
0000
,
1010
0000
0100
0000
0110
0000
0001
0010
0101
0000
1000
0000
0110
0000
1000
0100
,
1010
0000
0001
0000
0011
0000
0100
0010
1100
0000
0110
0000
0011
0000
0000
0000
,
0012
0000
1000
0000
0013
0000
1000
0010
0101
0000
0001
0000
0011
0000
0100
0010
,
1001
0000
0010
0000
0110
0000
0001
0010
0101
0000
0010
0000
0110
0000
0110
0000
,
0001
0010
0001
0010
0001
0010
0001
0010
0001
0010
0001
0010
0001
0010
0001
0010
,
0001
0010
0001
0010
0001
0010
0001
0010
0001
0010
0001
0010
0001
0010
0001
0010
,
1100
0000
1100
1100
1100
0110
0011
0022
0033
0022
0033
0022
0033
0000
0000
0000
,
1001
0000
0000
0000
0011
0000
0011
0000
0011
0000
0110
0000
1100
0000
2200
0000
3300
0000
2200
0000
3300
0000
2200
0000
0000
3300
0000
0000
0000
0000
0000
0000
,
0110
0000
0000
0000
0110
0000
0110
0000
0110
0000
1010
0000
1001
0000
2002
0000
3003
0000
2002
0000
3003
0000
2002
0000
0000
3003
0000
0000
0000
0000
0000
0000
,
0101
0000
0000
0000
1001
0000
1001
0000
1001
0000
1010
0000
0110
0000
0220
0000
0330
0000
0220
0000
0330
0000
0220
0000
0000
0330
0000
0000
0000
0000
0000
0000
,
0110
0000
0000
0000
0110
0000
0110
0000
0110
0000
1010
0000
1001
0000
2002
0000
3003
0000
2002
0000
3003
0000
2002
0000
0000
3003
0000
0000
0000
0000
0000
0000
,
0101
0000
1001
1001
1001
1010
0110
0220
0330
0220
0330
0220
0330
0000
0000
0000
,
1010
0000
0000
0000
1010
0000
1010
0000
1010
0000
1100
0000
0101
0000
0202
0000
0303
0000
0202
0000
0303
0000
0202
0000
0000
0303
0000
0000
0000
0000
0000
0000
,
0011
0000
0000
0000
0101
0000
0101
0000
0101
0000
1100
0000
1010
0000
2020
0000
3030
0000
2020
0000
3030
0000
2020
0000
0000
3030
0000
0000
0000
0000
0000
0000
,
1010
0000
0000
0000
1010
0000
1010
0000
1010
0000
1001
0000
0101
0000
0202
0000
0303
0000
0202
0000
0303
0000
0202
0000
0000
0303
0000
0000
0000
0000
0000
0000
,
0110
0000
0000
0000
0101
0000
0101
0000
0101
0000
1001
0000
1010
0000
2020
0000
3030
0000
2020
0000
3030
0000
2020
0000
0000
3030
0000
0000
0000
0000
0000
0000
,
1002
0000
0000
0000
0100
0000
0100
0000
0100
0000
0010
0000
1000
0000
2000
0000
3000
0000
2000
0000
3000
0000
2000
0000
0000
3000
0000
0000
0000
0000
0000
0000
,
0010
0000
0000
0000
0010
0000
0010
0000
0010
0000
1000
0000
0100
0000
0200
0000
0300
0000
0200
0000
0300
0000
0200
0000
0000
0300
0000
0000
0000
0000
0000
0003
,
0110
0000
1000
0001
0010
1000
1000
1000
0000
1000
0000
1000
0100
0010
0001
0100
,
0110
0000
0001
0001
0001
0010
0100
0100
0000
1000
0000
0100
0010
1000
1000
0000
,
1001
0000
0001
0001
0001
0010
0100
0100
0000
0100
0000
0100
1000
0010
0100
0001
,
1000
0001
1000
0001
1000
0001
1000
0001
1000
0001
1000
0001
1000
0001
1000
0001
1000
0001
1000
0001
1000
0001
1000
0001
1000
0001
1000
0001
1000
0001
1000
0001
,
0220
0330
1100
0110
0001
0110
1100
0001
,
2002
3003
0101
1001
0001
1001
0101
0010
,
0220
0330
1010
0110
1000
0110
1010
0100
,
0202
0303
0110
0101
1000
0101
0110
1000
,
2200
3300
1001
0101
1000
0101
1001
0100
,
0202
0303
1100
0110
1000
0110
1100
0001
,
2002
3003
0101
0011
0100
0011
0101
0010
,
0220
0330
0011
1001
0010
1001
0011
1000
,
2020
3030
0101
0110
0001
0110
0101
1000
,
2002
3003
0110
1010
0100
1010
0110
1000
,
2020
3030
0101
1001
0100
1001
0101
0010
,
0022
0033
0110
1100
0010
1100
0110
0001
,
0202
0303
0101
0011
0100
0011
0101
0010
,
0220
0330
1001
0011
0100
0011
1001
0100
,
0202
0303
1010
0011
1000
0011
1010
0001
,
2002
3003
1001
0101
1000
0101
1001
0010
,
0110
0001
0100
0110
0100
0010
0110
0010
,
0110
0001
1000
1100
1000
0100
1100
0100
,
0101
0010
0100
1100
1000
0100
1100
1000
,
1001
0100
1000
1001
1000
0001
1001
1000
,
1100
0010
0100
1100
0100
1000
1100
0100
,
0110
0100
0010
0011
0010
0001
0101
0100
,
1001
1000
0001
1001
0001
1000
1001
0100
,
1000
0001
1000
0001
1000
0001
1000
0001
1000
0001
1000
0001
1000
0001
1000
0001
,
0110
0010
1010
0010
0110
0010
1001
0001
,
2001
0000
0000
0000
0000
3000
0002
0000
0000
0000
0000
0003
2000
0000
0000
3000
,
0001
1000
0001
1000
0001
1000
0001
1000
0001
1000
0001
1000
0001
1000
0001
1000
,
0001
0100
0001
0100
0001
0100
0001
0100
0001
0100
0001
0100
0001
0100
0001
0100
,
0010
1000
0010
1000
0010
1000
0010
1000
0010
1000
0010
1000
0010
1000
0010
1000
,
0010
0100
0010
0100
0010
0100
0010
0100
0010
0100
0010
0100
0010
0100
0010
0100
,
0110
0010
0011
0101
0110
1010
1100
0110
,
0010
0110
0110
0100
0110
0000
0110
0000
,
0011
0001
0011
0110
1100
1001
0101
0110
,
0010
0110
0110
0010
0110
1000
1001
0001
,
1001
0000
0000
0010
0101
0110
1010
1000
,
0110
0100
0101
0001
0011
0010
0110
0100
,
1100
1000
1100
0101
0000
0011
0110
1100
,
0110
0110
0110
0000
0110
0001
0110
0000
,
0110
0100
1100
1010
0110
0101
0011
0110
,
0100
0110
0110
0010
0110
0000
0110
0000
,
1100
1000
1100
0110
0011
1001
1010
0110
,
0100
0110
0110
0100
0110
0001
1001
1000
,
1001
0000
0000
0100
1010
0110
0101
0001
,
0110
0010
1010
1000
1100
0100
0110
0010
,
0011
0001
0011
1010
1000
1100
0110
0011
,
0110
0110
0110
0000
0110
0100
0110
0000
,
1001
0001
0101
1100
1001
0011
1010
1001
,
0001
1001
1001
1000
1001
0000
1001
0000
,
0101
0100
0101
1001
1010
0110
1100
1001
,
0001
1001
1001
0001
1001
0010
0110
0100
,
0110
0000
0000
0001
1100
1001
0011
0010
,
1001
1000
1100
0100
0101
0001
1001
1000
,
1010
0010
1010
1100
0100
0101
1001
1010
,
1001
1001
1001
0000
1001
0100
1001
0000
,
1001
1000
1010
0011
1001
1100
0101
1001
,
1000
1001
1001
0001
1001
0000
1001
0000
,
1010
0010
1010
1001
0101
0110
0011
1001
,
1000
1001
1001
1000
1001
0100
0110
0010
,
0110
0000
0000
0010
0011
1001
1100
0100
,
1001
0001
0011
0010
1010
1000
1001
0001
,
0101
1001
1000
0001
0101
0100
0001
0101
,
0100
0101
0101
0100
1100
1000
1100
0100
,
0110
0010
0011
0001
1001
1000
1100
0100
,
0120
0000
0100
0030
0012
0000
1000
1003
,
1100
0100
0110
0010
0011
0001
0101
0100
,
2010
0000
0010
3000
1002
0000
0100
0103
,
0110
0010
1010
1000
1100
0100
0110
0010
,
0012
0000
0010
0000
0100
0100
0100
0003
0120
0000
0100
0000
1000
1000
1000
0030
,
1001
1001
1001
1000
1100
0100
0110
0010
,
0012
0010
2003
3100
0200
0310
0020
0031
,
0012
0100
1000
0010
1000
0100
1000
0010
,
1000
0000
0100
0000
1000
0000
0010
0000
1000
0000
0100
0000
1000
0000
0000
0003
,
1001
1001
1001
0001
0101
0100
0110
0010
,
2010
0010
3002
0013
0020
0130
0200
1300
,
1100
0000
1000
0000
1100
0000
0001
0100
0001
0100
0001
0000
0101
0000
0110
0000
,
0220
0000
0000
0000
0000
0000
0000
0000
0000
0000
0000
0000
0000
0000
0330
0000
0000
0001
0010
0100
1000
0001
0010
0100
1000
0001
0010
0100
1000
0000
0000
0000
,
0000
0110
0000
0000
0000
0000
0000
0000
0000
0000
0000
0000
0000
0000
0000
0000
0000
0000
0000
0000
0000
0000
0000
0000
0000
0000
0000
0000
0000
0000
0000
0000
;
