#TITLE:Say It Right;
#SUBTITLE:(Sanxion7 Remix);
#ARTIST:Sanxion7;
#TITLETRANSLIT:;
#SUBTITLETRANSLIT:;
#ARTISTTRANSLIT:;
#CREDIT:;
#BANNER:sayitright-bn.png;
#BACKGROUND:sayitright.png;
#LYRICSPATH:sayitright.lrc;
#CDTITLE:;
#MUSIC:sayitright.ogg;
#OFFSET:-0.150;
#SAMPLESTART:28.580;
#SAMPLELENGTH:13.000;
#SELECTABLE:YES;
#BPMS:0.000=135.000,140.000=67.500,172.000=135.000;
#STOPS:;
#BGCHANGES:;
// cache tags:
#FIRSTBEAT:10.500;
#LASTBEAT:302.000;
#SONGFILENAME:Songs/lvsb tourney pack/Say It Right (Sanxion7 Remix)/sayitright.sm;
#HASMUSIC:1;
#HASBANNER:0;
#MUSICLENGTH:105.000;
// end cache tags

//---------------dance-single - MIDI----------------
#NOTES:
     dance-single:
     MIDI:
     Hard:
     9:
     1.000,1.000,0.124,1.000,1.000,676.000,13.000,137.000,0.000,0.000:






0000
0000
0000
0000
,
0000
0000
0000
0000
,
0000
0000
0000
0000
0000
0000
0000
0000
0000
0000
2000
3000
0200
0300
0200
0300
,
1000
0000
0001
0100
0001
0000
2020
3000
0000
0030
2000
3000
0200
0300
0020
0030
,
0001
0000
1000
0100
1000
0000
0022
0003
0000
0030
0000
0000
0001
0000
2000
0000
,
3100
0000
0010
0001
0010
0000
2200
3000
0000
0300
0000
0000
1000
0000
0001
0000
,
1000
0100
1000
0000
0001
0100
0001
0000
1000
0001
1000
0001
1000
0000
1000
0000
,
0001
0000
0100
0001
0100
0000
2020
0030
0000
3000
0020
0030
2000
3000
0002
0003
,
0010
0000
0100
0010
0100
0000
2002
0003
0000
3000
0002
0003
2000
3000
0200
0300
,
0010
0000
0001
0100
0001
0000
2020
0030
0000
3000
2000
3000
0002
0003
0200
0300
,
0002
0000
0000
0000
0400
0000
0000
0300
4000
0000
0000
3000
0040
0000
0003
0030
,
0001
0000
1000
0001
1000
0000
0022
0003
0000
0030
0002
0003
0200
0300
0020
0030
,
2000
3000
0100
0010
0100
0000
0220
0030
0000
0300
0020
0030
0002
0003
0200
0300
,
0010
0000
1000
0001
1000
0000
0202
0003
0000
0300
0002
0003
2000
3000
0002
0003
,
0200
0010
1000
0010
,
0301
0000
1000
0100
1000
0000
0022
0030
0000
0003
0002
0003
2000
3000
0002
0003
,
0100
0000
0000
0000
0220
0000
0000
0000
0330
0000
0020
0030
2000
3000
0200
0300
,
0010
0000
0000
0000
0001
0000
0010
0000
0000
0000
0200
0300
0200
0300
0200
0300
,
0000
0000
0020
0030
0020
0030
0020
0030
0000
0000
0000
0000
0001
0000
0100
0000
,
0100
0000
0001
0000
0100
0010
0000
1000
0000
0001
0100
0000
0001
0010
0000
0100
,
0010
0000
0100
0000
0010
0001
0000
1000
0000
0001
0100
0000
0010
1000
0000
1000
,
0001
0000
0010
0000
0001
0010
0000
0100
0000
0010
0001
0000
1000
0010
0000
0100
,
0000
0000
0010
0000
0100
0001
0000
1000
0000
0001
0100
0000
0000
0010
1000
0001
,
0100
0000
0010
0000
0100
0010
0000
1000
0000
1000
0001
0000
0100
0010
0000
0100
,
0001
0000
1000
0000
0100
1000
0000
0010
0000
1000
0001
0000
0010
0001
0000
1000
,
0001
0000
0010
0000
0001
1000
0000
0001
0000
0100
0001
0000
1000
0010
0000
0100
,
0000
0000
0001
0000
0100
0010
0000
1000
0000
0001
0100
0000
0000
0010
1000
0001
,
0100
0000
0010
0000
0100
0001
0000
1000
0000
0100
0010
0000
0100
1000
0000
0001
,
0100
0000
0001
0000
0100
0010
0000
1000
0000
1000
0100
0000
0010
0001
0000
1000
,
0001
0000
0010
0000
0001
1000
0000
0100
0000
0010
0001
0000
1000
0001
0000
0100
,
0000
0000
0010
0000
0100
0010
0000
1000
0000
0010
0100
0000
0000
0010
1000
0001
,
0100
0000
0010
0000
0100
0001
0000
0010
0000
0100
1000
0000
0100
0010
0000
0100
,
1000
0000
1000
0000
0010
0100
0000
0001
0000
1000
0001
0000
0001
1000
0000
0010
,
0100
0000
0100
0000
0001
0010
0000
0100
0000
0010
0001
0000
1000
0010
0000
1000
,
0000
0000
0100
0000
0010
0001
0000
1000
0000
0001
1000
0000
0000
0010
1000
0001
,
0200
0000
0000
0000
0301
2000
3200
0320
0032
0003
0000
0010
0001
0000
1000
2000
,
3020
0130
0001
1000
0100
0020
0230
2300
3001
0100
0001
1000
0000
0002
0203
0320
,
1030
0001
0100
0010
0100
0002
2003
3200
2300
3001
0100
0010
1000
0200
0320
0230
,
2300
0000
3001
0000
0100
0000
0001
0000
0000
0000
2000
0000
3200
0000
0320
0000
0032
0000
0000
0000
0000
0000
0000
0000
1003
0000
0200
0300
0020
0031
0020
0031
,
1000
0000
0400
0300
0040
0030
0040
0030
0001
0000
2000
3000
2000
3000
0200
0300
1000
0000
0004
0003
0004
0003
0040
0030
0001
0000
2000
0000
0000
0000
3020
0000
,
0000
0000
0230
0000
0000
0000
0302
0000
0000
0000
2003
3000
2000
3000
0002
0000
0100
0000
0103
0000
0004
0003
4000
3000
0004
0003
0020
0030
0200
0300
2000
3000
,
0002
0000
0003
0000
1001
0000
0001
0000
0100
0000
0002
0003
2000
3000
0020
0030
0020
0030
0400
0300
0004
0003
0040
0030
0400
0300
2000
3000
0002
0003
0200
0300
,
0002
0003
1000
0000
0001
0000
2020
0030
0000
0000
3020
0030
0200
0300
0020
0030
1000
0000
0010
1000
0010
0000
0100
0000
0001
0100
0001
0000
1000
0001
1000
0001
,
1000
0000
0001
0000
0100
0010
0000
0001
0000
0010
0100
0000
0001
0010
0000
0100
,
0010
0000
0001
0000
1000
0100
0000
1000
0000
0001
0100
0000
0010
1000
0000
1000
,
0001
0000
0010
0000
0001
0010
0000
1000
0000
0010
0001
0000
1000
0010
0000
0100
,
0000
0000
0010
0000
0100
0001
0000
1000
0000
1000
0100
0000
0000
0010
0001
1000
,
0100
0000
0010
0000
0100
0001
0000
0100
0000
0010
0100
0000
1000
0010
0000
0100
,
0001
0000
1000
0000
0100
1000
0000
0010
0000
1000
0001
0000
1000
0010
0000
0010
,
0100
0000
1000
0000
1000
0100
0000
0010
0000
1000
0100
0000
0010
0100
0000
0001
,
0000
0000
0100
0000
1000
0100
0000
1000
0000
1000
0001
0000
0000
1000
0001
0100
,
0010
0000
0010
0000
0100
0001
0000
0010
0000
0100
0010
0000
0100
1000
0000
1000
,
0100
0000
0001
0000
0100
0010
0000
0001
0000
1000
0001
0000
1000
0010
0000
0100
,
0001
0000
0100
0000
1000
0100
0000
0010
0000
1000
0001
0000
0001
1000
0000
0100
,
0000
0000
0010
0000
0100
0010
0000
1000
0000
0010
0100
0000
0000
0010
0001
0010
,
0100
0000
1000
0000
0001
0100
0000
0010
0000
1000
0001
0000
0100
0010
0000
0100
,
0001
0000
1000
0000
0001
0100
0000
0001
0000
1000
0100
0000
0010
0100
0000
0100
,
0010
0000
0100
0000
1000
0001
0000
0100
0000
0010
0001
0000
0001
0010
0000
1000
,
0000
0000
0100
0000
0010
0001
0000
1000
0000
0001
0010
0000
0000
0010
0001
1000
,
0001
0000
0100
0000
0010
1000
0000
0010
0000
0100
0001
0000
1000
0100
0000
0002
,
0000
0003
0100
0000
0100
0010
0000
0001
0000
1000
0100
0000
1000
0001
0000
0020
,
0000
0030
0001
0000
1000
0010
0000
0100
0000
1000
0100
0000
0010
1000
0000
0002
,
0000
0003
1000
0000
0001
0100
0000
0010
0000
0010
2000
3000
0000
1000
0010
2000
,
0000
3000
0100
0000
0010
1000
0000
0010
0000
0100
0010
0000
0100
1000
0000
2000
,
0000
3000
0001
0000
0100
0001
0000
1000
0000
0010
0100
0000
1000
0100
0000
0020
,
0000
0030
1000
0000
0100
0010
0000
0100
0000
1000
0001
0000
0010
0001
0000
2000
,
0000
3000
0001
0000
0001
0100
0000
0010
0000
0010
2000
3000
0000
0001
0100
2000
,
0000
3000
0100
0000
0001
0010
0000
0001
0000
1000
0100
0000
0010
0001
0000
2000
,
0000
3000
0001
0000
0100
0001
0000
1000
0000
0010
0100
0000
1000
0100
0000
0020
,
0000
0030
1000
0000
1000
0010
0000
0100
0000
0001
0100
0000
0010
1000
0000
0002
,
0000
0003
1000
0000
0010
0100
0000
0001
0000
0100
0020
0030
0000
1000
0100
0020
,
0000
0030
0010
0000
0010
1000
0000
0010
0000
0100
1000
0000
1000
0100
0000
0020
,
0000
0030
0001
0000
0100
0001
0000
1000
0000
1000
0010
0000
0001
0010
0000
2000
,
0000
3000
0001
0000
1000
0010
0000
0100
0000
0001
0100
0000
0010
1000
0000
0002
,
0000
0003
1000
0000
0001
0100
0000
0010
0000
0010
2000
3000
0000
0001
1000
0100
,
0020
0000
0030
0000
;

//---------------dance-single - MIDI----------------
#NOTES:
     dance-single:
     MIDI:
     Medium:
     7:
     0.694,0.791,0.057,1.000,0.052,391.000,6.000,113.000,12.000,0.000:



















0000
0000
0000
0000
,
0000
0000
0000
0000
,
0000
0000
0000
0000
0000
1000
0001
0200
,
0000
0000
0010
0000
0000
0301
1000
0200
,
0000
0000
0010
0010
0000
0000
0000
0320
,
0000
0000
0001
0002
0030
1003
0010
0200
,
0000
0000
0000
0002
0003
0001
0301
2000
,
0000
0MMM
0000
0MMM
0000
3001
0100
0020
,
0000
0000
1000
1000
0000
0130
0001
2000
,
0000
0000
0001
0001
0000
3001
1000
0200
,
0000
0000
0010
0310
0001
0001
1000
0020
,
0000
0000
0000
2000
0030
3001
0100
0002
,
0000
0000
0100
0100
0000
1003
0100
0020
,
0000
0000
0002
0000
0030
1003
0010
0200
,
0000
M0MM
0000
M0MM
0000
0301
1000
0020
,
0000
0000
0000
2000
0030
3010
0100
0002
,
0000
0000
2000
0000
3000
1003
0001
0200
,
0000
0000
0301
0200
0000
0310
1000
0010
,
0000
0100
0001
0200
0000
0000
0301
1000
,
0200
0000
0020
0300
0002
0030
1003
0010
,
0100
0100
0001
2000
0000
0000
3100
0020
,
0001
0100
1000
0100
,
0230
0000
0010
0000
0001
0000
0310
0010
,
0002
0000
2000
0003
0020
3000
0130
0010
,
1000
1000
0001
0200
0000
0000
0310
2000
,
0001
0100
0001
0010
,
3002
0000
1000
0000
0100
0000
1003
0001
,
0200
0000
0002
0300
2000
0003
3100
0010
,
0001
0001
0010
0200
0000
0000
1300
0002
,
0100
1000
0010
1003
,
2000
0000
0010
0000
0001
0000
3100
1000
,
0002
0000
0200
0003
0020
0300
1030
0001
,
0100
0100
0010
2000
0000
0000
3001
0200
,
0010
1000
0010
0001
,
0320
0000
1000
0000
1030
1000
0001
0100
,
0002
0000
0000
0000
0203
0000
0000
0000
0320
0000
0030
0010
2000
0000
0100
0000
,
3100
0010
0002
0000
1003
0001
0200
0000
,
0320
1000
2030
0000
0100
3100
0020
0000
,
0002
0030
2000
0003
0002
3000
0103
0010
,
0100
0001
1000
0100
0010
0100
1000
0001
,
0100
0000
0001
0000
1000
0000
0100
0000
0010
0000
0001
0000
1000
0001
1000
0000
,
0001
0101
0100
0110
0010
1010
1000
1001
,
0001
0000
0011
0000
0010
0000
0110
0000
0100
1000
0100
0000
1000
0001
1000
0001
,
2000
0000
0002
3000
0200
0003
0310
1000
,
0001
0001
0010
0200
0000
0000
1300
0002
,
0100
0010
0100
0010
,
2003
0000
0010
0000
0100
0000
3010
1000
,
0200
0000
0020
0300
0200
0030
1300
0001
,
0100
0100
0010
2000
0000
0000
3001
0020
,
0100
0001
0100
0001
,
0230
0000
0010
0000
1000
0000
0310
0001
,
0200
0000
0002
0300
2000
0003
3100
0010
,
0100
0100
1000
0002
0000
0000
0103
0020
,
0100
1000
0001
1000
,
0230
0000
0001
0000
1000
0000
0301
0010
,
0200
0000
2000
0300
0002
3000
0103
0010
,
1000
1000
0001
2000
0000
0000
3010
2000
,
0001
0001
0001
0001
,
3002
0000
1000
0000
1000
0000
1003
1000
,
0001
0100
0001
0000
2000
0000
3200
0000
,
0310
0001
0010
0000
0200
0000
2300
0000
,
3010
1000
0010
0000
0200
0000
0302
0000
,
2003
3002
0023
0230
,
1300
0000
1000
0001
0020
0000
0130
1000
,
0020
0000
0130
0001
2000
0000
3010
1000
,
0002
0000
0013
0100
2000
0000
3010
0100
,
0002
0000
1003
0001
0200
0000
0020
0300
,
2030
0000
3001
0010
0001
0001
1000
0010
,
2000
0000
3001
0100
0010
0010
1000
0001
,
0200
0000
0301
1000
0100
0100
0010
0100
,
2000
0000
3001
0100
0020
0000
2000
0030
,
3001
0000
1000
0000
0010
0000
0100
0000
0001
0000
1000
0000
0010
1000
0000
0002
,
0000
0000
0103
0000
0010
0000
1000
0000
0001
0000
1000
0000
0001
1000
0000
0200
,
0000
0000
0310
0000
0001
0000
1000
0000
0010
0000
0100
0000
0001
1000
0000
0020
,
0000
0130
0001
1000
0200
0000
0020
0300
,
0002
0030
0000
0000
0003
0000
0000
0000
;

//---------------dance-double - MIDI----------------
#NOTES:
     dance-double:
     MIDI:
     Hard:
     9:
     0.933,1.000,0.152,0.762,0.867,590.000,16.000,80.000,14.000,0.000:




00000000
00000000
00000000
00000000
,
00000000
00000000
00000000
00000000
,
00000000
00000000
00000000
00000000
00000000
00010000
00001000
00100000
,
00010000
01001000
00001000
00202000
00300000
00103000
00010000
01000000
,
00100000
10010000
00010000
02020000
00030000
03010000
00100000
00001000
,
00010000
00010100
00000100
00002200
00000300
00003100
00000010
00000001
,
00000100
00000100
00000010
00000010
00010000
00010000
00001000
00001000
,
00100000
00101000
00001000
00022000
00030000
00103000
00010000
10000000
,
00100000
01100000
00100000
20200000
00300000
30010000
01000000
00001000
,
00010000
00010100
00000100
02000200
00000300
03010000
10000000
00100000
,
02000000
00010000
00001000
03000200
,
00001300
00000001
00000100
00000202
00000003
00000310
00001000
00000100
,
00000010
00001000
00010000
00022000
00003000
00031000
00100000
00010000
,
10000000
10100000
00100000
02200000
00300000
03100000
00010000
00000010
,
00000200
MMMMM0MM
00000000
MMMMM0MM
00000300
00000001
00001000
00000200
,
00000000
00000000
00000000
00010000
00000000
00001300
00000010
00010000
,
00002000
00000000
02000000
00000000
00003000
03010000
10000000
02000000
,
00000000
00000000
00000000
00000000
00100000
00000000
00100000
00000000
00000000
00000000
03200000
00300000
00002000
00003000
00200000
00300000
,
00000000
00000000
00000200
00000300
00020000
00030000
00000200
00000000
00000000
00000000
00000300
00000000
00010000
00000000
00000001
00000000
,
00000100
00001000
00000100
00000010
00001000
00000000
00000100
00100000
,
00010000
00010000
10000000
01000000
00000000
00010000
01000000
20000000
,
01000000
00000000
00010000
00000000
01000000
00000000
00010000
30000000
,
00002000
00000000
01000000
00000000
10000000
00000000
01003000
00001000
,
00010000
00000100
00000001
00000100
00000010
00000000
00000001
00001000
,
00000100
00000100
00100000
00010000
00000000
10000000
00010000
01000000
,
00200000
10000000
01000000
00010000
,
02300000
00000000
00010000
00000000
00001000
00000000
03000100
00010000
,
00001000
00100000
00010000
10000000
01000000
00000000
00010000
01000000
,
10000000
10000000
00001000
01000000
00000000
00000100
00010000
00000001
,
00000200
00001000
00010000
00001000
,
00000302
00000000
00001000
00000000
00000010
00000000
00000103
00000010
,
00001000
00000100
00010000
00001000
01000000
00000000
00100000
10000000
,
01000000
01000000
00010000
00000100
00000000
00000001
00000100
00001000
,
00000002
00000100
00001000
00010003
,
00020000
00000000
00001000
00000000
01000000
00000000
00031000
01000000
,
00200000
00000000
00000000
00000000
10300000
01000000
00100000
00010000
02000000
00000000
03000000
00001000
00020000
00030000
00000200
00000300
,
00000020
00000031
00001000
00000001
00000100
00000010
00010000
00001000
00100000
00010000
01000000
00100000
00000000
00100000
10000000
00010000
,
01000000
00010000
01000000
00100000
20000000
00000000
30000000
00000000
02000000
00000000
03000000
00100000
00020000
00030000
00000020
00000030
,
00000200
00000000
00001300
00000000
00000100
00000000
00010000
00000000
00000000
00000000
00000001
00000000
00000100
00000000
00001000
00000000
02000000
00000000
00000000
00000000
03000000
00000000
00000000
00000000
00100000
00000000
10000000
00000000
00010000
01000000
00010000
01000000
,
00001000
00010000
00001000
10000000
01000000
00010000
01000000
10000000
00001000
01000000
00000100
00010000
00000100
00000010
00000001
00000100
,
00001000
00000100
00000010
00010000
00001000
00100000
00010000
00000010
00010000
00100000
00000100
00001000
01000000
00001000
00000100
00000010
,
00000001
00010000
00002000
01003000
00100000
00010000
00000020
00000130
00000001
00001000
00000200
00100300
00010000
01000000
00200000
10300000
,
01000000
00000000
00100000
00000000
00020000
00000000
00030010
00000000
00000100
00000000
00001000
00000000
00000002
00000000
00000103
00000000
00000010
00000000
00010000
00001000
00010000
00000000
00001000
00000000
01000000
00001000
01000000
00000000
00000100
00010000
00000100
00010000
,
00000100
00000000
00010000
00000000
00001000
00000000
00100000
00010000
00200000
00000000
00000000
00000000
00301000
00000000
00010000
00000000
,
00001000
01000000
00100000
20000000
00000000
31000000
00100000
00010000
,
01000000
00000000
00001000
00000000
00100000
00001000
00000000
00010000
00000000
00000010
00001000
00000000
00000001
00000100
00000000
00000010
,
00000000
00000000
00001000
00000000
00000010
00000100
00000000
00000001
00000000
00010000
00001000
00000000
00000000
00010000
00001000
00100000
,
00010000
00000000
00100000
00000000
00000100
00000000
00001000
00000100
00002000
00000000
00000000
00000000
00003001
00000000
00000100
00000000
,
00000010
00000010
00001000
00000200
00000000
00010300
00000100
00100000
,
00010000
00000000
00100000
00000000
01000000
00100000
00000000
00010000
00000000
00010000
10000000
00000000
00010000
01000000
00000000
00100000
,
00000000
00000000
01000000
00000000
00000100
00010000
00000000
00001000
00000000
00010000
00000010
00000000
00000000
00000100
00000010
00001000
,
00000001
00000000
00000100
00000000
00000010
00000000
00010000
00001000
00020000
00000000
00000000
00000000
01030000
00000000
10000000
00000000
,
00010000
01000000
00000100
00020000
00000000
00030010
00000100
00000001
,
00001000
00000000
00000100
00000000
00010000
00001000
00000000
00100000
00000000
00010000
01000000
00000000
00100000
10000000
00000000
00100000
,
00000000
00000000
01000000
00000000
00010000
01000000
00000000
00001000
00000000
00001000
00010000
00000000
00000000
00000100
00001000
00000010
,
00000100
00000000
00000001
00000000
00000010
00000000
00000100
00001000
00000200
00000000
00000000
00000000
00100300
00000000
00001000
00000000
,
00010000
01000000
00100000
00020000
00000000
10030000
00010000
01000000
,
00001000
00000000
00010000
00000000
00000100
00001000
00000000
00000010
00000000
00010000
00001000
00000000
00100000
00010000
00000000
01000000
,
00000000
00000000
00010000
00000000
00010000
01000000
00000000
00001000
00000000
00001000
00010000
00000000
00000000
00001000
00100000
00010000
,
01000000
00000000
00100000
00000000
10000000
00010000
00000000
01000000
00000000
00001000
00010000
00000000
00000100
00001000
00000000
00000020
,
00000000
00000000
00000130
00000000
00000001
00001000
00000000
00000100
00000000
00000100
00010000
00000000
00001000
00100000
00000000
00020000
,
00000000
00000000
01030000
00000000
00010000
01000000
00000000
00100000
00000000
10000000
00100000
00000000
01000000
00001000
00000000
00020000
,
00000000
00000000
00030100
00000000
00000100
00001000
00000000
00000010
00000000
00000010
00000100
00000000
00000000
00000001
00001000
00000200
,
00000000
00000000
00010300
00000000
00010000
00001000
00000000
01000000
00000000
00010000
00100000
00000000
00001000
01000000
00000000
00200000
,
00000000
00000000
10300000
00000000
00010000
00100000
00000000
01000000
00000000
01000000
00100000
00000000
00001000
00100000
00000000
00020000
,
00000000
00000000
01030000
00000000
00010000
01000000
00000000
00100000
00000000
10000000
00100000
00000000
01000000
00001000
00000000
00020000
,
00000000
00000000
00031000
00000000
00100000
00010000
00000000
01000000
00000000
01000000
00100000
00000000
00000000
10000000
00010000
02000000
,
00000000
00000000
03100000
00000000
10000000
00010000
00000000
00100000
00000000
00010000
10000000
00000000
01000000
00100000
00000000
00002000
,
00000000
00000000
00013000
00000000
00000010
00001000
00000000
00000001
00000000
00000001
00000100
00000000
00000010
00001000
00000000
00000200
,
00000000
00000000
00010300
00000000
00001000
00010000
00000000
00000100
00000000
00100000
00010000
00000000
01000000
00001000
00000000
00020000
,
00000000
00000000
00030100
00000000
00000100
00001000
00000000
00000010
00000000
00000010
00000100
00000000
00000000
00000010
00000100
00000002
,
00000000
00000000
00001003
00000000
00000100
00010000
00000000
01000000
00000000
00100000
00010000
00000000
00000010
00000100
00000000
00002000
,
00000000
00000000
00003100
00000000
00001000
00000001
00000000
00000100
00000000
00000100
00000010
00000000
00100000
00000100
00000000
00020000
,
00000000
00000000
00031000
00000000
01000000
00100000
00000000
10000000
00000000
00010000
00100000
00000000
01000000
00010000
00000000
02000000
,
00000000
00000000
03100000
00000000
00010000
01000000
00000000
00001000
00000000
00010000
00001000
00000000
00000000
00100000
00001000
01000000
,
00020000
00000000
00030000
00000000
;

//---------------dance-single - MIDI----------------
#NOTES:
     dance-single:
     MIDI:
     Easy:
     3:
     0.439,0.611,0.067,0.714,0.000,241.000,7.000,75.000,0.000,0.000:














0000
0000
0000
0000
,
0000
0000
0000
0000
,
0000
0000
0000
0000
,
1000
0200
0000
0000
,
0310
0002
0000
0000
,
1003
0020
0000
0000
,
0130
0100
0010
0010
,
1000
0002
0000
0000
,
0103
0020
0000
0000
,
1030
0200
0000
0000
,
0310
0010
0100
0100
,
1000
0000
2001
0000
,
3001
0000
1002
0000
,
1003
0000
2010
0000
,
3010
0000
0120
0000
,
0130
0001
2000
3000
,
0010
0001
0200
0300
,
0010
1000
0002
0003
,
0010
0100
2000
3000
,
0001
0100
0010
1000
,
0100
1000
0001
0010
,
0200
0000
2300
0000
,
3002
0000
0203
0000
,
0310
1000
0001
0010
,
0001
1000
0100
0010
,
0002
0000
2003
0000
,
3020
0000
0230
0000
,
0301
1000
0100
1000
,
0001
0010
0100
1000
,
0020
0000
0230
0000
,
0302
0000
2003
0000
,
3100
1000
0001
0100
,
0010
1000
0001
0010
,
0200
0000
2300
0000
,
3002
0000
0203
0000
,
0310
1000
0100
0010
,
0001
0100
0002
0000
,
1003
0100
0010
0100
,
1000
0001
0200
0000
,
0310
1000
0010
1000
0001
0100
0001
0100
,
0010
0100
0010
0100
0010
1000
0010
1000
,
0100
0210
0310
0021
,
0031
0000
1002
0000
1003
0001
1000
0001
,
0100
0010
1000
0001
,
0010
0100
1000
0001
,
0200
0000
0320
0000
,
2030
0000
3002
0000
,
0013
0100
1000
0100
,
1000
0001
0100
0010
,
2000
0000
3002
0000
,
0023
0000
0230
0000
,
1300
0100
1000
0001
,
0010
0100
1000
0001
,
0200
0000
0320
0000
,
2030
0000
3200
0000
,
0310
0001
0010
0100
,
1000
0001
0100
0010
,
2000
0000
3002
0000
,
0023
0000
0032
0000
,
1003
0010
0100
0001
,
2000
3100
0010
0100
,
2000
3001
0100
0010
,
2000
3001
0200
0320
,
2030
3100
0010
0001
,
0020
0031
1000
0010
,
0200
0301
1000
0001
,
0020
0130
2000
3002
,
0203
0310
1000
0100
,
0020
0031
0100
0010
,
2000
3100
1000
0001
,
0020
0130
2000
3002
,
0203
0310
1000
0001
,
0020
0031
1000
0100
,
2000
3010
0100
0001
,
2000
3001
0200
0320
,
2030
0000
3000
0000
;

//---------------dance-single - MIDI----------------
#NOTES:
     dance-single:
     MIDI:
     Beginner:
     1:
     0.178,0.250,0.019,0.000,0.000,129.000,2.000,0.000,0.000,0.000:






0000
0000
0000
0000
,
0000
0000
0000
0000
,
0000
0000
0000
0000
,
1000
0000
0000
0000
,
0001
0000
0000
0000
,
0100
0000
0000
0000
,
0010
0000
0000
0000
,
0100
0000
0000
0000
,
0001
0000
0000
0000
,
0010
0000
0000
0000
,
0100
0000
0000
0000
,
1000
0000
0000
0000
,
0001
0000
0000
0000
,
0100
0000
0000
0000
,
0010
0000
0000
0000
,
1000
0000
0000
0000
,
0001
0000
0000
0000
,
0010
0000
0000
0000
,
0100
0000
0000
0000
,
1000
0000
0001
0000
,
0100
0000
0000
0000
,
0010
0000
1000
0000
,
0100
0000
0000
0000
,
0010
0000
0001
0000
,
1000
0000
0000
0000
,
0001
0000
0100
0000
,
0010
0000
0000
0000
,
1000
0000
0100
0000
,
1000
0000
0000
0000
,
0001
0000
0010
0000
,
0001
0000
0000
0000
,
0100
0000
0010
0000
,
1000
0000
0000
0000
,
0001
0000
0100
0000
,
0001
0000
0000
0000
,
1001
0000
0100
0000
,
0010
0000
0001
0000
,
1000
0000
0010
0000
,
0100
0000
0001
0000
,
1000
0100
0010
0000
,
0001
1000
0010
0000
,
0100
0001
1000
0000
,
0100
1000
0001
0000
,
1000
0000
0001
0000
,
0100
0000
0010
0000
,
1000
0000
0000
0000
,
0100
0000
0010
0000
,
0001
0000
0100
0000
,
0010
0000
0000
0000
,
1000
0000
0001
0000
,
0100
0000
0001
0000
,
1000
0000
0000
0000
,
0100
0000
0010
0000
,
0100
0000
1000
0000
,
0001
0000
0000
0000
,
0100
0000
0010
0000
,
1000
0000
0001
0000
,
0010
0000
0100
0000
,
1000
0000
0100
0000
,
1000
0010
1000
0000
,
0100
0000
0010
0000
,
0001
1000
0001
0000
,
1000
0000
0100
0000
,
0010
0100
0010
0000
,
0001
0000
1000
0000
,
0010
1000
0010
0000
,
0100
0000
0001
0000
,
1000
0100
1000
0000
,
0001
0000
0010
0000
,
0001
1000
0001
0000
,
1000
0000
0010
0000
,
0100
0001
0100
0000
,
0010
0000
1000
0000
,
0100
0010
0100
0000
,
1000
0000
0001
0000
,
1001
0000
0000
0000
;
