#TITLE:Mighty Obstacle;
#SUBTITLE:;
#ARTIST:S.S.H.;
#TITLETRANSLIT:;
#SUBTITLETRANSLIT:;
#ARTISTTRANSLIT:;
#CREDIT:;
#BANNER:../fallback - bn.png;
#BACKGROUND:../fallback - bg.png;
#LYRICSPATH:;
#CDTITLE:;
#MUSIC:Mighty Obstacle.ogg;
#OFFSET:-6.405;
#SAMPLESTART:44.398;
#SAMPLELENGTH:12.000;
#SELECTABLE:YES;
#BPMS:0.000=138.511;
#STOPS:;
#BGCHANGES:;
// cache tags:
#FIRSTBEAT:3.000;
#LASTBEAT:332.500;
#SONGFILENAME:Songs/Beast Aoreo BEAST!/Mighty Obstacle - [Aoreo]/Mighty Obstacle.sm;
#HASMUSIC:1;
#HASBANNER:1;
#MUSICLENGTH:153.939;
// end cache tags

//---------------dance-single - J. Nero----------------
#NOTES:
     dance-single:
     J. Nero:
     Challenge:
     14:
     1.000,1.000,0.188,0.773,1.000,1143.000,29.000,119.000,37.000,0.000:
0000
0000
0000
0000
0000
0000
0000
0000
0000
0000
0000
0000
2000
0000
0000
3000
,
1001
0000
0001
0100
0000
0100
0010
0000
2000
3000
0000
0020
0030
0000
0200
0300
,
0101
0000
0000
0000
0001
0000
1000
0000
0000
0000
1000
0000
0100
0000
0000
0000
1000
0000
0010
0000
0100
0000
0001
0000
0010
0000
0100
0000
1000
0000
0001
1000
,
0001
0000
0000
0000
1000
0000
0100
0000
0000
0000
0100
0000
0010
0000
0000
0000
0002
0000
0003
0000
0000
0000
2000
0000
3000
0000
0001
1000
0002
0000
0000
0000
,
1003
0000
0000
0010
0000
0000
0100
0000
0000
0001
0000
0000
0010
0000
0000
0100
0000
0000
1000
0000
0000
0010
0000
0000
0100
0000
0000
0001
0000
0000
0100
0000
0000
0010
0000
0000
1000
0000
0000
0100
0000
0000
1000
0000
0100
0000
0010
0000
,
0001
0000
0010
0100
0000
0100
1000
0000
0002
0000
0103
0010
0000
0010
1000
0000
,
0010
0000
0100
0001
0000
1000
0001
0000
1000
0010
0100
0002
0000
0003
0010
0000
,
0110
0000
0100
1000
0000
1000
0010
0000
0210
0000
0000
0301
0000
0000
1000
0000
,
0001
0000
0000
0010
0000
0000
0100
0000
0000
1000
0000
0000
0010
0000
0000
0100
0000
0000
0001
0000
0000
1000
0000
0000
0100
0000
0000
1000
0000
0000
0010
0000
0000
0100
0000
0000
0001
0000
0000
1000
0000
0000
0001
0000
0100
0000
0010
0000
,
1000
0010
0100
0000
0001
0010
0000
0010
0100
1000
0010
0100
0001
0000
0100
0000
,
0010
0000
0000
1000
0000
0000
0001
0000
0000
0000
0000
0000
0010
0000
0000
0000
0000
0000
0010
0000
0000
0000
0000
0000
0100
0000
0000
0000
0000
0000
1000
0000
0100
0000
0010
0000
0001
0000
0000
0000
0000
0000
0100
0000
0010
0000
1000
0000
,
0001
0000
0000
0100
0000
0000
0010
0000
0000
0000
0000
0000
1000
0000
0000
0100
0000
0000
0000
0000
0000
0100
0000
0000
0010
0000
0000
0000
0000
0000
0001
0000
0100
0000
0010
0000
1000
0000
0000
0000
0000
0000
0100
0000
1000
0000
0010
0000
,
0100
0000
0100
0000
0001
0000
0010
0000
0010
0000
0001
0000
1000
0000
1000
0000
0010
0000
0100
0000
0100
0000
0001
0000
1000
0001
1000
0000
0001
0000
1000
0000
,
0001
0100
0001
0010
0100
1000
0010
0100
0001
1000
0010
0200
0000
0301
0010
0100
,
1000
0000
0000
0001
0000
0000
1000
0000
0000
0010
0000
0000
0100
0000
0000
0001
0000
0000
1000
0000
0000
0010
0000
0000
0100
0000
0000
0000
0000
0000
0001
0000
0010
0000
0100
0000
1000
0000
0000
0000
0000
0000
0010
0000
0100
0000
0001
0000
,
1000
0000
0000
0010
0000
0000
1000
0000
0000
0000
0000
0000
0001
0000
0000
0010
0000
0000
0000
0000
0000
0010
0000
0000
0100
0000
0000
0000
0000
0000
1000
0000
0100
0000
1000
0000
0010
0000
0000
0000
0000
0000
0100
0000
0001
0000
1000
0000
,
0001
0000
0000
0001
0000
0000
0100
0000
0000
0010
0000
0000
0010
0000
0000
1000
0000
0000
0100
0000
0000
0100
0000
0000
1000
0000
0000
0010
0000
0000
0010
0000
0000
0100
0000
0000
0001
0000
0010
0000
0100
0000
1000
0000
0010
0000
0100
0000
,
0001
0100
0001
0000
0010
0100
0000
0100
1000
0000
0001
0010
0000
0010
0100
0000
,
1000
0100
0010
0002
0000
0000
0103
0000
0020
0000
0130
0001
0010
0100
1000
0010
,
0100
0000
0001
1000
0000
0010
0100
0000
0001
0010
0100
1000
0000
0010
0100
0000
,
0001
0000
0000
0000
0010
0000
0100
0000
0000
0000
0100
0000
1000
0000
0000
0000
0001
0000
0000
0000
1000
0000
1000
0000
0010
0000
0010
0000
0100
0000
0001
0100
,
0001
0000
0100
0001
0000
0001
0010
0100
2000
0000
3020
0000
0230
0000
0302
0000
,
1003
0100
1000
0020
0000
0030
0200
0002
0300
0003
0100
0010
1000
0001
0010
0100
,
1000
0000
0001
0010
0000
0010
0100
0000
1000
0010
0100
0001
0000
0010
0001
0000
,
0010
0000
0000
0001
0000
0000
0100
0000
0000
0010
0000
0000
1000
0000
0000
0100
0000
0000
1000
0000
0000
0001
0000
0000
0100
0000
0000
0010
0000
0000
1000
0000
0100
0000
1000
0000
0010
0000
0100
0000
0001
0000
0010
0000
0100
0000
1000
0000
,
0010
0000
0100
0001
0000
0100
0001
1000
0020
0000
0230
0000
0302
0000
2003
0000
,
3001
0010
0100
2000
0000
3000
0002
0020
0003
0000
0130
1000
0010
0100
0001
0100
,
0010
0000
1000
0100
1000
0010
0100
0001
0010
0000
0100
1000
0010
0100
0001
1000
,
0001
0000
0000
0000
0100
0000
0001
0000
0000
0000
1000
0000
0100
0000
0000
0000
1000
0000
0001
0000
0010
0000
0100
0000
1000
0000
0010
0000
0100
0000
0001
1000
,
0001
0000
1000
0001
0000
0010
0100
1000
0020
0000
0230
0000
0302
0000
2003
0000
,
3100
0010
0001
0200
0000
0000
0310
2000
0000
0000
3001
0010
0100
1000
0010
0100
,
0001
0000
0100
0001
0000
0001
1000
0000
0100
0100
0010
0001
0001
1000
0100
0100
,
1000
0000
0010
0100
0000
0001
0010
0000
0200
0300
0000
2000
3000
0000
0001
0001
,
1000
0000
0000
0000
0010
0000
0100
0000
0000
0000
0001
0000
1000
0000
0000
0000
0001
0000
0001
0000
0100
0000
0010
0000
0010
0000
1000
0000
0001
0100
0001
0000
,
0100
0000
0000
0000
0001
0000
0010
0000
0000
0000
0010
0000
0100
0000
0000
0000
2000
0000
3000
0000
0000
0000
0020
0000
0030
0000
0100
0001
0100
0000
0000
0000
,
0001
0000
0000
0001
0000
0000
1000
0000
0000
0010
0000
0000
0010
0000
0000
0100
0000
0000
0001
0000
0000
0001
0000
0000
1000
0000
0000
0100
0000
0000
0100
0000
0000
1000
0000
0000
0010
0000
0000
0010
0000
0000
0100
0000
0001
0000
0010
0000
,
0100
1000
0100
1000
0010
0100
0001
0010
0100
1000
0100
1000
0010
0100
0001
0010
0100
1000
0010
0100
0001
1000
0100
0010
,
0001
0000
0010
0000
0100
0000
1000
0000
0010
0000
0100
0000
0001
0000
1000
0000
0100
0000
1000
0000
0010
0000
0100
0000
0002
0000
0000
0000
0000
0000
0000
0000
0000
0200
0000
0000
0300
0000
0000
0000
0000
0000
0200
0000
0000
0303
0000
0000
,
0020
0000
1030
0100
0000
0100
0010
0000
0022
0033
0000
0202
0303
0000
2020
3030
,
1000
0000
0000
0000
0000
0000
0000
0000
0000
0000
0000
0000
0010
0000
0000
0000
0000
0000
0000
0000
0000
0000
0000
0000
0100
0000
0000
0000
0000
0000
0000
0000
0000
0000
0000
0000
0001
0000
0000
0000
0000
0000
0000
0000
0000
0000
0000
0000
0010
0000
0000
0000
0000
0000
0000
0000
0000
0000
0000
0000
0100
0000
0000
0000
0000
0000
0000
0000
0000
0000
0000
0000
1000
0000
0000
0000
0000
0000
0000
0000
0000
0000
0000
0000
0001
0000
0000
0000
0000
0000
0000
0000
0000
0000
0000
0000
0100
0000
0000
0000
0000
0000
0001
0000
0000
0000
0000
0000
0100
0000
0000
0000
0000
0000
0000
0000
0000
0000
0000
0000
0001
0000
0000
0000
0000
0000
0000
0000
0000
0000
0000
0000
0010
0000
0000
0000
0000
0000
0100
0000
0000
0000
0000
0000
0010
0000
0000
0000
0000
0000
0000
0000
0000
0000
0000
0000
0100
0000
0000
0000
0000
0000
0000
0000
0000
0000
0000
0000
1000
0000
0000
0000
0000
0000
0000
0000
0100
0000
0000
0000
0000
0000
0000
0000
0010
0000
0000
0000
0000
0000
0000
0000
,
M001
0100
01MM
1000
010M
0100
M001
0010
0010
100M
0100
M10M
0010
0010
0M01
M000
,
0M10
0010
100M
0100
0100
M0M1
0100
0100
1000
001M
0010
0100
M100
0001
01M0
0000
,
M001
01M0
0100
100M
0010
0010
M001
0100
0100
10M0
010M
0100
M001
0010
0M10
1000
,
010M
0000
0100
0000
0010
0000
M010
0000
0100
0000
010M
0000
0010
0000
M010
0000
0100
0000
010M
0000
0010
0000
M010
0000
0001
0000
0100
0000
00M1
1000
0001
0000
,
2M00
0000
3001
1000
0010
0100
0001
0010
0200
0000
1300
0010
0100
0001
1000
0010
,
0200
0000
0301
1000
0100
0010
0001
0100
0010
1000
0000
0010
0100
0000
0001
0000
,
0010
0000
0000
0010
0000
0000
0100
0000
0000
1000
0000
0000
1000
0000
0000
0010
0000
0000
0100
0000
0000
0100
0000
0000
0001
0000
0000
1000
0000
0000
1000
0000
0000
0010
0000
0000
0100
0000
0001
0000
0010
0000
0100
0000
1000
0000
0010
0000
,
0100
0000
0010
0000
0100
0000
0001
0000
0010
0000
0100
0000
1000
0000
0100
0000
1000
0000
0001
0000
0100
0000
0010
0000
0100
0000
0001
0000
1000
0001
1000
0000
,
0001
0010
0100
0000
1000
0100
0000
0100
0010
0000
0001
0100
0000
0010
1000
0000
,
0001
0000
0000
0100
0000
0000
0001
0000
0000
0010
0000
0000
0200
0000
0000
0300
0000
0000
2000
0000
0000
3000
0000
0000
0020
0000
0000
0030
0000
0000
0100
0000
0001
0000
1000
0000
0010
0000
0000
0000
0000
0000
0100
0000
0001
0000
1000
0000
,
0100
0000
0000
1000
0000
0000
0010
0000
0000
0100
0000
0000
0001
0000
0000
0000
0000
0000
0010
0000
0100
0000
1000
0000
0020
0000
0000
0030
0000
0000
0200
0000
0000
0300
0000
0000
0002
0000
0000
0003
0000
0000
2000
0000
0000
3000
0000
0000
,
0001
0000
0000
0000
0000
0000
0000
0000
1000
0000
0000
0000
0000
0000
0000
0000
0001
0000
0000
0000
0000
0000
0000
0000
0010
0000
0000
0000
0000
0000
0000
0000
0100
0000
0000
0000
0000
0000
0000
0000
1000
0000
0000
0000
0000
0000
0000
0000
0100
0000
0000
0000
0000
0000
0000
0000
1000
0000
0000
0000
0000
0000
0000
0000
0001
0000
0000
0000
0000
0000
0000
0000
0100
0000
0000
0000
0000
0000
0000
0000
0010
0000
0000
0000
0000
0000
0000
0000
1000
0000
0000
0000
0000
0000
0000
0000
0001
0000
0000
0000
0000
0000
0000
0000
0100
0000
0000
0000
0000
0000
0000
0000
0010
0000
0000
0000
0000
0000
0000
0000
1000
0000
0000
0000
0000
0000
0000
0000
0100
0000
0000
0000
0000
0000
0000
0000
1000
0000
0000
0000
0000
0000
0000
0000
0001
0000
0000
0000
0000
0000
1000
0000
0000
0000
0000
0000
0001
0000
0000
0000
0000
0000
0000
0000
0000
0000
0000
0000
1000
0000
0000
0000
0000
0000
0000
0000
0000
0000
0000
0000
0001
0000
0000
0000
0000
0000
0000
0000
0000
0000
0000
0000
,
0100
0001
0010
0100
1000
0100
1000
0001
0010
0100
1000
0010
0100
0001
1000
0010
0100
0001
1000
0100
1000
0010
1000
0010
,
0100
0010
0100
0001
0010
0100
1000
0100
0010
0001
0100
0010
1000
0100
1000
0001
0100
0010
0100
0001
0010
0100
1000
0010
,
0100
0010
0100
0001
2000
0000
3001
0010
0100
1000
0010
0200
0000
0000
0301
0000
,
1000
0001
1000
0001
0010
0100
1000
0100
1000
0001
0100
0001
0100
0010
1000
0100
0010
0001
0100
0010
1000
0100
1000
0001
,
0100
0001
0100
0000
0001
0010
0000
0010
0100
0000
1000
0100
0000
0100
0010
0000
,
0001
0010
0100
2000
0000
3000
0001
0200
0000
0000
0310
1000
0100
0010
0001
0100
,
0010
0000
1000
0001
0000
0100
0010
0000
1000
0100
0010
0001
0000
0100
0010
0000
,
1000
0000
0000
0000
0100
0000
0010
0000
0000
0000
0010
0000
0001
0000
0000
0000
1000
0000
0000
0000
0001
0000
0001
0000
0100
0000
0100
0000
0010
0000
1000
0010
,
1000
0000
0010
0100
0000
0100
0001
0010
0200
0300
2000
3000
0020
0030
0200
0300
,
0001
1000
0010
0200
0000
0300
0002
2000
0003
0000
3010
0100
0001
1000
0100
0010
,
0001
0000
1000
0100
0000
0100
0010
0000
0001
0010
0100
0010
0000
0100
1000
0000
,
0100
0000
0000
1000
0000
0000
0010
0000
0000
0100
0000
0000
0001
0000
0000
0010
0000
0000
0001
0000
0000
1000
0000
0000
0001
0000
0000
0100
0000
0000
0010
0000
0100
0000
0010
0000
1000
0000
0001
0000
0010
0000
0100
0000
1000
0000
0100
0000
,
0010
0001
1000
0100
0010
0001
0010
0100
1000
0001
0010
0100
1000
0100
0010
0001
1000
0100
1000
0100
1000
0001
0010
0100
,
1000
0010
0100
0001
1000
0100
1000
0010
0100
0001
0010
0100
1000
0100
1000
0001
0100
0010
0100
0001
0010
0100
1000
0100
,
0010
0001
0100
0010
1000
0001
1000
0100
1000
0010
0100
0001
0010
0100
1000
0100
1000
0001
1000
0001
0100
0010
0100
0001
,
0010
0000
0100
0000
1000
0000
0010
0000
0100
0000
0001
0000
1000
0000
0010
0000
0100
0000
0010
0000
1000
0000
0001
0000
0010
0000
0100
0000
1000
0000
0010
0000
0000
1000
0000
0000
0001
0000
0000
0010
0000
0000
0100
0000
0000
1000
0000
0000
,
0010
0000
0100
0001
0000
1000
0100
1000
0020
0030
0200
0300
0002
0003
2000
3000
,
0100
1000
0100
0020
0000
0000
0031
0200
0000
0000
0301
1000
0100
0010
0001
0100
,
0010
0000
0100
0001
0000
1000
0010
0000
1000
1000
0010
0100
0100
0001
1000
1000
,
0001
0000
0000
0000
0010
0000
0100
0000
0000
0000
0100
0000
1000
0000
0000
0000
0001
0000
0001
0000
0100
0000
0010
0000
0010
0000
1000
0000
0001
1000
0001
0000
,
0100
0000
0001
0010
0000
0010
0100
0000
2200
3300
0000
2020
3030
0000
0220
0330
,
0100
0001
0010
0100
0000
1000
0010
0000
0220
0330
0000
0202
0303
0000
2002
3003
,
1000
0100
0010
0001
0000
0100
0010
0000
0220
0330
0000
2020
3030
0000
2002
3003
,
0001
0000
0000
0000
0000
0000
0010
0000
0000
0100
0000
0000
0000
0000
0000
0100
0000
0000
1000
0000
0000
0000
0000
0000
0001
0000
0000
1000
0000
0000
1000
0000
0000
0010
0000
0000
0100
0000
0000
0100
0000
0000
0001
0000
0010
0000
0100
0000
,
1000
0000
0010
0100
0000
0001
1000
0000
2200
3300
0000
2020
3030
0000
0202
0303
,
0001
0010
0100
1000
0000
0010
0100
0000
0220
0330
0000
0202
0303
0000
2002
3003
,
1000
0100
0010
0001
0000
0100
0001
0000
0202
0303
0000
2002
3003
0000
2200
3300
,
1000
0000
0000
0000
0000
0000
0000
0000
0000
0000
0000
0000
0100
0000
0000
0000
0000
0000
0000
0000
0000
0000
0000
0000
1000
0000
0000
0000
0000
0000
0000
0000
0000
0000
0000
0000
0010
0000
0000
0000
0000
0000
0000
0000
0000
0000
0000
0000
0100
0000
0000
0000
0000
0000
0000
0000
0000
0000
0000
0000
0001
0000
0000
0000
0000
0000
0000
0000
0000
0000
0000
0000
0010
0000
0000
0000
0000
0000
0000
0000
0000
0000
0000
0000
0100
0000
0000
0000
0000
0000
0000
0000
0000
0000
0000
0000
1000
0000
0000
0000
0000
0000
0000
0000
0100
0000
0000
0000
0000
0000
0000
0000
1000
0000
0000
0000
0000
0000
0000
0000
0010
0000
0000
0000
0000
0000
0000
0000
0100
0000
0000
0000
0000
0000
0000
0000
0001
0000
0000
0000
0000
0000
0000
0000
1000
0000
0000
0000
0000
0000
0000
0000
0001
0000
0000
0000
0000
0000
0000
0000
1000
0000
0000
0000
0000
0000
0000
0000
0001
0000
0000
0000
0000
0000
1000
0000
0000
0000
0000
0000
0001
0000
0000
0000
0000
0000
0000
0000
0000
0000
0000
0000
,
2M00
0000
0000
00M0
0000
0000
0M00
0000
0000
00M0
0000
0000
3001
1000
0100
0010
0001
0100
0010
1000
0001
0100
0010
0100
,
0001
0100
0100
0010
1000
1000
0001
0000
0202
0303
0000
2002
3003
0000
2200
3300
,
1000
0001
0000
0000
0000
0000
0000
0000
1000
0010
0010
0100
0001
0001
1000
0001
,
2002
3003
0000
0000
0000
0000
0000
0000
;
