#TITLE:Battle Theme;
#SUBTITLE:Legend of Dragoon;
#ARTIST:Dennis Martin;
#TITLETRANSLIT:;
#SUBTITLETRANSLIT:;
#ARTISTTRANSLIT:;
#CREDIT:;
#BANNER:battle.png;
#BACKGROUND:b4 battle.png;
#LYRICSPATH:;
#CDTITLE:;
#MUSIC:LoD_Battle.mp3;
#OFFSET:-0.460;
#SAMPLESTART:10.007;
#SAMPLELENGTH:12.000;
#SELECTABLE:YES;
#BPMS:0.000=149.920,149.000=112.920,156.000=149.920;
#STOPS:148.000=0.420
,151.000=0.280
,152.000=0.280
,153.000=0.280
,155.000=1.020
;
#BGCHANGES:0.000=black-bg.png=1.000=1=0=1,
4.000=beginning.png=1.000=1=0=1,
20.000=LOD battle.avi=0.950=0=0=1,
154.000=black-bg.png=1.000=1=0=1,
156.000=victory.png=2.000=1=0=1,
99999=-nosongbg-=1.000=0=0=0 // don't automatically add -songbackground-
;
// cache tags:
#FIRSTBEAT:0.000;
#LASTBEAT:196.000;
#SONGFILENAME:Songs/toune 2/battle/Battle Theme.sm;
#HASMUSIC:1;
#HASBANNER:1;
#MUSICLENGTH:90.044;
// end cache tags

//---------------dance-single - ----------------
#NOTES:
     dance-single:
     :
     Medium:
     7:
     0.560,0.735,0.644,1.000,0.150,203.000,58.000,92.000,0.000,0.000:
2002
0000
0000
0000
0000
0000
0000
0000
0000
3003
0000
0000
1000
0000
0000
0000
0100
0000
0000
0000
1000
0000
0000
0000
,
0100
0000
0010
0000
0001
0100
0001
1000
,
0001
0000
0100
0000
0010
1000
0100
1000
,
0010
0000
0100
0000
0001
1000
0100
1000
,
0010
0000
0100
0000
0001
0010
0001
0100
,
0010
0000
0000
1000
0000
0000
0010
0000
1000
0000
0000
0010
0000
0000
1000
0000
,
0010
0000
0000
1000
0000
0000
0010
0000
1000
0000
0000
0010
0000
0000
1000
0000
,
0010
1000
0010
1000
0000
0000
0000
0000
,
2020
0000
0000
0000
0000
0000
0000
3030
,
0100
0000
0000
0001
0000
0000
0100
0000
0001
0000
0000
0100
0000
0000
0001
0000
,
0100
0000
0000
0001
0000
0000
0100
0000
0001
0000
0000
0100
0000
0000
0001
0000
,
0100
0001
0100
0000
0001
0100
0001
0000
0100
0001
0100
0000
0001
0100
0001
0000
,
0202
0000
0000
0000
0000
0000
0000
0303
,
2200
0000
0000
0000
3300
0000
0022
0033
,
2200
0000
0000
3300
0202
0000
0000
0303
,
2020
0000
0000
3030
0022
0000
0000
0033
,
2200
0000
0000
3300
0220
0000
0000
0330
,
2200
0000
0000
0000
3300
0000
0022
0033
,
2200
0000
0000
3300
2020
0000
0000
3030
,
0202
0000
0000
0303
0022
0000
0000
0033
,
0220
0330
0022
0033
2002
3003
2200
3300
,
1001
0000
0000
1100
,
0101
0000
1001
0101
,
0110
0000
0011
1001
,
0101
0000
1100
1001
,
1000
0100
0010
0001
0100
0001
0010
0001
,
0100
0010
1000
0100
1000
0010
0100
0001
,
1000
0100
1000
0010
0100
0001
0010
0001
,
0100
0000
0010
0000
1000
0000
0001
0000
1000
0100
0010
0001
1000
0100
0010
0001
,
0202
0000
0000
0000
0303
0000
2020
3030
,
0202
0000
0000
0303
2200
0000
0000
3300
,
0022
0000
0000
0033
2020
0000
0000
3030
,
0202
0000
0000
0303
0220
0000
0000
0330
,
0202
0000
0000
0000
0303
0000
2020
3030
,
0202
0000
0000
0303
0022
0000
0000
0033
,
2200
0000
0000
3300
2020
0000
0000
3030
,
0220
0330
2020
3030
2002
3003
0202
0303
,
0110
0000
1000
0001
1000
0002
1003
0002
,
1003
0002
1003
0002
1003
0000
0110
0000
,
2200
0000
0000
0000
0000
0000
0000
3300
,
1000
0000
0001
0000
0000
0000
1000
0000
0000
0000
0001
0000
0100
0000
1000
0100
,
0001
0000
0000
1000
0000
0000
0001
0000
0100
0000
0000
0010
0000
0000
1000
0000
,
0100
0000
0000
0010
0000
0000
0001
0000
0100
0000
0000
0010
0000
0000
1000
0000
,
2002
0000
0000
0000
0000
0000
0000
3003
,
0220
0000
0000
0000
0000
0000
0000
0330
,
1000
0000
0000
0001
0000
0000
0010
0000
0001
0000
0000
1000
0000
0000
0010
0000
,
0100
0000
0000
0001
0000
0000
1000
0000
0010
0000
0000
0100
0000
0000
0001
0000
,
2200
0000
0000
0000
0000
0000
0000
3300
,
0022
0000
0000
0000
0000
0000
0000
0033
,
1001
0000
0000
0000
;

//---------------dance-single - ----------------
#NOTES:
     dance-single:
     :
     Hard:
     9:
     0.685,0.898,0.944,1.000,0.372,257.000,85.000,90.000,0.000,0.000:
2002
0000
0000
0000
0000
0000
0000
0000
0000
3003
0000
0000
1100
0000
0000
0000
0100
0000
0000
0000
0010
0000
0000
0000
,
1001
0000
0100
0000
0010
0000
0001
1000
0001
0000
0100
0000
0010
0000
1000
0000
,
0001
0000
0100
0000
0001
0000
0010
0001
0100
0000
0010
0000
1000
0000
0010
0000
,
0100
0000
0001
0000
0010
0000
0100
1000
0010
0000
0100
0000
0001
0000
0010
0000
,
0001
0000
0100
0000
0001
0000
1000
0100
0010
0000
0001
0000
0100
0000
0001
0000
,
1001
0000
0000
0100
0000
0000
0010
0000
1100
0000
0000
0001
0000
0000
0100
0000
,
0110
0000
0000
0010
0000
0000
1000
0000
0101
0000
0000
0001
0000
0000
0100
0000
,
1001
0000
0100
0010
0100
0010
0100
0000
0000
0000
0000
0000
0000
0000
0000
0000
,
2200
0000
0000
3300
2002
0000
0000
3003
,
1100
0000
0000
0010
0000
0000
0100
0000
1001
0000
0000
1000
0000
0000
0100
0000
,
0110
0000
0000
0001
0000
0000
0100
0000
0101
0000
0000
1000
0000
0000
0010
0000
,
1000
0100
0010
0001
0000
0000
0001
0010
0100
1000
0000
0000
1000
0100
0010
0001
0000
0000
0001
0010
0100
1000
0000
0000
,
2002
0000
0000
0000
0000
0000
0000
3003
,
0220
0000
0000
0000
0330
0000
2002
3003
,
0220
0000
0000
0330
2020
0000
0000
3030
,
0202
0000
0000
0303
2002
0000
0000
3003
,
0220
0000
0000
0330
0022
0000
0000
0033
,
0220
0000
0000
0000
0330
0000
2002
3003
,
0220
0000
0000
0330
0202
0000
0000
0303
,
2020
0000
0000
3030
2002
0000
0000
3003
,
0022
0033
2002
3003
2200
3300
0220
0330
,
1100
0001
1000
0110
,
1010
0001
1100
1010
,
0011
1000
1001
1100
,
1010
0010
0110
1100
,
1000
0100
1000
0100
1000
0100
1000
0100
1000
0100
1000
0100
1000
0100
1000
0100
,
1000
0001
1000
0001
1000
0001
1000
0001
1000
0001
1000
0001
1000
0001
1000
0001
,
1000
0010
1000
0010
1000
0010
1000
0010
1000
0010
1000
0010
1000
0010
1000
0010
,
0100
0010
0100
0010
0100
0010
0100
0010
0100
0001
1000
0100
1000
0010
0100
0001
,
2020
0000
0000
0000
3030
0000
0202
0303
,
2020
0000
0000
3030
0220
0000
0000
0330
,
2002
0000
0000
3003
0202
0000
0000
0303
,
2020
0000
0000
3030
0022
0000
0000
0033
,
2020
0000
0000
0000
3030
0000
0202
0303
,
2020
0000
0000
3030
2002
0000
0000
3003
,
0220
0000
0000
0330
0202
0000
0000
0303
,
0022
0033
0202
0303
2200
3300
2020
3030
,
1100
0000
1000
0100
0010
0100
0110
0010
,
0110
1000
1001
0001
1001
0000
1100
0000
,
0220
0000
0000
0000
0000
0000
0000
0330
,
1001
0000
0000
0000
0000
0000
1001
0000
0000
0000
0000
0000
0000
0000
0000
0000
0000
0000
1001
0000
0000
0000
0000
0000
0000
0000
0000
0000
0000
0000
1000
0000
0100
0000
1000
0000
0100
0000
0000
0000
0000
0000
0010
0000
0000
0001
0000
0000
,
1001
0000
0000
0100
0000
0000
0010
0000
1100
0000
0000
0001
0000
0000
0100
0000
,
0110
0000
0000
0010
0000
0000
1000
0000
0101
0000
0000
0001
0000
0000
0100
0000
,
2002
0000
0000
0000
0000
0000
0000
3003
,
2200
0000
0000
0000
0000
0000
0000
3300
,
0110
0000
0000
1000
0000
0000
0001
0000
1100
0000
0000
0010
0000
0000
1000
0000
,
1001
0000
0000
0001
0000
0000
0100
0000
1010
0000
0000
0010
0000
0000
1000
0000
,
0220
0000
0000
0000
0000
0000
0000
0330
,
2200
0000
0000
0000
0000
0000
0000
3300
,
0101
0000
0000
0000
;

//---------------dance-single - ----------------
#NOTES:
     dance-single:
     :
     Challenge:
     11:
     0.828,0.898,1.000,1.000,0.572,298.000,133.000,91.000,0.000,4.000:
0220
0000
0000
0000
0000
0000
1331
0000
1100
0000
0110
0000
,
1001
1000
0100
0000
0011
0000
0001
0100
0010
1000
0001
0100
0010
1000
0001
0000
,
0101
0010
1000
0000
0011
0000
0010
0001
0010
0001
0010
0001
0010
0100
1000
0000
,
0101
0001
1000
0000
1100
0000
0010
0100
0001
1000
0100
1000
0010
1000
0001
0000
,
0101
0010
1000
0000
1100
0000
0010
0001
1000
0001
1000
0010
1000
0001
0200
0000
,
0311
0000
0000
1001
0000
0000
1100
0000
0110
0000
0000
0101
0000
0000
1001
0000
,
0101
0000
0000
1010
0000
0000
0110
0000
1001
0000
0000
0101
0000
0000
1001
0000
,
0202
0000
0000
0000
0000
0000
0310
0000
0000
0100
0000
0000
1000
0000
0100
0000
0010
0000
0100
0000
0010
0000
0000
0000
0000
0000
0000
0000
0000
0000
0000
0000
0000
0000
0000
0000
0000
0000
0000
0000
0000
0000
0003
0000
0000
0000
0000
0000
,
0220
0000
0000
0300
2000
0000
0000
3030
,
1001
0000
0000
0101
0000
0000
1100
0000
0110
0000
0000
0011
0000
0000
1001
0000
,
0110
0000
0000
1100
0000
0000
0011
0000
0101
0000
0000
1001
0000
0000
1100
0000
,
0010
0100
0010
0100
0010
0000
0100
0001
1000
0010
0100
0000
0001
0010
0100
1000
0001
0000
0010
0001
0100
0010
0100
0000
,
0001
0000
0000
0010
0000
0000
0100
0000
0000
1000
0000
0000
0010
0000
0001
0000
0010
0000
0001
0000
0010
0000
0001
0000
0200
0000
0000
0000
0000
0000
0000
0000
0000
0000
0000
0000
0000
0000
1000
0000
1000
0000
1000
0000
1000
0000
1000
0000
,
2302
0000
0000
0000
3003
0000
0220
0330
,
2002
0000
0000
3003
0202
0000
0000
0303
,
2020
0000
0000
3030
0220
0000
0000
0330
,
2002
0000
0000
3003
0022
0000
0000
0033
,
2002
0000
0000
0000
3003
0000
0220
0330
,
2002
0000
0000
3003
2020
0000
0000
3030
,
0202
0000
0000
0303
0220
0000
0000
0330
,
0022
0033
0220
0330
2200
3300
2002
3003
,
1100
0010
0100
1001
,
0101
0010
1100
0101
,
0011
0100
0110
1100
,
0101
0001
1001
1100
,
0100
1000
0100
1000
0010
0100
0001
1000
0100
0010
0001
0100
0001
0010
0100
1000
,
0001
0100
0010
1000
0100
0010
0100
1000
0010
0100
0001
1000
0001
0100
0001
1000
,
0001
0010
0100
1000
0001
0100
0010
1000
0100
1000
0010
0100
0001
1000
0001
0100
,
0001
0000
0000
0010
0000
0000
0100
0000
0000
1000
0000
0000
0100
0000
0000
0010
0000
0000
0001
0000
0000
1000
0000
0000
0001
0000
0100
0000
0010
0000
1000
0000
0100
0000
1000
0000
0010
0000
0100
0000
0001
0000
1000
0000
0001
0000
0100
0000
,
0202
0000
0000
0000
0303
0000
2020
3030
,
0202
0000
0000
0303
2002
0000
0000
3003
,
0220
0000
0000
0330
2020
0000
0000
3030
,
0202
0000
0000
0303
0022
0000
0000
0033
,
0202
0000
0000
0000
0303
0000
2020
3030
,
0202
0000
0000
0303
0220
0000
0000
0330
,
2002
0000
0000
3003
2020
0000
0000
3030
,
0022
0033
2020
3030
2200
3300
0202
0303
,
1100
0000
1100
0110
1001
0110
1100
0110
,
1001
0101
1001
1100
0110
0000
1001
0000
,
2002
0000
0000
0000
0000
0000
0000
3003
,
1100
0000
0000
0000
0000
0000
0110
0000
0000
0000
0000
0000
0000
0000
0000
0000
0000
0000
1001
0000
0000
0000
0000
0000
0000
0000
0000
0000
0000
0000
0010
0000
1000
0000
0001
0000
0100
0000
0000
0000
0000
0000
0101
0000
0000
1001
0000
0000
,
1010
0000
0000
0110
0000
0000
0101
0000
1001
0000
0000
0011
0000
0000
0110
0000
,
0011
0000
0000
1100
0000
0000
1001
0000
0110
0000
0000
0011
0000
0000
0110
0000
,
0022
0000
0000
0000
0000
0000
0000
0033
,
2002
0000
0000
0000
0000
0000
0000
3003
,
1100
0000
0000
1001
0000
0000
0011
0000
0110
0000
0000
1010
0000
0000
1001
0000
,
1010
0000
0000
0101
0000
0000
0110
0000
1001
0000
0000
1010
0000
0000
1001
0000
,
2020
0000
0000
0000
0000
0000
0000
3030
,
0220
0000
0000
0000
0000
0000
0000
0330
,
1001
0000
0000
0000
;

//---------------dance-single - ----------------
#NOTES:
     dance-single:
     :
     Easy:
     4:
     0.351,0.490,0.178,0.633,0.000,148.000,16.000,57.000,0.000,0.000:
2002
0000
0000
3003
0220
0000
0000
0330
,
1000
0100
0010
0001
,
0100
0001
1000
0100
,
1000
0010
0100
0001
,
1000
0001
1000
0020
,
1030
0000
0000
1000
0100
0000
0000
0100
,
0010
0000
0000
0010
0001
0000
0000
0001
,
0200
0000
0000
0310
0000
0000
0000
0000
,
2002
0000
0000
0000
0000
0000
0000
3003
,
0001
0000
0000
0001
0010
0000
0000
0010
,
0100
0000
0000
0100
1000
0000
0000
1000
,
0010
1000
0010
1000
0010
1000
0010
1000
,
0020
0000
0000
0000
0000
0000
0000
0030
,
0020
0000
0000
0000
0030
0000
0200
0300
,
0020
0000
0000
0030
0020
0000
0000
0030
,
0002
0000
0000
0003
0200
0000
0000
0300
,
0002
0000
0000
0003
0200
0000
0000
0300
,
0020
0000
0000
0000
0030
0000
0200
0300
,
0002
0000
0000
0003
0002
0000
0000
0003
,
0020
0000
0000
0030
2000
0000
0000
3000
,
0020
0030
0200
0300
2000
3000
0020
0030
,
1001
0000
0000
0001
,
1010
0000
1000
1000
,
0110
0000
1000
1000
,
1010
0000
0001
1000
,
0001
0010
0100
1000
,
0010
0100
0001
1000
,
0001
0100
0001
1000
,
0100
0000
0010
0000
0001
0010
0001
0100
,
0020
0000
0000
0000
0030
0000
0200
0300
,
0020
0000
0000
0030
0002
0000
0000
0003
,
0200
0000
0000
0300
0200
0000
0000
0300
,
0020
0000
0000
0030
0020
0000
0000
0030
,
0020
0000
0000
0000
0030
0000
0200
0300
,
0020
0000
0000
0030
0200
0000
0000
0300
,
0002
0000
0000
0003
0002
0000
0000
0003
,
0200
0300
0200
0300
0002
0003
0020
0030
,
0110
0000
2002
0000
3003
0100
0100
0010
,
0010
0100
0100
0010
0010
0000
1100
0000
,
2002
0000
0000
0000
0000
0000
0000
3003
,
0000
1000
0000
0100
0000
0010
0000
0001
,
0100
0000
0000
0100
0010
0000
0000
0010
,
1000
0000
0000
1000
0001
0000
0000
0001
,
2002
0000
0000
0000
0000
0000
0000
3003
,
2200
0000
0000
0000
0000
0000
0000
3300
,
0100
0000
0000
0100
0010
0000
0000
0010
,
0001
0000
0000
0001
1000
0000
0000
1000
,
0220
0000
0000
0000
0000
0000
0000
0330
,
2002
0000
0000
0000
0000
0000
0000
3003
,
1100
0000
0000
0000
;

//---------------dance-single - ----------------
#NOTES:
     dance-single:
     :
     Beginner:
     2:
     0.178,0.218,0.178,0.144,0.000,83.000,16.000,13.000,0.000,0.000:
0000
0000
0000
0000
,
1000
0000
0100
0000
,
0010
0000
0001
0000
,
0100
0000
0010
0000
,
1000
0000
0001
0000
,
1000
0000
0010
0000
,
0100
0000
0001
0000
,
1001
0000
0000
0000
,
1100
0000
0000
0000
,
0010
0000
1000
0000
,
0001
0000
0100
0000
,
0001
1000
0001
1000
,
0002
0000
0000
0000
,
1003
0000
0000
0000
,
1000
0000
0010
0000
,
0100
0000
0001
0000
,
1000
0000
0001
0000
,
1000
0000
0000
0000
,
1000
0000
0010
0000
,
1000
0000
0001
0000
,
0100
0100
0100
0100
,
1001
0000
0000
0000
,
1100
0000
0000
0000
,
0110
0000
0000
0000
,
1001
0000
0000
0000
,
0002
0000
0000
0000
,
2003
0000
0000
0000
,
3020
0000
0000
0000
,
0230
0000
0010
0010
,
0310
0000
0000
0000
,
1000
0000
0010
0000
,
0100
0000
0001
0000
,
0010
0000
0001
0000
,
1000
0000
0000
0000
,
0010
0000
0100
0000
,
0001
0000
1000
0000
,
0001
0001
0001
0001
,
0000
0000
0000
1100
,
0011
1001
1001
1100
,
0000
0000
0000
0000
,
0000
0000
0000
0000
,
1000
0000
0010
0000
,
0100
0000
0001
0000
,
0220
0000
0000
0330
,
2002
0000
0000
3003
,
1000
0000
0001
0000
,
0100
0000
0001
0000
,
2200
0000
0000
3300
,
0202
0000
0000
0303
,
1001
0000
0000
0000
;
