#TITLE:The Flame Of Youth;
#SUBTITLE:Inhuman Rampage;
#ARTIST:Dragonforce;
#TITLETRANSLIT:;
#SUBTITLETRANSLIT:;
#ARTISTTRANSLIT:;
#CREDIT:Dog_E;
#BANNER:flame.PNG;
#BACKGROUND:flame-bg.jpg;
#LYRICSPATH:;
#CDTITLE:DogETitle.PNG;
#MUSIC:07-dragonforce-the_flame_of_youth-qtxmp3.mp3;
#OFFSET:-0.367;
#SAMPLESTART:135.684;
#SAMPLELENGTH:28.220;
#SELECTABLE:YES;
#BPMS:0.000=200.000,1294.000=195.000,1299.000=203.000,1308.000=200.000;
#STOPS:;
#BGCHANGES:;
// cache tags:
#FIRSTBEAT:0.000;
#LASTBEAT:1326.250;
#SONGFILENAME:Songs/keyboard/The Flame Of Youth (Dog_E)/07-dragonforce-the_flame_of_youth-qtxmp3.sm;
#HASMUSIC:1;
#HASBANNER:1;
#MUSICLENGTH:401.533;
// end cache tags

//---------------dance-single - Blank----------------
#NOTES:
     dance-single:
     Blank:
     Hard:
     14:
     1.000,1.000,1.000,1.000,1.000,3541.000,597.000,414.000,0.000,24.000:

2200
0000
0000
0000
,
3311
0010
0100
0010
0100
1000
0001
0010
,
0100
0010
0100
1001
0110
0001
1000
0100
,
0010
0100
1000
0001
1000
0100
0010
0100
,
1001
0100
0010
0001
1000
0100
0010
0100
,
0010
0001
1000
0101
1010
0100
0010
0001
,
0100
1000
0001
0220
0330
0000
0220
0330
,
0022
0133
1000
0100
0010
0001
0100
0010
,
1000
0100
0010
1100
0011
0100
0010
0001
,
1000
0100
0010
0100
1000
0001
1000
0100
,
0011
0100
1000
0001
0100
0010
1000
0001
,
0100
0010
0001
1010
0110
1000
0100
0010
,
1000
0000
0100
0000
0001
0010
0100
1000
0001
0010
0100
1000
0001
0010
0100
1000
,
1001
0100
0010
0001
1000
0100
0010
0100
,
0010
0001
1000
0001
0010
0100
0001
0100
,
0010
0001
1000
0001
0010
0100
1000
0100
,
0010
1000
0001
0010
0001
0100
0010
1000
,
0100
0010
0100
1000
0001
1000
0001
0010
,
0100
1000
0001
0100
0010
0001
1000
0100
,
0010
1000
0100
0010
0001
0100
0010
0001
,
0010
0100
0002
0000
0013
0100
1000
0001
,
0010
0100
0010
0001
0010
0100
0002
0000
,
0013
0100
1000
0001
0010
0100
0001
1000
,
0100
0010
1000
0001
0100
0010
1000
0001
,
0010
0100
1000
0100
0010
0001
0100
0010
,
2002
3013
0100
0001
0100
0010
0100
0001
,
0010
1000
0010
0100
0001
0100
0010
1000
,
0001
0100
0020
0000
0000
0130
1001
0100
,
0011
0100
0001
1000
0100
0010
0001
0100
,
0001
0100
1000
0010
0100
0100
0001
0010
,
0100
1000
0001
0010
0100
1000
0100
0010
,
0001
0010
0100
1000
0100
1000
0001
0010
0100
1000
0100
1000
0010
0000
0100
0000
,
0001
0000
1000
0000
0100
0000
0010
0000
1000
0100
0010
0001
0010
0001
1000
0100
,
0010
0001
0010
0001
0100
0000
0010
0000
1000
0000
0100
0000
0010
0000
0001
0000
,
1000
0010
0100
0001
1000
0001
0010
0100
,
1000
0000
0001
0000
0100
0000
1000
0000
0001
0010
0100
1000
0100
0010
0100
1000
,
0100
0010
0001
1000
0010
0100
0001
0010
0100
1000
0001
0010
0100
1000
0100
0010
,
0200
0000
0000
0000
,
0000
0000
0000
0300
0000
0000
0000
0000
0001
0010
0100
1000
0001
0100
0010
1000
,
0001
0010
0100
0010
0001
0010
0100
0010
0001
1000
0100
1000
0010
0100
0010
0100
,
0001
0100
0001
0100
0010
0100
0001
0100
0010
1000
0100
0010
0001
0100
0010
1000
,
0001
0010
0100
1000
0010
0100
0001
0010
0100
1000
0010
0100
0001
0100
0010
1000
,
0001
0010
0100
1000
0010
0100
0001
0010
0100
1000
0100
0010
0001
1000
0100
0010
,
0001
1000
0001
1000
0100
0010
0001
1000
0001
0010
0100
1000
0001
1000
0001
0010
,
0100
1000
0001
1000
0100
0010
0001
0010
0100
1000
0001
0010
0100
1000
0100
0010
,
0001
1000
0001
1000
0001
1000
0100
1000
0010
0100
0001
0010
0001
1000
0100
1000
,
0010
0100
0001
0010
0001
0010
0100
1000
0100
1000
0001
0010
0100
1000
0100
1000
,
0001
0010
0100
0010
0001
1000
0001
0010
0100
1000
0100
0010
0001
1000
0100
0010
,
0100
1000
0001
1000
0100
0010
0001
0010
0100
1000
0100
0010
0001
1000
0001
1000
,
0001
1000
0100
0010
0001
1000
0001
1000
0100
0010
0001
1000
0001
1000
0001
1000
,
0100
0010
0001
0010
0100
1000
0001
1000
0010
0100
0010
1000
0010
1000
0010
0100
,
0010
1000
0100
0010
0001
1000
0001
1000
0100
0010
0001
0010
0100
1000
0100
0010
,
0001
1000
0001
1000
0010
0100
0010
0100
0001
0010
0100
1000
0010
0100
0001
0010
,
0100
0010
0001
1000
0001
0010
0100
1000
0100
0010
0100
1000
0100
0010
0001
0010
,
0100
0010
0001
0010
0100
1000
0001
1000
0110
0000
0000
0000
1000
0000
0100
0000
,
0010
0000
0001
0010
0100
0000
1000
0100
,
0010
0000
1001
0000
0110
0000
0100
0010
,
0100
0000
0001
1000
0001
0000
0010
1000
,
0010
0100
0010
0001
0110
1000
0100
0010
1001
0000
0110
0000
0011
0000
0110
0000
,
1010
1001
0101
1001
1010
1001
0110
0011
,
1100
0110
0011
0101
1010
1100
0011
0101
,
1001
0000
0110
0000
1100
0000
0110
0000
0001
0010
0100
1000
0001
0000
0000
0000
,
1000
0100
0010
0001
1000
0000
0000
0000
1001
0000
0000
0000
1100
0000
0110
0000
,
0011
1000
0110
1001
1010
0001
1100
0110
,
1001
0000
0010
0000
2200
3300
0000
0000
0022
0033
0000
0000
1100
0000
1010
0000
,
0101
1000
0011
0110
1001
0100
1001
1010
,
0110
0001
1010
0110
1001
0110
0011
1010
,
0101
1100
1001
0110
0011
0101
1100
1010
,
1001
0000
0110
0000
0011
0000
0110
0000
1000
0100
0010
0001
1000
0010
0100
0001
,
1000
0100
0010
0001
1000
0010
0100
0001
0010
0100
1000
0100
0020
0000
0030
0000
,
0012
0003
0120
0030
1200
0300
2001
0000
3002
0000
0000
0000
1103
0000
0101
0000
,
0110
1000
0101
1001
0011
1100
0010
0101
,
0010
1100
0011
0100
1010
0001
0110
1010
,
1100
0010
1001
0101
1100
0011
0100
2002
,
0000
0000
0000
0000
0000
0000
3003
0000
0001
1000
0001
1000
0001
0010
0100
1000
,
0100
0010
0100
1000
0001
0010
0100
1000
0100
0010
0001
1000
0010
0100
0001
0010
,
0100
1000
0001
0100
0010
1000
0100
0010
0001
0100
0010
1000
0100
0010
0001
0100
,
0010
1000
0001
0010
0100
1000
0001
0010
0100
1000
0001
0010
0001
0100
0010
1000
,
0100
1000
0001
0010
0100
1000
0100
0010
0200
0000
0000
0300
0101
0000
0011
0000
,
1001
0100
0011
0110
1010
0101
1000
0011
,
1000
0101
1010
0001
1100
0010
1001
1100
,
0101
1000
0110
0011
0101
1010
0001
0220
,
0000
0000
0000
0330
1001
0110
0101
0110
,
1001
0010
0110
1001
1010
0100
0011
1000
,
1001
0100
0010
0100
1001
0010
0100
0010
1000
0001
0100
0010
1000
0100
0010
0001
,
0100
0010
1000
0100
0010
0001
1000
0001
0010
0100
1000
0100
0010
0100
1000
0100
,
0010
0001
1000
0001
0100
0001
0010
0100
1000
0100
0010
0100
1000
0001
0010
0100
,
0010
0001
0010
0100
1000
0001
0010
0100
1000
0010
0100
0010
1000
0001
0010
0100
,
1000
0010
0100
0010
1000
0100
0010
0001
1000
0001
0010
0100
1000
0010
0100
0010
,
1000
0001
0100
0010
0100
0001
1000
0001
0010
0100
0010
0100
1000
0001
1000
0001
,
1000
0010
0100
0001
1000
0001
1000
0010
0100
0001
0100
0010
0100
0001
1000
0001
,
1000
0100
0010
0001
1000
0010
0100
0001
0010
0100
1000
0100
0010
0100
1000
0100
,
0010
0000
0000
0100
0000
0000
1000
0000
0000
0100
0000
0000
0010
0000
0000
0001
0000
0000
0010
0000
0000
0100
0000
0000
2002
0000
0000
0000
3003
0000
0000
0000
2002
0000
0000
0000
3003
0000
0000
0000
2002
0000
0000
0000
3003
0000
0000
0000
,
2002
3003
2002
3003
2002
3003
0020
0000
0000
0000
0000
0000
,
0001
0000
0000
0000
0000
0000
0000
0000
0000
0000
0000
0000
0001
0000
0000
0000
0030
0000
0000
0000
0000
0000
0000
0000
1000
0000
0000
0100
0000
0000
0010
0000
0000
0001
0000
0000
0100
0000
0000
0010
0000
0000
1000
0000
0000
0100
0000
0000
,
0010
0001
0100
0010
1000
0100
0010
0001
0100
0010
1000
0001
0100
0001
0010
0001
,
1000
0000
0000
0001
0000
0000
0100
0000
0000
0001
0000
0000
0110
0000
0000
0000
0000
0000
1000
0000
0000
0000
0000
0000
0220
0000
0000
0000
0330
0000
0000
0000
0220
0000
0000
0000
0330
0000
0000
0000
0202
0000
0000
0000
0303
0000
0000
0000
,
0022
0033
0022
0033
0202
0303
0002
0000
0000
0000
0000
0000
,
1000
0000
0000
0000
0000
0000
0000
0000
0000
0000
0000
0000
1000
0000
0000
0000
0003
0000
0000
0000
0000
0000
0000
0000
1000
0000
0000
0100
0000
0000
1000
0000
0000
0100
0000
0000
0010
0000
0000
0100
0000
0000
0010
0000
0000
0100
0000
0000
,
1000
0100
1000
0100
0010
0001
0010
0100
1000
0100
0010
0001
1000
0010
0100
0001
,
1000
0100
0010
0001
0010
0100
1000
0100
0011
0000
0110
0000
1000
0100
1000
0000
,
0110
0000
0011
0000
0100
0001
0100
0000
1100
0000
0110
0000
0100
0001
0100
0000
,
0011
0000
1001
0000
0100
0010
0100
0000
1010
0000
1100
0000
0100
0010
0100
0000
,
0011
0000
0110
0000
1000
0001
1000
0000
0011
0000
0110
0000
1000
0001
1000
0000
,
0110
0000
0011
0000
0100
0010
0100
0000
1010
0001
1000
0001
1000
0001
1000
0001
,
1000
0001
0010
0100
1000
0100
0010
0001
1000
0001
0010
0100
1000
0010
0100
0001
,
1000
0010
0100
0001
1000
0001
0010
0100
1000
0100
0010
0001
1000
0100
0010
0001
,
1000
0000
0000
0001
0000
0000
0010
0000
0000
0100
0000
0000
1000
0000
0000
0001
0000
0000
0010
0000
0000
0100
0000
0000
1000
0000
0001
0000
1000
0000
0100
0000
0000
0010
0000
0000
0001
0000
0000
0100
0000
0000
0010
0000
0000
0100
0000
0000
,
0010
1000
0100
0010
0001
0010
0100
1000
0011
0000
0110
0000
1000
0010
1000
0000
,
0101
0000
0011
0000
0100
0010
0100
0000
1001
0000
0011
0000
1000
0100
1000
0000
,
0101
0000
0110
0000
1000
0010
1000
0000
0101
0000
0011
0000
0100
0010
0100
0000
,
0011
0000
0110
0000
1000
0001
1000
0000
0011
0000
0110
0000
0001
0010
0001
0000
,
0001
0010
0100
1000
0001
0100
0010
1000
0110
0000
0011
0000
0100
0010
0100
0000
,
1001
0000
0011
0000
0100
1000
0100
0000
0110
0000
0101
0000
1000
0100
1000
0000
,
0011
0000
1001
0000
1000
0100
1000
0000
0110
0000
1010
0000
0100
0010
0100
0000
,
0011
0000
0110
0000
0010
0001
0010
0000
1000
0100
0010
0001
1000
0010
0100
0001
,
0010
0100
1000
0001
0100
0010
1000
0100
0010
0000
0100
0000
1100
0000
0010
0000
,
0011
1000
0110
1000
0101
0010
0001
1010
,
0100
0010
0101
1000
0110
1000
0011
0110
,
1000
0100
1001
0100
1010
0010
0101
1100
,
0001
0010
0100
1000
0001
0100
0010
1000
0010
1000
0100
0010
0101
0000
1010
0000
,
0101
0000
1000
0000
0101
0010
0100
1000
0011
0000
0100
0010
0101
0000
0100
1000
,
0101
0000
0100
0010
1001
0000
0010
0001
1000
0100
0010
0001
1100
0001
0010
0100
,
0010
0001
0010
0100
1000
0100
0010
0001
1100
0010
0100
1000
0011
0100
0010
0001
,
1100
0010
1000
0010
1100
0010
1000
0001
0100
0010
0100
0010
1001
0100
0010
0100
,
0010
1000
0001
1000
0001
1000
0010
0100
0001
1000
0100
0010
0001
0010
0100
0010
,
1001
0100
0010
0001
0110
0001
0010
0001
1000
0100
0010
0001
0010
0100
1000
0100
,
0010
0001
0010
0100
1000
0100
0010
0001
1000
0001
0010
0100
0010
0001
0010
0100
,
1000
0100
0010
0001
0010
0100
0010
0000
1100
0000
1010
0000
0110
0000
0011
0000
,
0101
0110
1001
0110
1100
0110
0011
0101
,
1010
0000
0110
0000
0101
0000
1010
0000
2200
0000
0000
3300
0022
0000
2233
3300
,
0220
0000
0330
0000
2020
3030
0202
0000
0000
0303
0220
0330
0022
0033
2200
3300
,
0220
0330
2200
3300
0022
0000
0000
0033
2002
0000
0000
3003
0022
0033
2200
3300
,
0202
0000
0000
0303
0220
0330
0202
0000
0000
0303
2200
3300
0022
0033
0220
0330
,
0202
0303
2200
3300
0202
0303
0022
0033
0220
0000
0000
0330
2002
3003
0022
0033
,
0220
0000
0000
0330
0202
0303
0220
0000
0000
0330
0002
0000
2003
0000
3200
0000
,
2300
3002
2003
0000
3002
0023
0230
2300
,
3000
0000
2000
0000
3200
0000
0320
0000
0032
0013
0100
0010
0001
0100
0010
1000
,
0002
0000
0003
0000
0220
0330
2020
3030
2200
0000
0000
3300
0022
0000
2233
3300
,
0220
0000
0330
0000
2020
3030
0202
0000
0000
0303
0220
0330
0022
0033
2100
0000
,
0100
0100
3100
0000
0022
0000
0000
0033
2002
0000
0000
3003
0022
0033
2200
3300
,
0202
0000
0000
0303
0220
0330
0202
0000
0000
0303
2200
3300
0022
0003
0130
0000
,
2002
3000
0013
0000
0020
0000
0000
0030
1000
0100
0010
0001
1000
0010
0100
0001
,
0010
0100
1000
0100
0002
0000
0000
0003
0010
0100
0010
1000
0010
0100
0001
0010
,
0100
1000
0100
0010
0200
0000
0000
0300
0001
0010
0100
1000
0001
0010
0100
1000
,
0001
1000
0100
0010
0001
1000
0100
0010
0001
0100
0010
1000
0100
0010
0001
0100
,
0010
1000
0100
1000
0100
1000
0100
0010
0200
0000
0300
0000
0011
0000
0110
0000
,
1100
0001
0110
1001
0101
1000
0011
0110
,
1001
0100
0220
0330
0220
0330
0011
0101
,
1010
0001
1100
0110
1001
0010
1001
0101
,
0110
0000
1000
0000
0001
0000
0100
0000
1000
0010
1000
0010
1000
0010
1000
0010
,
1000
0010
1000
0010
1000
0010
1000
0010
0100
0001
0100
0001
0100
0001
0100
0001
,
0100
0001
0100
0001
0100
0001
0100
0001
1000
0001
1000
0001
1000
0001
1000
0001
,
1000
0001
1000
0001
1000
0001
1000
0001
2000
0010
0100
0010
0100
0010
0100
0010
,
0100
0010
0100
0010
0100
0010
0100
3010
0101
0000
1001
0000
0011
0000
1010
0000
,
0110
0001
1010
1001
1100
0011
0100
1010
,
0100
0011
1100
0010
0101
1000
0110
0101
,
0011
0100
1001
1010
0011
1100
0010
2002
,
0000
0000
0000
3003
0110
1001
0011
1001
,
0110
1000
1001
0110
1100
0001
0011
1000
,
0100
0010
0001
0100
0010
1000
0100
0010
1001
0100
0010
0100
1000
0001
1000
0010
,
0100
0001
1000
0010
0100
0001
0010
0100
1000
0100
0010
0001
0100
0010
1000
0001
,
0100
0001
0100
0001
0100
0001
1000
0010
1000
0001
0010
0100
1000
0001
0010
0100
,
1000
0100
0010
0001
1000
0100
0010
0001
1000
0010
0100
0001
1000
0010
0100
0001
,
1000
0010
0100
0001
1000
0100
0010
0001
0010
0100
0010
0001
1000
0100
0010
0100
,
1000
0100
0010
0001
0010
0100
1000
0001
1000
0001
0010
0001
0010
0001
0100
0010
,
0100
0010
1000
0010
1000
0010
0100
0010
1000
0010
0100
0001
1000
0100
0010
0001
,
1000
0100
0010
0001
0010
0100
1000
0100
0010
0001
1000
0001
0010
0100
0010
0001
,
1000
0000
0000
0100
0000
0000
0010
0000
0000
0100
0000
0000
1000
0000
0000
0100
0000
0000
0010
0000
0000
0100
0000
0000
2001
0000
0000
0000
3200
0000
0000
0000
0320
0000
0000
0000
0032
0000
0000
0000
0023
0000
0000
0000
0230
0000
0000
0000
,
2300
0000
3200
0000
0320
0000
0032
0000
0023
0000
0230
0000
2300
0000
3000
0200
0000
0000
0320
0000
0000
0230
0000
0000
,
0302
0000
0000
0000
0020
0000
0000
0000
0133
1000
0100
1000
0010
0100
0010
0100
,
0001
0010
0001
0010
0100
1000
0100
0010
0001
1000
0001
1000
0001
0010
0100
1000
,
0001
0000
0000
1000
0000
0000
0001
0000
0000
0100
0000
0000
0001
0000
0000
0010
0000
0000
0001
0000
0000
0100
0000
0000
2000
0000
0000
0000
0200
0000
0000
0000
3020
0000
0000
0000
2330
0000
0000
0000
0200
0000
0000
0000
3020
0000
0000
0000
,
2330
0200
3020
2330
0200
3020
0332
0000
0000
0000
0000
0000
,
0010
0000
0000
0000
0000
0000
0000
0000
0000
0000
0000
0000
1000
0000
0000
0000
0003
0000
0000
0000
0000
0000
0000
0000
0001
0000
0000
0010
0000
0000
0100
0000
0000
1000
0000
0000
0001
0000
0000
1000
0000
0000
0001
0000
0000
1000
0000
0000
,
0001
0010
0100
0010
0001
1000
0001
0010
0100
1000
0100
0010
0100
1000
0001
0010
,
0001
0100
0010
0100
1000
0100
0010
0001
1100
0000
0110
0000
0001
0010
0001
0000
,
0110
0000
1100
0000
0010
1000
0010
0000
0011
0000
0110
0000
0010
1000
0010
0000
,
1100
0000
1001
0000
0010
0100
0010
0000
0101
0000
0011
0000
0010
0100
0010
0000
,
1100
0000
0110
0000
0001
1000
0001
0000
1100
0000
0110
0000
0001
1000
0001
0000
,
0110
0000
1100
0000
0010
0100
0010
0000
0101
0010
1000
0001
1000
0001
0010
0100
,
1000
0100
0010
0100
1000
0100
0001
0100
0001
1000
0010
0100
0001
1000
0100
0010
,
0001
0100
0010
1000
0001
0010
0100
0010
0001
0010
0100
1000
0001
0010
0100
1000
,
0001
0000
0000
1000
0000
0000
0100
0000
0000
0010
0000
0000
0001
0000
0000
1000
0000
0000
0100
0000
0000
0010
0000
0000
0001
0000
1000
0000
0001
0000
0010
0000
0000
0100
0000
0000
1000
0000
0000
0010
0000
0000
0100
0000
0000
0010
0000
0000
,
0100
0001
0010
0100
1000
0100
0010
0001
1100
0000
0110
0000
0001
0100
0001
0000
,
1010
0000
1100
0000
0010
0100
0010
0000
1001
0000
1100
0000
0001
0010
0001
0000
,
1010
0000
0110
0000
0001
0100
0001
0000
1010
0000
1100
0000
0010
0100
0010
0000
,
1100
0000
0110
0000
0001
1000
0001
0000
1100
0000
0110
0000
1000
0100
1000
0000
,
1000
0100
0010
0001
1000
0010
0100
0001
0110
0000
1100
0000
0010
0100
0010
0000
,
1001
0000
1100
0000
0010
0001
0010
0000
0110
0000
1010
0000
0001
0010
0001
0000
,
1100
0000
1001
0000
0001
0010
0001
0000
0110
0000
0101
0000
0010
0100
0010
0000
,
1100
0000
0110
0000
0100
1000
0100
0000
0001
0010
0100
1000
0001
0100
0010
1000
,
0100
0010
0001
1000
0010
0100
0001
0010
0100
0000
0010
0000
0011
0000
0100
0000
,
1100
0001
0110
0001
1010
0100
1000
0101
,
0010
0100
1010
0001
0110
0001
1100
0110
,
0001
0010
1001
0010
0101
0100
1010
0011
,
1000
0100
0010
0001
1000
0010
0100
0010
0001
0010
0100
1000
0101
0000
1010
0000
,
0101
0000
1000
0000
0101
0010
0100
1000
0011
0000
0100
0010
0101
0000
0100
1000
,
0101
0000
0100
0010
1001
0000
0010
0001
1000
0100
0010
0001
1100
0001
0010
0100
,
0010
0001
0010
0100
1000
0100
0010
0001
1100
0010
0100
1000
0011
0100
0010
0001
,
1100
0010
1000
0010
1100
0010
1000
0001
0100
0010
0100
0010
1001
0100
0010
0100
,
0010
1000
0001
1000
0001
1000
0010
0100
0001
1000
0100
0010
0001
0010
0100
0010
,
1001
0100
0010
0001
1100
0010
0100
0010
1100
0010
0100
0001
1000
0001
1100
0000
,
0010
0000
0010
0000
1100
0000
0001
0000
1100
0000
0010
0000
0001
0000
1100
0010
,
1000
0010
1000
0001
0110
1000
0100
0010
1001
0000
0101
0000
1100
0000
1010
0000
,
0011
0101
1100
1010
0011
0101
1100
1010
,
0011
0101
1100
0110
1002
1000
1000
1000
,
1000
1000
1000
1000
1000
1000
1000
1003
,
0001
0010
0100
0010
2001
0001
0001
0001
,
0001
0001
0001
0001
0001
3001
1001
0001
,
0101
0001
0011
0001
0210
1000
1000
1000
,
1000
1000
1000
1000
1000
1300
1100
1000
,
1010
1000
1001
0001
2000
0001
0001
0001
,
0001
3001
0200
0000
0320
0032
0023
0032
,
0023
0000
0000
0032
0000
0000
0023
0000
0000
0032
0000
0000
1013
0000
0100
0000
0010
0000
0001
0000
0010
0000
0100
0000
,
1000
0100
0010
0001
0010
0100
1000
0100
0010
0001
0010
0100
,
1000
0100
0010
0001
0010
0100
0001
0010
0100
1000
0100
0010
,
0001
0010
0100
1000
0100
0010
0001
0010
0100
1000
0100
0010
,
0001
0010
0100
1000
0100
0010
1000
0100
0010
0001
0010
0100
,
1000
0100
0010
0001
0010
0100
1000
0100
0010
0001
0010
0100
,
1000
0100
0010
0001
0010
0100
0001
0010
0100
1000
0100
0010
,
0001
0010
0100
1000
0100
0010
0001
0010
0100
1000
0100
0010
,
0001
0000
0000
0000
0000
0000
0000
0000
0000
0000
0000
0000
0000
0000
0000
0000
0010
0000
0000
0000
0000
0000
0000
0000
0000
0000
0000
0000
0000
0000
0000
0000
0100
0000
0000
0000
0000
0000
0000
0000
0000
0000
0000
0000
0000
0000
0000
0000
1000
0000
0000
0000
0000
0000
0000
0000
0000
0000
0000
0000
0000
0000
0000
0000
0100
0000
0000
0000
0000
0000
0000
0000
0000
0000
0000
0000
0000
0000
0000
0000
0010
0000
0000
0000
0000
0000
0000
0000
0000
0000
0000
0000
0000
0000
0000
0000
2002
0000
0000
0000
0000
0000
0000
0000
0000
0000
0000
0000
0000
0000
0000
0000
0000
0000
3003
0000
0000
0000
0000
0000
2000
0000
0000
0000
0000
0000
0000
0000
0000
0000
0000
0000
0000
0000
0000
0000
0000
0000
0000
0000
0000
0000
0000
0000
3002
0000
0000
0000
0000
0000
0000
0000
0000
0000
0000
0000
0000
0000
0000
0000
0000
0000
0000
0000
0000
0000
0000
0000
2003
0000
0000
0000
0000
0000
0000
0000
0000
0000
0000
0000
0000
0000
0000
0000
0000
0000
0000
0000
0000
0000
0000
0000
,
3002
0000
2003
0000
3002
0000
2003
0000
3002
0000
2000
0003
0002
3003
2000
0000
3002
0000
0000
0000
0000
0000
0000
0000
0000
0000
0000
0000
0003
0002
0023
0230
,
2300
0000
0000
0000
0000
0000
0000
0000
0000
0000
0000
0000
0000
0000
0000
3000
0220
0000
0330
0000
1000
0000
0000
0000
0022
0000
0033
0000
1000
0000
0000
0000
,
0202
0303
1000
0000
2000
3002
2003
3002
0223
0330
0001
0000
2020
3030
0001
0000
,
2200
3300
0001
0000
2000
3002
2003
3002
0013
0000
0100
0000
1000
0000
0200
0000
,
0300
0000
0002
0000
0003
0000
0020
0030
0002
0003
0200
0000
0320
0000
2030
3200
,
2300
3200
2300
3200
2300
3200
2300
3200
0310
0001
0010
0100
0010
0001
0010
0100
,
1000
0001
0010
0100
1000
0001
0100
0010
0100
1000
0100
0010
0001
0100
0010
1000
,
0100
0001
0100
0010
0002
0000
0000
0003
0001
0010
0100
1000
0100
0010
0001
0010
,
0100
0010
0001
0100
1000
0100
0010
0001
0100
0010
0001
0100
0010
0100
1000
0100
,
0010
0001
0010
0100
1000
0010
0100
0010
0202
0303
1010
0000
0202
0303
1010
0000
,
2200
3300
0011
0000
2200
3300
0011
0000
0220
0330
1001
0000
0220
0330
1001
0000
,
0020
0000
0000
0000
0000
0000
0000
0030
2020
3030
0101
0000
2020
3030
0101
0000
,
0100
0010
0001
0010
0100
0010
0100
1000
0100
0000
0001
0000
0100
0000
1000
0000
,
0020
0000
0000
0000
0000
0000
0000
0000
0000
0000
0000
0000
0000
0000
0000
0000
0000
0000
0000
0000
0000
0000
0000
0030
0020
0000
0000
0000
0000
0000
0000
0000
0000
0000
0000
0000
0000
0000
0000
0000
0000
0000
0000
0000
0000
0000
0000
0030
0020
0000
0000
0000
0000
0000
0000
0000
0000
0000
0000
0000
0000
0000
0000
0000
0000
0000
0000
0000
0000
0000
0000
0030
0020
0000
0000
0000
0000
0000
0000
0000
0000
0000
0000
0000
0000
0000
0000
0000
0000
0000
0000
0000
0000
0000
0000
0030
0001
0000
0000
0000
0000
0000
0000
0000
0000
0000
0000
0000
0010
0000
0000
0000
0000
0000
0000
0000
0000
0000
0000
0000
0100
0000
0000
0000
0000
0000
0000
0000
0000
0000
0000
0000
0010
0000
0000
0000
0000
0000
0000
0000
0000
0000
0000
0000
0001
0000
0000
0000
0000
0000
0000
0000
0000
0000
0000
0000
0100
0000
0000
0000
0000
0000
0000
0000
0000
0000
0000
0000
0010
0000
0000
0000
0000
0000
0000
0000
0000
0000
0000
0000
0100
0000
0000
0000
0000
0000
0000
0000
0000
0000
0000
0000
,
0010
1000
0100
0010
0001
0100
0010
1000
0100
0010
0001
0100
0010
0100
0010
1000
,
0010
0000
0001
0000
0010
0000
0100
0000
0000
1000
0000
0000
0200
0000
0000
0000
0000
0000
0000
0000
0000
0300
0000
0000
0001
0000
0010
0000
0100
0000
0010
0000
0001
0000
0010
0000
0100
0000
0010
0000
0001
0000
0010
0000
0100
0000
0010
0000
,
0001
0000
0010
0000
0100
0000
1000
0000
0001
0000
0010
0000
0100
0000
1000
0000
0001
0000
0010
0000
0100
0000
1000
0000
0100
0000
0000
0010
0000
0000
0001
0000
0000
0100
0000
0000
1000
0000
0000
0100
0000
0000
0010
0000
0000
0001
0000
0000
,
0010
0000
1000
0000
0100
0000
0010
0000
0000
0001
0000
0000
0200
0000
0000
0000
0000
0000
0000
0000
0000
0000
0000
0000
1300
0000
0000
0100
0000
0000
0010
0000
0000
0001
0000
0000
1000
0000
0000
0000
0000
0000
0001
0000
0000
0000
0000
0000
,
0012
0003
2010
3000
0012
0003
2010
3000
2100
0000
3200
0320
0230
0000
0310
0000
,
0001
0000
0000
0000
0000
0000
0200
0000
0000
0300
0000
0000
0020
0000
0000
0030
0000
0000
2000
0000
0000
3000
0000
0000
1000
0000
0100
0000
0010
0000
0001
0000
1000
0000
0100
0000
0010
0000
0001
0000
1000
0000
0100
0000
0000
0010
0000
0000
,
0001
0100
0010
1000
0100
0010
0001
0100
0010
0010
0020
0000
0130
0100
0200
0000
,
1300
1000
2000
0000
3001
0001
0002
0000
1003
0100
0010
0100
0001
0000
0010
0000
,
0001
0010
0100
1000
0200
0000
0300
0000
0010
0001
0010
0100
0020
0000
0031
0100
,
0010
1000
0100
0010
0002
0000
0000
0000
0013
0000
0010
0010
0010
0100
0010
0100
,
1000
0000
0000
0001
0000
0000
0010
0000
0000
0100
0000
0000
1000
0000
0000
0000
0000
0000
0010
0000
0000
0100
0000
0000
0001
0000
0010
0000
0100
0000
1000
0000
0001
0000
0010
0000
0100
0000
1000
0000
0001
0000
0010
0000
0100
0000
1000
0000
,
0001
0000
0010
0000
0100
0000
1000
0000
0100
0010
0000
0000
0001
0000
0000
0010
0000
0000
0100
0000
0000
0010
0000
0000
1000
0000
0000
0100
0000
0000
0010
0000
0000
0100
0000
0000
0010
0000
0000
0001
0000
0000
0010
0000
0000
0100
0000
0000
,
1000
0100
0010
0100
1000
0001
0100
0010
1000
0001
0100
0010
0100
0010
0100
1000
,
0001
0010
0100
1000
0100
1000
0100
0010
0001
0010
0100
0001
0100
1000
0100
0010
,
0100
0010
0001
0100
0010
1000
0100
0010
0001
0010
0100
0001
0010
0100
0010
0100
,
1000
0010
0100
1000
0002
2003
3002
2003
3001
0010
0100
0010
0001
0010
0100
1000
,
0100
0010
0001
0010
0100
0010
0100
0001
0100
0001
0010
0001
1000
0010
0100
0001
,
0100
0010
0100
1000
0200
0000
0000
0300
0010
0100
0010
0100
1000
0100
0010
0001
,
0100
0010
0001
1000
0100
0010
0001
0100
0010
0001
0100
0010
0100
0010
0100
0010
,
1000
0100
0010
0000
0002
0000
0023
0000
1030
0100
0010
0001
1000
0100
0010
0001
,
1000
0010
0100
0001
1000
0010
0100
0001
1200
0300
0120
0030
0012
0003
1002
0003
,
0120
0030
1200
0300
2100
3000
2001
3000
1000
1000
0100
0010
0001
0010
0100
0010
,
0001
1000
0100
0010
0001
1000
0100
0010
0001
0000
0100
0000
1000
0000
0100
0000
,
0020
0000
0000
0000
0000
0000
0000
0000
0000
0000
0000
0000
0002
0000
0000
0000
0000
0000
0030
0000
0000
0000
0000
0000
0020
0000
0000
0000
0000
0000
0003
0000
0000
0000
0000
0000
0002
0000
0000
0000
0000
0000
0000
0000
0000
0000
0000
0000
0030
0000
0000
0000
0000
0000
0000
0000
0000
0000
0000
0000
0000
0000
0000
0000
0000
0000
0000
0000
0000
0000
0000
0000
0003
0000
0000
0000
0000
0000
0000
0000
0000
0000
0000
0000
0000
0000
0000
0000
0000
0000
0000
0000
0000
0000
0000
0000
0120
0000
0000
0000
0000
0000
0000
0000
0000
0000
0000
0000
0000
0000
0000
0000
0030
0000
0000
0000
0000
0000
0000
0000
2010
0000
0000
0000
0000
0000
0000
0000
0000
0000
0000
0000
0000
0000
0000
0000
3000
0000
0000
0000
0000
0000
0000
0000
1200
0000
0000
0000
0000
0000
0000
0000
0000
0000
0000
0000
0000
0000
0000
0000
0300
0000
0000
0000
0000
0000
0000
0000
0120
0000
0000
0000
0000
0000
0000
0000
0000
0000
0000
0000
0000
0000
0000
0000
0030
0000
0000
0000
0000
0000
0000
0000
,
0012
0000
0003
0201
0000
0300
0120
0000
0030
2001
0000
3000
0002
0000
0020
0000
0200
0003
2000
0330
0000
0000
0000
0000
,
0000
0000
0200
0000
0000
0000
0020
0000
0000
0000
0002
0000
3000
0000
0300
0000
0030
0000
0000
0000
0000
0000
0003
0000
0010
0000
0000
0100
0000
0000
1000
0000
0000
0100
0000
0000
0010
0000
0000
0100
0000
0000
0010
0000
0000
0100
0000
0000
,
0010
1000
0100
0010
0001
0100
0010
0100
1000
0001
0100
0010
1000
0001
0010
0100
,
1000
0000
0000
0001
0000
0000
0010
0000
0000
0100
0000
0000
0010
0000
0000
0001
0000
0000
0010
0000
0000
0100
0000
0000
1001
0000
0000
0000
0010
0000
0000
0000
0100
0000
0000
0000
1000
0000
0000
0000
0100
0000
0000
0000
0010
0000
0000
0000
,
0001
0010
0100
1000
0100
0000
1001
0100
0010
0001
0010
0100
,
1000
0100
0010
0001
0010
0000
0110
1000
0100
0010
0001
0010
,
0100
1000
0100
0010
0001
0010
1100
0010
0001
0100
0010
0001
,
0010
0100
0010
0002
0000
0003
2002
0000
0000
0000
0000
0000
,
0000
0000
0000
0000
,
0000
0000
0000
0000
0000
0000
0000
0000
0000
0000
3003
0000
1000
0000
0000
0100
0000
0000
0010
0000
0000
0100
0000
0000
,
0010
0000
0001
0000
0100
0000
0010
0000
0001
0010
0100
1000
0100
0010
0002
0000
,
1003
0100
0010
0001
0010
0100
2000
0000
3200
0000
0000
0300
0000
0000
0020
0000
,
0000
0030
0002
0000
0003
0000
0010
0000
0200
0000
1300
0000
0020
0000
0000
0000
,
0000
0000
0000
0030
0011
0110
0011
0110
,
0000
0000
2000
0000
0000
0000
3100
0000
0010
0001
0010
0100
1000
0100
0010
0001
,
0010
0100
0010
0001
0010
1000
0010
0001
0110
0000
1000
0000
0110
0000
0002
0000
,
0000
0003
0020
0000
0100
0030
2000
0000
0000
0000
0000
0000
3000
0000
0100
0000
,
0010
0000
0001
0000
0010
0000
0100
0000
1000
0100
0010
0001
0010
0100
1000
0100
,
0010
0001
0010
0100
1000
0100
0010
0001
0010
0100
1000
0100
0010
0001
0010
0100
,
0010
0001
0010
0100
1000
0100
0010
0001
0020
0030
0020
0000
0030
0000
1000
0000
,
0020
0000
0000
0030
0000
0000
0020
0000
0000
0000
0000
0000
0030
0000
0000
0000
0000
0000
0100
0000
0000
0000
0000
0000
0010
0000
0000
0000
0000
0000
0000
0000
0000
0000
0000
0000
0002
0000
0003
0000
0002
0000
0003
0000
0002
0000
0003
0000
,
0002
0003
0002
0003
0002
0003
0002
0003
0002
0000
0003
0000
1001
0000
0000
1001
0000
0000
0000
0000
0000
0110
0000
0000
,
1001
1001
0000
0110
0011
0100
0000
0020
,
0000
0000
2030
0000
3002
0000
0023
0130
,
0000
1000
0000
0100
0000
0020
0000
0000
,
0000
0000
0000
0000
0000
0030
0000
0000
0001
0010
0100
1000
0001
0100
0010
1000
,
0010
1000
0001
0100
0001
0100
0010
0100
0012
0000
0000
0000
0000
0003
0120
0000
,
0000
0000
0000
0030
1200
0000
0000
0000
0001
0000
0300
0000
0010
0000
0200
0000
,
0000
0000
0000
0000
0000
0000
0000
0000
0000
0000
0300
0000
2000
3000
0000
0000
,
0200
0300
0000
0000
0002
0003
0000
0000
0120
0000
0000
0000
1000
0000
0000
0000
,
0001
0000
0100
0000
0001
0000
0000
0100
,
0030
0000
0100
0000
1000
0000
0000
0001
,
0000
0100
0001
0000
,
0000
0000
0000
0000
0000
0000
0000
0000
2002
0000
0000
3003
1000
0000
0100
0000
,
0001
0000
0100
0000
0001
0000
0010
0100
,
0000
0000
1000
0000
0001
0000
0100
0010
,
0000
0000
1000
0000
2001
0001
0001
0001
,
0001
0000
0000
0001
0000
0000
0001
0000
0000
0001
0000
0000
3220
0000
0000
0000
0000
0000
0000
0000
0330
0000
0000
0000
,
0101
0000
1100
0000
0100
0010
0100
0000
1001
0000
0110
0000
0001
0010
0001
0000
,
1100
0000
0110
0000
0010
0001
0010
0000
0110
0000
0011
0000
0100
1000
0100
0000
,
0110
0000
0011
0000
0100
0001
0100
0000
1010
0000
0110
0000
0001
0010
0001
0000
,
1000
0100
0010
0001
1000
0010
0100
0001
1100
0000
0110
0000
0010
0001
0010
0000
,
0110
0000
1100
0000
0100
0010
0100
0000
0101
0000
0110
0000
0001
1000
0001
0000
,
0110
0000
0011
0000
1000
0010
1000
0000
0101
0000
0110
0000
1000
0010
1000
0000
,
0101
0000
0011
0000
0100
0010
0100
0000
0100
0010
0001
0000
0010
1000
0100
0010
,
0001
0000
0010
1000
0100
0010
0001
0100
0010
0100
0010
0100
0001
0100
0001
0010
,
0100
0010
0001
0100
0010
1000
0100
1000
0010
0100
0001
0100
0010
1000
0100
0010
,
0001
1000
0100
0010
0001
0100
0010
0100
1000
0100
0010
0001
0100
1000
0100
0010
,
0001
0010
0100
1000
0100
0010
0100
0010
0001
0010
0100
1000
0001
0010
0100
1000
,
0001
1000
0100
0010
0001
1000
0100
0010
0001
0000
0000
0000
0101
0000
1010
0000
,
0101
1000
0110
1000
1001
0100
0011
1000
,
0110
0000
0001
0000
1100
0010
0001
0010
0100
1000
0100
0010
1001
0100
0010
0001
,
0110
1000
0001
1000
0110
1000
0100
0010
0101
0010
0100
0010
1100
0010
0001
0100
,
1010
0100
1000
0010
0101
1000
0010
1000
0110
0001
0010
0100
1001
0100
0010
0100
,
0010
1000
0001
1000
0001
1000
0010
0100
0001
1000
0010
0001
0100
1000
0100
0010
,
1001
0100
0010
0001
0110
0000
1000
0100
0011
0100
1000
0100
0010
0100
0011
0100
,
0010
0001
0010
0100
0011
1000
0100
1000
0011
0100
0010
0001
0010
0100
0011
1000
,
0100
0010
0001
0100
0011
1000
0100
0010
1100
0000
1010
0000
0110
0000
0011
0000
,
0101
0110
1001
0110
1100
0110
0011
0101
,
1010
0000
0110
0000
0101
0000
1010
0000
2000
0000
3000
2000
0000
0000
0000
0000
,
0000
3220
0000
0000
0000
0000
0000
0000
,
0000
0000
0000
0000
0332
0000
0003
0000
0002
0000
0000
0003
0000
0000
0020
0000
,
0000
0030
0000
0000
0200
0000
0000
0300
2000
0000
0000
0000
3000
0000
0000
0000
,
0200
0000
0000
0000
0300
0000
0000
0000
0020
0000
0000
0030
0000
0000
0110
0000
,
0110
1100
0011
1100
0010
1000
0100
0010
,
0001
0100
0010
0001
0100
0010
0001
1100
,
0110
1010
0011
0110
0010
0100
1000
0100
,
0010
0001
0010
0100
0010
0100
0010
1001
,
1100
0110
0011
0100
0010
0001
0100
1000
,
0100
0000
0000
0000
0010
0000
0000
0000
0000
0001
0000
0000
0000
0010
0000
0000
0000
0100
0000
0000
0000
0000
1000
0000
0000
0000
0100
0000
0000
0000
0000
0010
,
0000
0000
0000
0000
0000
0000
0001
0000
0000
0000
0000
0000
0000
0020
0000
0000
0000
0000
0030
0000
0000
0000
0000
0000
0000
0000
0000
0000
0000
0000
0000
0000
;
