#TITLE:Reversing Darts;
#SUBTITLE:;
#ARTIST:Cuevox;
#TITLETRANSLIT:;
#SUBTITLETRANSLIT:;
#ARTISTTRANSLIT:;
#CREDIT:;
#BANNER:Reversing Darts - banner.jpg;
#BACKGROUND:Reversing Darts - bg.jpg;
#LYRICSPATH:;
#CDTITLE:pfx - icon.png;
#MUSIC:cuevox-reversingdarts.mp3;
#OFFSET:-0.320;
#SAMPLESTART:92.420;
#SAMPLELENGTH:12.000;
#SELECTABLE:YES;
#BPMS:0.000=160.000,236.000=80.000,238.000=160.000,342.000=80.000,343.000=160.000;
#STOPS:343.000=0.360
;
#BGCHANGES:;
// cache tags:
#FIRSTBEAT:0.000;
#LASTBEAT:532.000;
#SONGFILENAME:Songs/Community Keyboard Megapack - Volume 1/(pfx13AE) Reversing Darts/Reversing Darts.sm;
#HASMUSIC:1;
#HASBANNER:1;
#MUSICLENGTH:231.053;
// end cache tags

//---------------dance-single - ----------------
#NOTES:
     dance-single:
     :
     Hard:
     11:
     1.000,1.000,1.000,0.779,0.760,1112.000,362.000,180.000,0.000,5.000:
1100
0000
0000
0000
0000
0000
0000
0010
0101
0000
0001
0000
0001
0000
0000
0000
,
1100
0000
0000
1010
0000
0000
0000
0000
0101
0000
0011
0000
0011
0000
0000
1000
,
0100
1000
0000
0000
0010
0010
0000
0100
0001
0100
0001
0000
0100
0010
1000
0000
,
0001
0000
1000
1100
1100
0000
0000
0010
0101
0000
0010
1001
0000
0000
0000
0010
,
1100
0001
0100
0000
0001
0000
1000
0100
0010
0000
0001
0000
0001
0000
1000
0100
,
2001
0000
3100
0000
0000
0000
0001
0010
0100
0000
1000
0000
0001
0000
1100
0000
,
1001
0000
0000
0000
1100
0000
0000
0000
0000
0000
0000
0000
1000
0100
0010
0001
1100
0000
0000
0000
0000
0000
0110
0000
0000
0000
0000
0000
0011
0000
0000
0000
,
0100
0010
1001
0000
0101
0000
1010
1100
0000
0001
0010
0010
0010
0000
0001
0001
,
1000
0100
0011
0000
1001
0100
0010
0000
1100
0000
0011
0000
0000
0000
0000
0000
,
1000
0100
0020
0030
0101
0000
1010
0100
0010
0001
0110
1000
0100
0000
1000
0000
,
0012
0000
0000
0000
0000
0000
1003
0100
2010
0000
0000
0000
3101
0000
0000
0000
,
0000
0000
0000
0000
0101
0000
0000
0000
0001
0010
0001
0000
0110
0000
0000
0000
,
1000
0000
0010
0000
0100
0000
0001
0000
0110
1000
0001
0000
0010
0000
1000
0100
,
0011
0000
0000
0000
1000
0000
0010
0000
1000
0000
0110
0000
0001
0010
0101
0000
,
0000
1000
1000
0000
0000
0100
0010
0001
1000
0000
0010
0000
1001
0000
0001
0010
,
1100
0000
1001
0000
1010
0000
0010
0100
0011
0000
0010
0100
0011
0000
1100
0000
,
0001
0000
0010
0000
1100
0000
0001
0010
2100
3000
0010
0000
0001
1000
0120
0030
,
1000
0000
0001
0000
1010
0100
0010
0000
0001
0000
1100
0000
0001
0010
0002
0013
,
1100
0000
0010
0000
0011
0000
1100
0000
0001
1000
0001
1000
0110
0001
0010
0000
,
1100
0000
0110
0000
0011
0000
0000
0001
0000
0001
1000
0100
0010
0100
2001
3000
,
0100
0000
0010
0000
0001
0000
0010
0000
0100
1000
0000
1000
0101
0000
0100
0000
,
0001
0010
0000
0000
0200
0000
1300
0000
0000
0000
0110
0000
0000
0120
0031
0010
,
1100
0010
0000
0000
0011
1000
0120
0130
0000
0000
1000
1000
0100
0010
0101
0000
,
2000
3000
1000
0000
0101
0000
0010
0000
0010
0000
1001
0000
0000
1000
0210
0301
,
1000
1000
0000
0000
0100
0010
0100
0010
0101
1000
0000
0000
1010
0000
0100
0001
,
0100
0001
0110
1000
0100
0010
0002
0000
1003
0000
0010
0000
0000
2001
3010
0100
,
0001
0000
0001
0000
1100
0000
0100
0010
1001
0000
0000
0000
0110
0001
1000
0000
,
1000
0100
0010
0100
1000
0001
0010
0001
1000
0100
0010
0001
1000
0010
0100
0000
,
0000
0000
0000
0000
0000
0000
0000
0001
,
0000
0000
0000
0000
,
0010
0000
0000
0000
,
0000
0000
0000
0000
,
1000
0000
0000
0000
0000
0000
0000
0001
,
0000
0000
0000
0000
,
0200
0000
0300
0000
,
0020
0000
0030
0000
,
1000
0000
0100
0010
0000
0001
0000
1000
0000
0010
0100
0000
0100
0000
0100
0000
,
0100
0001
0000
1100
0000
0001
0000
1000
0100
0000
0000
0001
0000
1100
0000
0010
,
0100
0000
0100
0000
0000
1100
0010
0000
0010
0000
0000
0010
1001
0000
0000
0100
,
0000
0000
0000
0000
0000
0000
0000
0000
0000
0000
0000
0000
0000
0000
1000
0100
,
0011
0100
1000
0100
0010
0001
0000
0000
0000
1000
0100
0010
0100
1000
0001
0100
,
0011
1000
0100
0010
0100
1000
0001
0010
0100
0010
0100
0000
0000
0000
0000
0000
,
0000
0000
0000
0000
0110
0000
0000
0000
1000
0100
0010
0100
0010
0001
0010
0100
,
1000
0010
0100
0010
1000
0000
0001
0000
0100
0000
0000
0000
0000
0000
0000
0000
,
2000
0010
3020
0100
,
0230
0001
0302
1000
,
2003
0100
0010
0001
3200
0010
1000
1000
,
0320
0001
0100
0001
0031
1000
0100
0010
,
0001
0010
0100
0010
0001
0100
0010
0100
0001
1000
0100
1000
0001
1000
0010
1000
,
0001
0100
0010
0100
0001
0010
0100
0010
0001
0100
0010
1000
0100
0010
0100
1000
,
0001
0010
0100
1000
0010
0100
0001
1000
0010
0100
0001
1000
0100
0010
0001
1000
,
0100
0010
0001
0010
0001
0010
0001
0010
0001
0010
0001
0010
0001
0010
0001
0010
,
2001
0000
0000
0000
3020
0000
2030
3200
,
0320
0000
0002
0030
2000
0003
0200
3000
,
0020
0300
0032
0023
0230
0000
0000
2300
,
3002
2003
3020
0000
,
0230
0302
2003
3200
0320
0000
0032
2003
,
3020
0000
0230
0302
2003
0000
3002
0000
,
0023
0000
0230
0000
2300
3200
0302
0203
,
2300
0000
0000
0000
3101
0011
0110
0011
,
1001
0000
0011
0000
1100
0010
0001
1010
0000
0001
0110
0000
0101
0000
0000
1010
,
0000
0010
0101
0000
0110
0000
0000
0000
1001
0000
1010
0000
0101
0000
1010
0000
,
1100
0000
1010
0000
0101
0010
0100
0011
0000
0010
1100
0000
0110
0000
0000
0110
,
0000
1000
0101
0000
1001
0000
0000
0000
1100
0000
0110
0000
1001
0000
0110
0000
,
0101
0000
0110
0000
0101
0010
1000
0011
0000
0001
0110
0000
1100
0000
0000
0101
,
0000
0010
1100
0000
1001
0000
0000
0000
0110
0000
1001
0000
1100
0000
1001
0000
,
0101
0000
1001
0000
0110
0001
1000
0101
0000
0001
1010
0000
1100
0000
0000
0110
,
0000
1000
0101
0000
0011
0000
0000
0000
1100
0000
0011
0000
1100
0010
0000
0010
,
0101
0000
0101
0000
0101
0000
0000
0000
0110
0000
0011
0000
1010
0100
0000
0100
,
0011
0000
0011
0000
0011
0000
0000
0000
1010
0000
1100
0000
0011
0100
0000
0100
,
1010
0000
1010
0000
1010
0000
0000
0000
0110
0000
1100
0000
0011
1000
0000
1000
,
0011
0000
1100
0000
0011
0000
0000
0000
1001
0000
0110
0000
1100
0010
0000
0010
,
1001
0000
1001
0000
1001
0000
0000
0000
0110
0000
0011
0000
1001
0100
0000
0100
,
0011
0000
0011
0000
0011
0000
0000
0000
1010
0000
1100
0000
0110
0001
0000
0001
,
1010
0000
1010
0000
1010
0000
0000
0000
1000
0100
0010
0100
1000
0001
1000
0001
,
0100
0010
1000
0100
1000
0001
0010
0100
2000
0000
0000
0000
0000
0000
0000
0000
,
0000
0000
3200
0000
,
0000
0000
0000
0000
0321
0000
0000
0001
,
0000
0000
0001
0000
0000
0001
0000
0000
0032
0000
0000
0000
0000
0000
0000
0000
,
0000
0000
2103
0000
,
3020
0230
0302
0000
,
2003
0000
0000
0000
0000
0000
3100
0010
0002
0000
0000
0000
0000
0000
0000
0000
,
0023
0230
2300
0000
,
3200
0000
0320
0230
,
2300
3200
0302
0000
,
0203
0000
0000
0000
2000
0000
0000
0300
0002
0000
0000
0000
3003
0000
1000
0100
,
0010
0000
0101
0000
0011
0000
1100
0000
1001
0000
0001
1000
0100
0000
0011
0000
,
1001
0000
1000
0100
0010
0000
0110
0000
0101
0000
0010
0100
1000
0000
0011
0000
,
1002
0023
0230
0320
0032
2003
3200
0320
,
0032
0000
2003
0000
3020
0000
0230
0000
0320
0000
0000
0000
0000
0000
1030
0100
,
0011
0000
1100
0000
0101
0000
1010
0000
0110
0000
0100
0010
1001
0000
0011
0000
,
1001
0000
1000
0001
0110
0000
0101
0000
0011
0000
1000
0010
1100
0000
0011
0000
,
2100
3000
0002
0003
0200
0300
0020
0030
2000
3000
0200
0300
0020
0030
0200
0300
,
2000
3000
0002
0003
0200
0300
0002
0003
2000
0000
0000
0000
0000
0000
0000
0000
,
3010
0100
0001
0010
0100
0010
1000
0100
0010
0100
1000
0001
0010
0100
0010
0001
,
0100
0010
1000
0100
1000
0100
0010
0001
0010
0100
1000
0001
0010
0100
1000
0100
,
1000
0010
1000
0100
0010
0100
1000
0001
0010
0100
1000
0010
0100
0001
0100
0001
,
0100
0010
1000
0100
0010
0100
1000
0100
0010
0001
0100
0010
0100
0001
1000
0000
,
0010
0100
0001
1000
0100
1000
0100
0010
0100
1000
0100
0010
0001
0010
0100
1000
,
0001
0010
0100
0010
0001
1000
0010
0100
0010
1000
0100
0010
0001
1000
0001
0100
,
0002
0003
2000
3000
0002
0003
2000
3000
0020
0030
0200
0300
0020
0030
0200
0300
0002
0003
0020
0030
0002
0003
0020
0030
0200
0300
2000
3000
0200
0300
2000
3000
,
0001
0000
0010
0000
0001
0000
0100
0000
0010
0000
1000
0000
0010
0000
0100
0000
0001
0000
0010
0000
0100
0000
1000
0000
0100
0010
0001
1000
0100
0010
0001
1000
,
0110
0000
0011
0000
1100
0000
1001
0000
0101
0000
1000
0100
0011
0000
0110
0000
,
1100
0000
0001
0010
1100
0000
0110
0000
1001
0000
1000
0100
1000
0000
0110
0000
,
0022
0033
2200
3300
0220
0330
2002
3003
2200
3300
0220
0330
0022
0033
2002
3003
,
2200
3300
0220
0330
0202
0303
2020
3030
2002
0000
0000
0000
0000
0000
0000
3003
,
1000
0000
0100
0000
0010
0000
0001
0000
0010
0000
1000
0100
0011
0000
0110
0000
,
1100
0000
0011
1000
0110
0000
1001
0000
0011
0000
1000
0001
0110
0000
1100
0000
,
0120
0100
0230
0001
0302
1000
2003
0010
,
3020
0100
0230
0001
0302
1000
1000
1000
,
1103
0000
0110
0000
1001
0000
0110
0000
1010
0000
0110
0000
0101
0010
1000
0101
,
0000
0001
1100
0000
0110
0000
0000
0011
0000
0100
1010
0000
1001
0000
0000
0000
,
1001
0000
1010
0000
0110
0000
1010
0000
0101
0000
1010
0000
0110
0001
1000
0110
,
0000
0001
0110
0000
1100
0000
0000
0011
0000
1000
0110
0000
0011
0000
0000
0000
,
1100
0000
0011
0000
1000
0010
0100
0011
0000
0011
0000
0010
1100
0010
0001
0110
,
0000
0100
0011
0000
0110
0000
0010
1100
0000
0001
0110
0000
1001
0000
0100
1010
,
0000
1010
0001
0100
0010
1001
0000
1000
0000
1001
0100
0010
0101
0000
1000
0110
,
0000
0000
0010
0000
0101
0000
0000
0000
0101
0000
0000
0000
1000
0000
0110
0000
0000
0000
0001
0000
0010
0000
0100
0000
2000
3000
0002
0003
2000
3000
0002
0003
,
2000
0000
0000
0000
0000
0000
3010
0100
0011
0000
0000
0000
0011
1000
0110
0000
,
1001
0000
1000
0100
0011
0100
1000
0001
0110
0000
1100
0000
0011
0000
0000
0000
,
2000
3000
0020
0030
2000
3000
0020
0030
0200
0300
0002
0003
0200
0300
0002
0003
0020
0030
0200
0300
0020
0030
0200
0300
2000
3000
0002
0003
2000
3000
0002
0003
,
0200
0000
0000
0000
0010
0000
0000
0000
0320
0000
0000
0000
1000
0000
0000
0000
2030
0000
0000
0000
0000
0000
0000
0000
3100
0010
0001
1000
0010
0100
0001
1000
,
0110
0000
0011
0000
1100
0000
0011
0000
1001
0000
0011
0000
1100
0010
0001
0110
,
0000
1000
0110
0000
0011
0000
0000
0011
0000
0100
1010
0000
0011
0000
0000
0000
,
0110
0000
1010
0000
0101
0000
1010
0000
1100
0000
1010
0000
1001
0100
0010
0101
,
0000
0010
1100
0000
0110
0000
0000
1100
0000
0001
0110
0000
1001
0000
0000
0000
,
1010
0000
0110
0000
0101
0010
0000
0010
1100
0000
1100
0000
1100
0000
0000
0000
,
0110
0000
0011
0000
1010
0100
0000
0100
0011
0000
0011
0000
0011
0000
0000
0000
,
1100
0000
0011
0000
0110
0001
0000
0001
1010
0000
1010
0000
1010
0000
0000
0000
,
1001
0000
1100
0000
0101
0010
0000
0010
1001
0000
0110
0000
1001
0000
0000
0000
,
0101
0000
0110
0000
1010
0100
0000
0100
0011
0000
0011
0000
0011
0000
0000
0000
,
0110
0000
1100
0000
0101
0010
0000
0010
1100
0000
1100
0000
1100
0000
0000
0000
,
0011
0000
1100
0000
0110
1000
0000
1000
0101
0000
0101
0000
0101
0000
0000
0000
,
1001
0000
0000
0000
;
