#TITLE:Look At Me Tenderly;
#SUBTITLE:EXoduz Violation;
#ARTIST:Goreshit;
#TITLETRANSLIT:;
#SUBTITLETRANSLIT:;
#ARTISTTRANSLIT:;
#CREDIT:;
#BANNER:../Banner.png;
#BACKGROUND:../Background.png;
#LYRICSPATH:;
#CDTITLE:;
#MUSIC:music.ogg;
#OFFSET:1.044;
#SAMPLESTART:15.362;
#SAMPLELENGTH:12.000;
#SELECTABLE:YES;
#DISPLAYBPM:192.000;
#BPMS:0.000=191.000,20.000=192.000,36.000=191.000,40.000=192.000,84.000=191.000,88.000=192.000,90.000=194.000,92.000=192.000,212.000=190.000,216.000=195.000,220.000=194.000,224.000=193.000,228.000=191.000,232.000=192.000,248.000=190.000,252.000=192.000,264.000=190.000,268.000=192.000,280.000=190.000,284.000=192.000,296.000=194.000,300.000=192.000,312.000=194.000,316.000=192.000,1004.000=191.000,1008.000=192.000,1028.000=191.000,1029.000=192.000;
#STOPS:;
#BGCHANGES:;
// cache tags:
#FIRSTBEAT:4.000;
#LASTBEAT:1332.000;
#SONGFILENAME:Songs/EXoduz Violation/Look At Me Tenderly/SM.sm;
#HASMUSIC:1;
#HASBANNER:1;
#MUSICLENGTH:425.109;
// end cache tags

//---------------dance-single - ----------------
#NOTES:
     dance-single:
     :
     Challenge:
     18:
     1.000,1.000,0.113,0.960,1.000,4503.000,48.000,408.000,0.000,9.000:

0000
0000
0000
0000
,
1000
0001
0100
0001
1000
0010
0100
0001
,
0010
0100
1000
0001
1000
0010
0100
0001
,
0010
0100
1000
0001
0100
0001
1000
0010
,
0100
0001
0010
0100
1000
0001
0100
0010
,
1000
0010
0100
0010
1000
0100
0010
0001
,
0100
0001
0010
0001
0100
0001
0010
0100
,
1000
0001
0100
0001
1000
0100
1000
0001
,
0100
0001
1000
0010
0100
0001
0010
0100
,
1000
0001
1000
0010
0100
0001
0010
0100
1000
0001
1000
0001
1000
0010
0100
0001
,
0010
0100
1000
0001
0100
0001
1000
0010
0100
0001
0010
0100
1000
0001
1000
0001
,
1000
0010
0100
0001
0010
0100
1000
0001
0100
0001
1000
0001
0010
0001
1000
0001
,
0100
0010
1000
0010
0100
0010
1000
0100
0010
0001
1000
0001
0100
0001
0010
0100
,
1000
0001
0100
0001
1000
0010
0100
0001
0010
0100
1000
0001
0100
0001
1000
0001
,
1000
0010
0100
0001
0010
0100
1000
0001
0100
0001
1000
0010
0100
0001
0010
0100
,
1000
0001
1000
0001
1000
0010
0100
0001
0010
0100
1000
0001
0100
0001
1000
0010
,
0100
0001
0010
0100
1000
0001
1000
0010
0100
0001
0010
0100
1000
0100
0010
0001
,
1001
1000
0100
0010
0001
1000
0001
1000
0010
0100
0001
0010
0100
1000
0010
1000
,
0010
0100
0001
0010
0100
1000
0001
0100
0001
1000
0001
1000
0010
0100
0001
0010
,
0100
1000
0001
1000
0001
1000
0010
0100
0001
0010
0001
0010
0100
1000
0001
1000
,
0001
1000
0100
0010
0001
0010
0001
1000
0001
1000
0010
0100
0010
1000
0100
0010
,
0001
0010
0001
1000
0001
0100
0001
1000
0001
1000
0010
0100
0001
0010
0100
1000
,
1001
0001
0010
0100
1000
0001
0100
0001
1000
0010
0100
0001
0010
0100
1000
0001
,
0100
0001
1000
0010
0100
0001
0010
0100
1000
0001
0100
0001
1000
0010
0100
0001
,
0010
0100
1000
0001
0100
0010
1000
0010
0100
0001
0010
0100
1000
0001
0100
0010
,
1000
0001
1000
0001
1000
0010
0100
0001
0010
0100
1000
0100
1000
0001
0010
0100
,
1000
0010
1000
0010
0100
0001
1000
0001
1000
0100
0010
0001
0010
0001
1000
0001
,
1000
0001
1000
0010
0100
0001
0010
0100
1000
0001
0100
0001
1000
0001
1000
0010
,
0100
0001
0010
0100
1000
0001
0100
0001
1000
0100
1000
0001
0010
0001
1000
0010
,
1000
0010
0100
0001
0010
0100
1000
0100
0010
0001
1000
0001
1000
0010
0100
0001
,
0010
0100
1000
0001
0100
0001
1000
0001
1000
0010
0100
0001
0010
0100
1000
0100
,
0010
0001
1000
0001
1000
0010
0100
0001
0010
0100
1000
0001
1000
0001
1000
0001
,
1000
0010
0100
0001
0010
0001
0010
0100
1000
0001
1000
0001
1000
0010
0100
0001
,
0010
0100
1000
0100
0010
0001
0010
0100
,
1000
0100
0010
0001
1000
0001
1000
0010
,
0100
0001
0010
0100
1000
0001
0100
0001
1000
0010
0100
0010
1000
0100
0010
0001
,
0010
0001
1000
0001
0100
0010
1000
0010
0100
0001
0010
0001
0010
0100
1000
0001
,
1000
0001
1000
0010
0100
0001
0010
0001
0010
0100
1000
0001
0100
0001
1000
0010
,
0100
0001
0010
0100
1000
0001
1000
0100
0010
0001
0010
0001
1000
0010
0100
0001
,
0010
0100
1000
0001
0100
0001
1000
0010
0100
0001
0010
0100
1000
0001
0100
0001
,
1000
0010
0100
0001
0010
0001
0010
0100
1000
0001
1000
0001
1000
0010
0100
0001
,
0010
0100
1000
0001
0100
0001
1000
0010
1000
0010
0100
0010
1000
0100
0010
0001
,
0010
0001
1000
0010
0100
0001
0010
0001
0010
0100
1000
0001
0100
0001
1000
0010
,
0100
0010
1000
0100
0010
0001
0010
0001
0010
0001
1000
0001
0100
0001
1000
0010
,
1000
0010
0100
0001
0010
0001
0010
0100
1000
0001
0100
0001
1000
0010
1000
0010
,
0100
0001
0010
0001
0010
0001
0010
0100
1000
0001
1000
0001
0100
0001
1000
0010
,
0100
0010
1000
0100
0010
0001
0010
0001
1000
0001
1000
0010
1000
0010
0100
0010
,
1000
0100
0010
0001
0010
0001
1000
0001
0100
0010
1000
0010
0100
0001
0010
0001
,
0010
0100
1000
0001
1000
0001
1000
0100
0010
0001
0010
0001
1000
0010
0100
0010
,
2202
0000
0000
0000
,
0000
0000
0000
0000
,
0000
0000
0000
0000
,
0000
0000
0000
0000
,
0000
0000
0000
0000
0000
0000
0000
3303
,
0001
1000
0010
1000
0010
0100
0001
0010
0001
0010
0100
1000
0001
1000
0001
1000
,
0010
0100
0001
0010
0001
0010
0100
1000
0001
1000
0001
1000
0010
1000
0010
0100
,
0010
1000
0100
0010
0001
0010
0001
1000
0001
0100
0001
0010
0100
1000
0001
0010
,
0100
1000
0001
1000
0001
1000
0010
0100
0001
0010
0100
1000
0001
1000
0001
1000
,
1000
0000
0100
0000
0010
0000
0001
0000
0000
0000
0000
0000
1000
0000
0001
0000
0100
0000
0001
0000
0000
0000
0000
0000
1000
0000
0010
0000
0100
0000
0001
0000
0000
0000
0000
0000
1000
0000
0000
0010
0000
0000
1000
0000
0000
0010
0000
0000
,
0100
0001
0010
0001
0010
0100
1000
0001
1000
0001
1000
0010
0100
0001
0010
0001
,
0010
0100
1000
0001
1000
0001
1000
0100
0010
0001
0010
0001
1000
0001
0100
0010
,
1000
0010
0100
0001
0010
0100
1000
0100
0010
0001
1000
0001
1000
0010
0100
0001
,
1000
0000
0100
0000
0010
0000
0001
0000
0000
0000
0000
0000
1000
0000
0010
0000
1000
0000
0010
0000
0000
0000
0000
0000
0100
0000
0001
0000
0100
0000
0001
0000
0000
0000
0000
0000
1000
0000
0000
0001
0000
0000
0100
0000
0000
0001
0000
0000
,
1000
0001
0100
0001
1000
0001
0100
0001
1000
0001
0100
0001
1000
0001
0100
0001
,
1000
0010
0100
0001
0010
0001
0010
0100
1000
0001
1000
0001
1000
0010
0100
0001
,
0010
0001
0010
0100
1000
0001
1000
0001
1000
0010
0100
0001
0010
0001
0010
0100
,
1000
0000
0001
0000
1000
0000
0001
0000
0000
0000
0000
0000
1000
0000
0010
0000
0100
0000
0010
0000
0000
0000
0000
0000
1000
0000
0100
0000
0010
0000
0001
0000
0000
0000
0000
0000
1000
0000
0000
0001
0000
0000
1000
0000
0000
0100
0000
0000
,
1000
0001
1000
0100
1000
0001
1000
0100
1000
0001
1000
0100
1000
0001
1000
0100
,
1000
0001
1000
0100
1000
0001
1000
0100
1000
0001
1000
0100
1000
0001
1000
0100
,
1000
0001
1000
0100
1000
0001
1000
0100
1000
0001
1000
0100
1000
0001
1000
0100
,
0010
0000
0100
0000
1000
0000
0001
0000
0000
0000
0000
0000
0010
0000
0100
0000
1000
0000
0010
0000
0000
0000
0000
0000
0100
0000
0001
0000
0100
0000
0001
0000
0000
0000
0000
0000
1000
0000
0000
0010
0000
0000
0100
0000
0000
0001
0000
0000
,
0010
0001
0010
0100
1000
0001
1000
0001
1000
0100
0010
0001
1000
0010
0100
0001
,
0010
0001
0010
0100
1000
0001
1000
0001
1000
0010
0100
0001
0010
0100
1000
0001
,
0100
0001
1000
0001
0100
0001
0010
0100
1000
0010
1000
0100
1000
0001
1000
0100
,
0010
0000
0100
0000
1000
0000
0001
0000
0000
0000
0000
0000
0010
0000
0100
0000
1000
0000
0100
0000
0000
0000
0000
0000
1000
0000
0100
0000
1000
0000
0100
0000
0000
0000
0000
0000
0010
0000
0000
0001
0000
0000
1000
0000
0000
0001
0000
0000
,
0100
0001
1000
0010
0100
0001
0010
0001
0010
0100
1000
0001
1000
0010
0100
0001
,
0010
0001
0010
0100
1000
0001
0100
0001
1000
0010
0100
0001
0010
0001
0010
0100
,
1000
0001
0100
0001
1000
0010
1000
0100
1000
0010
0100
0010
1000
0100
0010
0001
,
0100
0001
0010
0100
0000
0000
1000
0010
0100
0010
0000
0000
0100
0001
0010
0200
0000
0000
2300
0000
0000
3020
0000
0000
,
0230
0302
2003
3002
2003
3020
0230
0302
,
0023
0230
2300
3002
0203
0302
2003
3020
,
0130
0001
1000
0010
0100
0001
0010
0100
1000
0001
0100
0001
1000
0010
0100
0010
,
1000
0100
0010
0001
1000
0001
0100
0001
0010
0100
1000
0001
0100
0010
1000
0010
,
0100
0001
1000
0100
0010
0001
1000
0010
0100
0001
0010
0100
1000
0001
0100
0010
,
1000
0100
0010
0001
0010
0001
1000
0010
0100
0001
1000
0100
0010
0001
1000
0001
,
0100
0010
1000
0010
0100
0001
0010
0100
1000
0001
0100
0010
1000
0010
0100
0001
,
1000
0100
0010
0001
1000
0001
0100
0001
1000
0100
1000
0010
0100
0001
0100
0010
,
1000
0100
0010
0001
1000
0001
0100
0010
1000
0100
0010
0001
1000
0001
0100
0001
,
1000
0010
0100
0001
0010
0100
1000
0001
0010
0100
1000
0001
0100
0001
1000
0010
,
0100
0001
0010
0100
1000
0010
1000
0010
0100
0001
1000
0001
1000
0100
0010
0001
,
1000
0010
0100
0001
0010
0100
1000
0001
0100
0001
1000
0010
0100
0001
0010
0100
,
1000
0001
0100
0010
1000
0010
0100
0001
1000
0100
0010
0001
1000
0010
1000
0010
,
0100
0001
1000
0001
1000
0100
0010
0001
1000
0001
0100
0010
1000
0010
0100
0001
,
0010
0100
1000
0001
0100
0010
1000
0100
0010
0001
1000
0001
0100
0010
1000
0100
,
0010
0001
1000
0100
0010
0001
1000
0001
0100
0010
1000
0010
0100
0001
0010
0100
,
1000
0001
0100
0010
1000
0010
0100
0001
0010
0100
1000
0001
0100
0010
1000
0100
,
0010
0001
0010
0100
1000
0001
0100
0001
1000
0010
0100
0001
0010
0100
1000
0001
,
1000
0001
1000
0010
0100
0001
0010
0100
1000
0001
0100
0001
1000
0010
0100
0001
,
1000
0001
0100
0001
1000
0010
0100
0001
0010
0001
0010
0100
1000
0001
1000
0001
,
1000
0100
0010
0001
1000
0001
1000
0010
0100
0001
0010
0100
1000
0001
0100
0010
,
1000
0001
1000
0001
1000
0001
1000
0010
0100
0001
0010
0001
0010
0001
0010
0001
,
0100
0001
1000
0010
1000
0010
0100
0001
0010
0100
1000
0001
0100
0001
1000
0010
,
0100
0001
0010
0100
1000
0001
1000
0010
0100
0001
0010
0100
1000
0001
0100
0010
,
0100
0010
1000
0100
0010
0001
0010
0001
1000
0001
0100
0001
1000
0001
0100
0001
,
0010
0001
0100
0001
1000
0010
0100
0001
0010
0100
1000
0001
1000
0001
1000
0001
,
0100
0001
0010
0100
1000
0001
1000
0001
1000
0010
0100
0001
0010
0001
0010
0100
,
1000
0001
1000
0001
1000
0010
0100
0001
0010
0100
1000
0001
1000
0010
0100
0001
,
0010
0100
1000
0001
1000
0001
1000
0010
1000
0010
0100
0001
1000
0010
0100
0001
,
1000
0001
1000
0010
0100
0001
0010
0001
0010
0100
1000
0001
1000
0010
0100
0001
,
1000
0001
1000
0010
1000
0010
0100
0010
1000
0100
0010
0001
0010
0100
1000
0100
,
0010
0001
0010
0100
1000
0100
0010
0001
1000
0001
0100
0001
1000
0010
0100
0001
,
0010
0100
1000
0001
1000
0001
0100
0010
1000
0010
1000
0100
0010
0001
1000
0001
,
1000
0001
1000
0001
1000
0010
0100
0001
0010
0100
1000
0001
0100
0001
1000
0010
,
0200
0302
2003
3002
0203
0302
2003
3020
,
0230
0302
0023
0230
2300
3002
0203
0320
,
2030
3002
0203
0302
2003
3020
0230
0302
,
0023
0230
2300
3002
2003
3002
2003
3002
,
1003
0001
0100
0001
1000
0010
0100
0001
0010
0100
1000
0001
1000
0001
1000
0010
,
0100
0001
0010
0100
1000
1000
0100
0010
0001
1000
1000
0010
0100
0001
0010
0100
,
1000
1000
0001
0010
0100
1000
0001
0100
0001
1000
0001
1000
0010
0100
0001
0010
,
0001
1000
0001
1000
0010
0100
0001
0010
0001
0010
0100
1000
0001
1000
0010
0100
,
0001
1000
0001
1000
0010
0100
0001
0010
0001
0010
0100
1000
0100
1000
0010
0100
,
0001
1000
0001
1000
0100
0010
0001
0010
0001
1000
0001
1000
0010
0100
0010
0100
,
0001
1000
0010
1000
0010
0100
0001
0010
0100
1000
0001
1000
0100
0010
0001
0010
,
0001
1000
0010
0100
0001
0010
0001
0010
0100
1000
0001
1000
0001
1000
0010
0100
,
0001
0010
0100
1000
0001
0100
0001
1000
0100
1000
0001
0010
0001
1000
0010
0100
,
0010
1000
0100
0010
0001
0010
0001
1000
0001
0100
0010
1000
0010
0100
0001
0010
,
0100
1000
0001
1000
0001
0100
0001
1000
0010
0100
0001
0010
0100
1000
0001
0100
,
0001
0000
2000
3000
2001
3000
0201
0300
0021
0030
0001
0000
1000
0000
0001
0000
,
1000
0001
1000
0001
1000
0010
0100
0001
0010
0100
1000
0001
0100
0010
1000
0100
,
0010
0001
1000
0001
0100
0010
1000
0010
0100
0010
1000
0100
0010
0001
0010
0001
,
1000
0001
0100
0001
1000
0001
1000
0010
0100
0010
1000
0010
0100
0001
0010
0100
,
1000
0001
0100
0001
1000
0001
1000
0100
0010
0001
0010
0001
1000
0001
0100
0010
,
1000
0010
0100
0001
0010
0100
1000
0001
1000
0001
0100
0001
1000
0010
0100
0001
,
0010
0100
1000
0001
0100
0001
1000
0001
0010
0001
1000
0010
0100
0010
1000
0100
,
0010
0001
1000
0001
0100
0010
1000
0010
1000
0010
0100
0001
0010
0100
1000
0001
,
0100
0001
1000
0001
1000
0100
0010
0001
1000
0001
1000
0001
0010
0100
1000
0001
,
1000
0001
1000
0010
0100
0001
0010
0001
0010
0100
1000
0001
1000
0010
0100
0001
,
0010
0001
0010
0100
1000
0001
1000
0001
1000
0100
0010
0001
0100
0100
0010
0010
,
0100
0100
0001
0010
0100
1000
0001
0100
0001
1000
0010
0100
0001
0010
0100
1000
,
0002
0203
0302
2003
3020
2030
3020
0230
,
0320
2030
3200
0320
0032
2003
3002
0203
,
0320
2030
3200
0320
0032
2003
3002
0203
,
0302
0023
0230
2300
3200
0320
0032
2003
,
3020
0230
0302
0203
0320
2030
3200
0320
,
0031
1000
0001
0100
0001
1000
0010
0100
0010
1000
0100
0010
0001
0010
0001
1000
,
0001
0100
0010
1000
0010
0100
0001
0010
0100
1000
0001
1000
0001
1000
0100
1000
,
0010
0100
0001
0010
0100
1000
0001
1000
0001
0100
0001
1000
0010
0100
0001
0010
,
0100
1000
0001
0100
0001
1000
0010
0100
0001
0010
0100
1000
0100
0010
0001
1000
,
0001
0100
0001
1000
0010
0100
0010
0100
0010
1000
0100
0010
0001
0010
0001
1000
,
0001
0100
0010
1000
0010
0100
0001
0010
0100
1000
0001
1000
0001
1000
0100
1000
,
0010
0100
0001
0010
0001
0100
0001
1000
0001
1000
0010
0100
0001
0010
0100
1000
,
0001
0100
0001
1000
0010
0100
0010
1000
0100
0010
0001
0010
0001
1000
0001
1000
,
0001
0100
0010
1000
0010
1000
0100
0010
0001
1000
0001
0100
0010
1000
0100
0010
,
0001
1000
0001
0100
0010
1000
0010
0100
0001
0010
0001
0010
0100
1000
0001
1000
,
0010
0100
0001
0010
0001
0010
0100
1000
0001
1000
0001
1000
0010
0100
0001
0010
,
0001
0010
0100
1000
0001
0100
0010
1000
0010
0100
0001
0010
0100
1000
0001
1000
,
0001
1000
0100
0010
0001
1000
0010
0100
0001
0010
0001
0010
0100
1000
0001
1000
,
0001
1000
0010
0100
0001
0010
0001
0010
0100
1000
0001
0100
0001
1000
0001
1000
,
0010
1000
0010
0100
0001
0010
0001
0010
0100
1000
0001
0100
0001
1000
0001
1000
,
0010
0100
0002
0000
0023
0000
0230
0000
2300
0000
3200
0000
2300
0000
3020
0000
,
2232
0000
0000
0000
,
0000
0000
0000
0000
,
3313
0100
0010
0100
0001
0010
0100
1000
0001
0100
0010
1000
0100
0010
0001
1000
,
0001
1000
0010
0100
0001
0010
0001
0010
0100
1000
0001
0100
0001
1000
0001
1000
,
0010
0100
0010
1000
0100
0010
0001
0010
0001
1000
0001
0100
0001
1000
0010
0100
,
0001
0010
0001
0010
0100
1000
0001
1000
0001
1000
0010
0100
0001
0010
0100
1000
,
0001
0100
0001
1000
0001
0100
0001
1000
0010
0100
0001
0010
0100
1000
0100
0010
,
0002
2003
3020
0230
0302
0023
0230
2300
,
3001
0001
0010
0100
1000
0001
0100
0001
1000
0010
0100
0001
0010
0100
1000
0100
,
1000
0010
0100
0001
1000
0001
1000
0100
0010
0001
1000
0001
1000
0010
0100
0001
,
0010
0100
1000
0001
0100
0001
1000
0001
1000
0010
0100
0001
0010
0100
1000
0001
,
0100
0001
1000
0001
1000
0010
0100
0001
0010
0100
1000
0001
1000
0001
1000
0010
,
0100
0001
0010
0100
1000
0001
0100
0001
1000
0010
0100
0010
1000
0100
0010
0001
,
0010
0001
1000
0001
0100
0001
1000
0010
0100
0001
0010
0100
1000
0001
0100
0001
,
1000
0010
0100
0001
0010
0100
1000
0001
1000
0001
1000
0010
0100
0001
0010
0100
,
1000
0001
0100
0010
1000
0100
0010
0001
1000
0001
1000
0010
,
0100
0001
0010
0100
1000
0001
1000
0001
1000
0100
0010
0001
0010
0001
1000
0010
,
1000
0010
0100
0001
0010
0001
0010
0100
1000
0001
1000
0001
1000
0010
0100
0001
,
0010
0001
0010
0100
1000
0001
0100
0001
1000
0010
0100
0001
0010
0001
0010
0100
,
1000
0001
0100
0001
1000
0010
0100
0001
0010
0100
1000
0001
0100
0001
1000
0001
,
0010
0100
1002
0000
0023
0000
0230
0000
2300
0000
3002
0000
0203
0000
0302
0000
,
0023
0230
2300
3200
0320
0032
2003
3002
,
0203
0320
2030
3020
0230
0302
0023
0230
,
2300
3002
0203
0302
0023
0230
2300
3020
,
0130
0001
0010
0100
1000
0001
1000
0001
1000
0010
0100
0001
0010
0100
1000
0001
,
0100
0001
1000
0010
0100
0001
0010
0100
1000
0001
0100
0001
1000
0010
0100
0001
,
0010
0100
1000
0100
0010
0001
1000
0001
1000
0010
0100
0001
0010
0100
1000
0001
,
0100
0001
1000
0010
1000
0001
0100
0001
1000
0010
0100
0001
0010
0001
0010
0100
,
1000
0001
1000
0001
1000
0010
0100
0001
0010
0100
1000
0001
0100
0001
1000
0010
,
0100
0001
0010
0001
0010
0100
1000
0001
1000
0010
0100
0001
0010
0100
1000
0001
,
1000
0001
0100
0001
1000
0010
0100
0001
0010
0100
1000
0001
1000
0001
1000
0010
,
0100
0001
0010
0100
1000
0001
0100
0001
1000
0010
1000
0010
0100
0001
0010
0001
,
0010
0001
0010
0001
0010
0100
1000
0001
1000
0001
1000
0010
0100
0001
0010
0001
,
0010
0100
1000
0001
0100
0001
1000
0001
1000
0010
0100
0001
0010
0100
1000
0001
,
0100
0001
1000
0010
0100
0001
0010
0100
1000
0001
0100
0010
1000
0010
0100
0001
,
0010
0100
1000
0001
0100
0001
1000
0010
0100
0001
0010
0100
1000
0100
0010
0001
,
1000
0001
1000
0010
0100
0001
0010
0100
1000
0001
0100
0001
1000
0010
0100
0001
,
0010
0100
1000
0001
0100
0001
1000
0010
0100
0001
0010
0100
1000
0001
1000
0010
,
0100
0001
0010
0100
1000
0100
0010
0001
0010
0001
1000
0010
1000
0010
0100
0001
,
0010
0000
0000
0100
0000
0000
1000
0000
0000
0100
0000
0000
1000
0000
0000
0001
0000
0000
0100
0000
0000
0001
0000
0000
1000
0000
0000
0010
0000
0000
1000
0000
0000
0010
0000
0000
1000
0000
0000
0000
0001
0000
0000
0000
0100
0000
0000
0000
,
0001
1000
0010
0100
0001
0010
0001
0010
0100
1000
0001
1000
0001
1000
0100
0010
,
0001
0010
0001
1000
0001
0100
0010
1000
0010
0100
0001
0010
0001
0010
0100
1000
,
0001
0100
0001
1000
0010
0100
0001
0010
0001
0010
0100
1000
0001
0100
0001
1000
,
0010
0100
0001
0010
0001
0100
0001
0010
0001
0100
0010
1000
0100
0010
0001
1000
,
0001
1000
0010
0100
0001
0010
0001
0100
1000
0001
0100
0001
1000
0001
1000
0010
,
0100
0001
0010
0001
0100
1000
0001
0100
0001
1000
0010
0100
0001
0010
0001
0010
,
0100
1000
0001
0100
0001
1000
0010
0100
0001
0010
0100
1000
0001
1000
0001
1000
,
0001
1000
0002
0000
2003
0000
3010
0000
0110
0000
0101
0000
0101
0000
1010
0000
,
2002
0000
0000
0000
,
0000
0000
0000
0000
0000
0000
0000
3003
,
2222
0000
0000
0000
,
0000
0000
0000
0000
0000
0000
0000
3333
,
2222
0000
0000
0000
,
0000
0000
0000
0000
0000
0000
0000
3333
,
0001
0100
0020
2000
0000
0000
0000
0000
0000
3030
0000
0000
0001
0010
0200
2000
0000
0000
0000
0000
0000
3300
0000
0000
,
1111
0000
1111
0000
1111
0000
1111
0000
1001
1000
0001
0100
0010
1000
0010
1000
,
0001
1000
0001
1000
0010
0100
0001
0010
0100
1000
0001
1000
0010
0100
0001
0010
,
0001
0010
0100
1000
0001
1000
0001
1000
0010
0100
0001
0010
0100
1000
0001
0100
,
0001
1000
0010
1000
0010
0100
0001
0010
0100
1000
0001
0100
0010
1000
0010
0100
,
0010
1000
0100
0010
0001
0010
0001
1000
0001
1000
0001
1000
0010
0100
0001
0010
,
0100
1000
0001
1000
0001
1000
0010
0100
0001
0010
0100
1000
0100
0010
0001
1000
,
0001
1000
0010
0100
0001
0010
0100
1000
0001
0100
0001
1000
0001
0100
0010
1000
,
0010
0100
0010
1000
0100
0010
0001
1000
0001
0100
0010
1000
0100
0010
0001
0010
,
0001
1000
0001
1000
0010
0100
0001
0010
0100
1000
0001
0100
0010
1000
0010
0100
,
0001
0010
0100
1000
0100
0010
0001
1000
0001
1000
0001
0100
0001
0100
0010
1000
,
0010
0100
0001
0010
0001
0010
0100
1000
0001
0100
0001
1000
0010
0100
0001
0010
,
0001
0010
0100
1000
0001
0100
0001
1000
0010
0100
0001
0010
0100
1000
0100
0010
,
0001
1000
0001
0100
0001
1000
0010
0100
0001
0010
0001
0010
0100
1000
0001
1000
,
0001
1000
0010
0100
0001
0010
0100
1000
0001
0100
0001
1000
0001
1000
0010
0100
,
0001
0010
0001
0010
0100
1000
0001
0100
0001
1000
0010
0100
0001
0010
0001
0010
,
0100
1000
0001
1000
0001
1000
0010
0100
0001
0010
0001
0010
0100
1000
0001
1000
,
0001
1000
0010
0100
0001
0010
0100
1000
0001
0100
0001
1000
0010
0100
0010
1000
,
0100
0010
0001
1000
0100
0010
0001
1000
0001
0100
0001
0010
0100
1000
0001
0010
,
0100
1000
0001
0100
0001
1000
0010
0100
0001
0010
0001
0010
0100
1000
0001
1000
,
0001
1000
0010
0100
0001
0010
0001
0010
0100
1000
0001
0100
0001
1000
0010
0100
,
0001
0010
0100
1000
0001
0100
0001
1000
0100
1000
0001
0100
0001
1000
0100
1000
,
0020
2030
3002
2003
3002
2003
3020
0230
,
0302
0023
0230
2300
3002
2003
3020
0230
,
0302
0023
0230
2300
3002
0203
0302
2003
,
3020
2030
3020
0230
0302
0023
0230
2300
,
3002
2003
3002
2003
3020
0230
0302
0023
,
0230
2300
3002
0203
0302
2003
3020
2030
,
3001
1000
0010
0100
0001
0010
0001
0010
0100
1000
0001
1000
0010
0100
0001
0010
,
0001
0010
0100
1000
0001
0100
0001
1000
0001
1000
0010
0100
0001
0010
0001
0010
,
0100
1000
0001
1000
0001
1000
0100
0010
0001
1000
0010
1000
0010
0100
0001
0010
,
0100
1000
0001
0010
0100
1000
0010
1000
0010
0100
0001
0010
0001
0010
0100
1000
,
0001
1000
0001
1000
0010
0100
0001
1000
0010
0100
0001
0010
0100
1000
0001
1000
,
0001
1000
0100
0010
0001
1000
0010
1000
0010
0100
0001
0010
0100
1000
0001
0100
,
2020
0000
0000
0000
,
0000
0000
0000
0000
0000
0000
0000
0000
0000
0000
3030
0000
2000
3000
0002
0003
,
1000
0001
0100
0001
1000
0010
1000
0010
0100
0001
0010
0001
0010
0100
1000
0001
,
1000
0001
1000
0010
1000
0010
0100
0001
0010
0001
0010
0100
1000
0001
1000
0001
,
1000
0100
0010
0001
0010
0001
1000
0010
1000
0010
0100
0001
0010
0100
1000
0001
,
0100
0001
1000
0010
1000
0010
0100
0001
0010
0100
1000
0001
1000
0001
1000
0100
,
0010
0001
1000
0010
1000
0010
0100
0001
0010
0100
1000
0001
0100
0010
1000
0010
,
0100
0001
0010
0100
1000
0001
0100
0010
1000
0100
0010
0001
1000
0010
0100
0001
,
0010
0100
1000
0100
1000
0010
0100
0010
0100
0010
0100
0010
0100
0010
0100
0010
,
0100
0010
0100
0010
0100
0001
0010
0100
1000
0001
0100
0001
1000
0010
0100
0001
,
0010
0100
1000
0001
0100
0001
1000
0010
0100
0001
0010
0100
1000
0001
0100
0001
,
1000
0010
0100
0001
0010
0100
1000
0001
0100
0001
1000
0001
1000
0010
0100
0001
,
0010
0100
1000
0001
1000
0001
1000
0100
0010
0001
1000
0010
0100
0001
0010
0100
,
1000
0001
1000
0001
1000
0100
0010
0001
1000
0010
1000
0010
0100
0001
0010
0100
,
1000
0001
0100
0001
1000
0010
0100
0001
0010
0100
1000
0001
1000
0010
0100
0001
,
0010
0010
0100
1000
0001
0100
0010
1000
0010
0100
0001
0010
,
0200
2300
3002
0203
0302
0023
0230
2300
,
3002
0203
0302
2003
3020
0230
0302
0023
,
0230
2300
3020
0230
0302
2003
3020
0230
,
0302
0023
0230
2300
3002
0203
0302
2003
,
3020
0230
0302
0023
0230
2300
3200
0320
,
0032
2003
3002
2003
3002
0203
0320
2030
,
3200
0320
0032
2003
3002
0203
0320
2030
,
3020
0000
0230
0000
0302
0000
0023
0000
0230
0000
2300
0000
3200
0000
0320
0030
,
0022
0033
0002
0000
0203
0000
0302
0000
2003
0000
3020
0000
0230
0000
0302
0000
,
0023
0230
2300
3002
2003
3002
2003
3020
,
0230
0302
0023
0230
2300
3002
2003
3020
,
2030
3020
0230
0302
0023
0032
0023
0230
,
2300
3002
0203
0302
2003
3002
2003
3020
,
2030
3020
0230
0302
0023
0230
2300
3002
,
2003
0000
3020
0000
0230
0000
0302
0000
0023
0000
0230
0000
2300
0000
3020
0030
,
0202
0303
0202
0303
0202
0303
0202
0303
,
0110
0100
0001
0010
0100
1000
0001
1000
0001
1000
0010
0100
0001
0010
0100
1000
,
0001
0100
0001
1000
0010
0100
0001
0010
0001
0010
0100
1000
0001
0100
0001
1000
,
0010
0100
0001
0010
0001
0010
0100
1000
0001
0100
0001
1000
0100
1000
0001
0100
,
0001
1000
0010
0100
0001
0010
0100
1000
0100
0010
0001
1000
0010
0100
0010
1000
,
0100
0010
0001
1000
0001
0100
0001
0010
0100
1000
0001
0100
0010
1000
0010
0100
,
0010
1000
0100
0010
0001
1000
0001
1000
0010
1000
0010
0100
0001
0010
0100
1000
,
0001
1000
0001
1000
0010
1000
0010
0100
0001
0010
0100
1000
0001
0100
0001
1000
,
0010
1000
0010
0100
0001
0010
0100
1000
0001
1000
0001
1000
0001
1000
0010
0100
,
0001
1000
0001
1000
0010
0100
0001
0010
0001
0010
0100
1000
0001
1000
0001
1000
,
0010
1000
0010
0100
0001
0010
0100
1000
0001
1000
0001
0100
0001
1000
0010
0100
,
0010
1000
0100
0010
0001
0010
0001
0010
0001
1000
0001
1000
0010
0100
0001
0010
,
0100
0010
0001
0010
0100
1000
0100
0010
0001
0010
0100
1000
0100
0010
0001
0010
,
0100
1000
0001
0100
0001
1000
0010
0100
0001
0010
0001
0010
0100
1000
0001
1000
,
0001
1000
0100
0010
0001
0010
0001
1000
0010
1000
0010
0100
0001
0010
0100
1000
,
0001
0100
0001
1000
0010
0100
0001
0010
0100
1000
0001
1000
0100
0010
0001
1000
,
2020
3030
2020
3030
2020
3030
2020
3030
,
0101
0100
0010
1000
0100
0010
0001
1000
0001
1000
0010
0100
0001
0010
0100
1000
,
0001
1000
0001
1000
0010
0100
0001
0010
0001
0010
0100
1000
0001
0100
0001
1000
,
0001
1000
0010
0100
0001
0010
0100
1000
0001
0100
0001
1000
0001
1000
0010
0100
,
0001
0010
0100
1000
0001
1000
0001
1000
0100
0010
0001
1000
0001
1000
0010
0100
,
0001
1000
0010
0100
0001
1000
0010
0100
0001
0010
0100
1000
0001
0100
0001
1000
,
0001
1000
0100
0010
0001
1000
0010
0100
0001
0010
0100
1000
0001
0100
0001
1000
,
0010
0100
0001
0010
0001
0010
0100
1000
0001
1000
0010
0100
0001
0010
0100
1000
,
0001
0100
0001
1000
0010
0100
0001
0010
0100
1000
0001
1000
0001
1000
0100
0010
,
0001
1000
0010
1000
0010
0100
0001
0010
0100
1000
0001
0100
0001
1000
0010
0100
,
0001
1000
0010
1000
0010
0100
0001
0010
0100
1000
0001
0100
0010
1000
0100
0010
,
0001
0010
0001
1000
0010
1000
0010
0100
0001
0010
0100
1000
0001
0100
0010
1000
,
0010
0100
0001
0010
0100
1000
0001
0100
0001
1000
0100
1000
0001
0010
0001
1000
,
0010
0100
0001
0010
0001
1000
0010
1000
0010
0100
0001
0010
0100
1000
0001
0100
,
0010
1000
2000
0000
3002
0000
0203
0000
0320
0000
2030
0000
3020
0000
0230
0000
,
0302
0023
0230
2300
3002
0203
0302
2003
,
3020
0230
0302
0023
0230
2300
3002
2003
,
3001
1000
0001
1000
0010
1000
0010
0100
0001
0010
0001
0010
0100
1000
0001
1000
,
0001
1000
0010
1000
0010
0100
0010
1000
0100
0010
0001
0010
0001
1000
0001
0100
,
0001
1000
0010
0100
0010
1000
0100
0010
0001
0010
0001
1000
0001
1000
0010
0100
,
0010
1000
0100
0010
0001
0010
0001
1000
0001
1000
0001
0100
0010
1000
0010
0100
,
0010
1000
0100
0010
0001
1000
0001
0100
0001
1000
0010
0100
0010
1000
0100
0010
,
0001
0010
0001
1000
0001
0100
0010
0100
0010
1000
0100
0010
0001
0010
0001
1000
,
0001
1000
0010
0100
0001
0100
0001
1000
0010
0100
0001
0010
0100
1000
0100
1000
,
0010
0100
0001
1000
0001
1000
0100
0010
0001
0010
0001
1000
0010
0100
0010
0100
,
0001
0010
0100
1000
0001
1000
0001
1000
0100
0010
0001
1000
0001
1000
0100
0010
,
0001
1000
0001
1000
0001
1000
0100
0010
0001
1000
0100
0010
0001
1000
0001
1000
,
0001
1000
0010
0100
0001
0010
0001
0010
0100
1000
0001
1000
0001
1000
0010
0100
,
0001
0010
0100
1000
0001
1000
0001
1000
0100
0010
0001
1000
0010
0100
0001
0010
,
2200
3300
2020
3030
0220
0330
0202
0303
,
0022
0033
0220
0330
2200
3300
0220
0330
,
0022
0033
2002
3003
2020
3030
0220
0330
,
2020
3030
2200
3300
0220
0330
0002
1003
,
2002
0000
0000
0000
,
0000
0000
0000
0000
,
0000
0000
0000
0000
,
0000
0000
0000
0000
,
3003
0000
0000
0000
;
