#TITLE:Hitomi no Tsubasa;
#SUBTITLE:Code Geass Lelouch of the Rebellion 24&25 OP theme;
#ARTIST:access;
#TITLETRANSLIT:;
#SUBTITLETRANSLIT:;
#ARTISTTRANSLIT:;
#CREDIT:ALICE_;
#BANNER:Hitomi no Tsubasa.png;
#BACKGROUND:Hitomi no Tsubasa.jpg;
#LYRICSPATH:;
#CDTITLE:cdtitle.png;
#MUSIC:Hitomi no Tsubasa.mp3;
#OFFSET:0.585;
#SAMPLESTART:37.940;
#SAMPLELENGTH:20.040;
#SELECTABLE:YES;
#BPMS:0.000=144.100;
#STOPS:;
#BGCHANGES:2.250=Hitomi no Tsubasa.avi=1.000=0=0=1,
99999=-nosongbg-=1.000=0=0=0 // don't automatically add -songbackground-
;
// cache tags:
#FIRSTBEAT:8.000;
#LASTBEAT:216.000;
#SONGFILENAME:Songs/alice 4th complete step/Hitomi no Tsubasa/Hitomi no Tsubasa.sm;
#HASMUSIC:1;
#HASBANNER:1;
#MUSICLENGTH:95.842;
// end cache tags

//---------------dance-single - ----------------
#NOTES:
     dance-single:
     :
     Hard:
     6:
     0.383,0.470,0.417,0.219,0.010,196.000,40.000,21.000,0.000,0.000:
0000
0000
0000
0000
,
0000
0000
0000
0000
,
0001
0000
0000
1000
0000
0000
0001
0000
0000
0100
0000
0000
0001
0000
1000
0000
,
0000
0000
0000
0000
,
0000
0000
0000
0000
,
0120
1000
1000
1000
,
1000
0000
1000
0030
1000
0001
0100
0001
,
0020
0001
0001
0001
,
0001
0000
0001
0030
0001
1000
0100
1000
,
0010
0100
0010
0100
0001
0100
0001
1000
,
0000
1100
0000
0001
0000
0101
0000
0010
,
0000
0100
0100
0000
1000
0001
0100
0020
,
0000
0000
0100
0000
1000
0000
0100
0030
,
1000
0001
1000
0001
1000
0100
1000
0010
,
0000
0110
0000
0001
0000
0101
0000
1000
,
0000
0100
0100
1000
0001
0100
0001
0020
,
0000
0000
0100
0000
0001
0000
0100
0030
,
1200
0010
1000
0010
,
1300
0001
0100
0010
,
0201
0010
1000
0010
,
0301
1000
0001
0100
,
0010
1000
0100
1000
0001
1000
0001
1000
,
0002
0000
0000
0000
0000
0000
0000
0003
,
1000
1010
0110
1100
,
1010
1010
1100
0110
,
2010
0001
0100
3001
,
0102
0010
1000
0013
,
1000
0100
0001
0010
,
1000
0001
0100
0010
,
2000
0000
0100
3000
0002
0000
0100
0003
,
1000
0000
0001
0100
0010
1000
0001
0100
,
0001
0011
0110
0101
,
0011
0011
0101
0110
,
0012
1000
0100
1003
,
2010
0001
0100
3001
,
0100
0010
1000
0010
0100
0010
1000
0010
,
0100
0001
1000
0100
,
0012
0000
1000
0000
2003
0000
0010
3000
,
0100
0001
1000
0100
1000
0001
0100
0001
,
1000
0011
1010
1001
,
0011
0011
1001
1010
,
0012
1000
0100
0013
,
2001
0100
0010
3001
,
1000
0101
1000
0001
,
0010
0110
0110
0110
,
2000
0000
3002
0000
,
0000
0000
0000
0000
,
0000
0000
0000
0000
,
0000
0000
0000
0000
0000
0000
0000
0003
,
2200
0000
0000
0000
,
0300
0000
0000
0000
,
0000
0000
0000
0000
,
0000
0000
0000
0000
,
3000
0000
0000
0000
;

//---------------dance-single - ----------------
#NOTES:
     dance-single:
     :
     Challenge:
     13:
     1.000,0.986,1.000,0.532,0.678,493.000,128.000,51.000,0.000,13.000:
0000
0000
0000
0000
,
0000
0000
0000
0000
,
0101
0000
0000
1100
0000
0000
0011
0000
0000
1010
0000
0000
1101
0000
0110
0000
,
1000
0100
1000
0001
1000
0100
2000
3000
0001
0100
0001
1000
0001
0100
0002
0003
,
1000
0100
0010
0001
1000
0100
0010
0001
1000
0100
0010
0001
1000
0100
0010
0001
,
1002
0000
0010
0000
1100
0000
0010
0100
1000
0000
0010
0000
1100
0000
0010
1000
,
0100
0000
0013
0000
1100
0000
0011
0000
0001
0100
0010
0000
1001
0000
0010
0000
,
0100
0001
0010
0000
1100
0000
0001
0000
0010
0001
0100
0000
1001
0000
0110
0000
,
1000
0100
0001
0100
1000
0010
0100
0000
0001
0010
0001
0000
0110
0000
1001
0000
,
1010
0000
0001
0000
1100
0000
0001
0000
1000
0100
0001
0100
1000
0000
0011
0000
,
1000
0010
0001
0010
1000
0000
0101
0000
1000
0010
0001
0000
0001
0010
1000
0000
,
0100
0001
0010
0001
1000
0000
0001
0010
0100
0000
0010
1000
0100
0000
2010
0000
,
0100
0010
0100
0001
0010
0100
0010
0000
0100
0010
0001
0000
0001
0100
3010
0000
,
0101
0000
1000
0000
0011
0000
1000
0100
0001
0100
1000
0000
0001
0000
1100
0000
,
0010
1000
0100
1000
0010
0000
0101
0000
0010
0100
1000
0000
0010
0001
0100
0000
,
0001
0010
1000
0100
0001
0000
0010
1000
0001
0000
0100
0000
1010
0000
0102
0000
,
1000
0010
0100
0010
1000
0010
0100
0000
1000
0100
0010
0000
0100
1000
0013
0100
,
2001
0000
0100
0000
3010
0000
0201
0010
0001
0000
0310
0000
2000
0000
0011
0000
,
3100
0000
0012
1000
0010
0000
0103
0000
0021
1000
0130
0000
1002
0000
0013
0000
,
2000
0001
0010
0000
3101
0000
0201
1000
0010
0000
0301
0000
2010
0000
3100
0000
,
1002
0100
0010
0100
1003
0000
0201
0000
1000
0010
0301
0000
1020
0000
0100
0030
,
2001
0100
0010
0000
3101
0000
0012
1000
0100
1000
0013
0000
1001
0000
0010
0000
,
0200
0302
2003
3200
2300
3002
0203
0320
,
1031
0000
0100
0000
1001
0000
0010
0000
1001
0100
0010
0000
1001
0000
0010
0000
,
1001
0000
0100
0000
1001
0000
0010
0000
1001
0100
0010
0000
1001
0000
0100
0000
,
0012
0100
1000
0000
0103
0000
2010
0100
0001
0000
3100
0000
0011
0000
0100
0000
,
2010
0001
0010
0100
3010
0000
0102
0000
1000
0100
0013
0000
2100
0000
3001
0000
,
0101
0010
1000
0000
0101
0010
1000
0010
0101
0000
1000
0010
0101
0000
0010
0000
,
0110
1000
0001
0100
0010
0000
1001
0000
1100
0010
0001
0000
1010
0000
0100
0000
,
1001
0010
0001
0000
1100
0000
0010
1000
0101
0000
1000
0000
0011
0000
0100
0000
,
2010
0001
3100
1020
0100
1030
0102
0013
,
0101
0000
1000
0000
0011
0000
1000
0010
0101
0000
0010
0000
1001
0000
0100
0000
,
1010
0001
0100
0010
1100
0000
0010
0000
1001
0100
0010
0000
1001
0000
0100
0000
,
1002
0010
1000
0000
0103
0000
2001
0010
0001
0000
3100
0000
0011
0000
1000
0000
,
0210
0001
1000
0001
0310
0000
1002
0000
0010
0100
0013
0000
2001
0000
3100
0000
,
1010
0100
0001
0000
1010
0000
0001
0100
1010
0000
0001
0000
1010
0100
0001
0000
,
0110
0001
0010
0100
1010
0000
0001
0000
1100
0010
0100
1000
0011
0000
1000
0000
,
1001
0100
0010
0000
1100
0000
0010
0100
1001
0000
0100
0000
0011
0000
0100
0000
,
1001
0001
0101
0001
0011
0001
0101
0001
,
1001
0000
0010
0000
1001
0000
0100
0010
1001
0000
0100
0000
1001
0000
0100
0000
,
1001
0010
0100
0010
1001
0000
0100
0000
1001
0100
0010
0000
1001
0000
0100
0000
,
2010
0100
0001
0000
3010
0000
0102
0010
1000
0000
0013
0000
1100
0000
0010
0000
,
0102
1000
0100
0010
0103
0000
2010
0000
0001
0000
3100
0000
0012
0000
1003
0000
,
1010
0100
0001
0000
0101
0000
0010
0001
1100
0000
0010
0000
0101
0000
1000
0000
,
0111
0010
1110
0100
0111
0010
1110
0100
,
2002
0000
0223
0000
,
0000
0000
0000
0000
,
0000
0000
0000
0000
,
0330
0000
0000
0000
,
3102
0000
0000
0000
0000
0000
0000
0000
1000
0100
0010
0100
1000
0010
0100
0013
,
1000
0100
0010
0001
1000
0100
0010
0001
1000
0010
0100
0001
1000
0100
0010
0001
,
0100
1000
0100
0010
0100
1000
0010
0001
0100
0010
0001
0010
1000
0100
0010
0002
,
0000
0000
0000
0000
,
0000
0000
0000
0000
,
0003
0000
0000
0000
;

//---------------dance-single - ----------------
#NOTES:
     dance-single:
     :
     Medium:
     4:
     0.264,0.359,0.115,0.146,0.000,152.000,11.000,14.000,0.000,0.000:
0000
0000
0000
0000
,
0000
0000
0000
0000
,
0000
0000
0000
0000
,
0000
0000
0000
0000
,
0000
0000
0000
0000
,
0011
1000
0100
1000
,
0001
0100
0010
1000
,
0001
0010
1000
0100
,
0001
1000
0100
0000
,
1000
0100
1000
0010
,
0100
0001
1000
0001
,
0100
0000
0010
0000
0100
0000
0001
2000
,
0000
0000
0000
0000
0000
0000
0000
3000
,
0001
0100
0010
1000
,
1000
0010
0100
0001
,
1000
0000
0001
0000
0100
0010
1000
0002
,
0000
0000
0000
0000
0000
0000
0000
0003
,
1000
0100
0010
1100
,
0010
0100
1000
0010
,
0100
0001
0010
0001
,
1000
0010
0100
0001
,
0020
0000
0230
0000
,
2300
0000
0000
0000
,
3001
0100
1000
0010
,
1000
0010
0001
0100
,
1000
0100
0010
1100
,
0001
0100
0010
0101
,
1000
0100
0001
0100
,
1000
0001
0100
0010
,
2000
3100
0002
0103
,
1000
0001
1000
0001
,
0010
0100
1000
0001
,
0100
0010
1000
0001
,
0100
0001
0010
1000
,
0100
0001
1000
0010
,
0100
0001
1000
0010
,
0100
0001
1000
0100
,
0002
0013
2000
3010
,
0100
0110
0110
0110
,
1000
0001
0100
1001
,
0010
0001
0100
0010
,
2000
0100
3010
0100
,
0002
0100
0013
0100
,
1000
1000
0101
0010
,
0010
1001
0100
0101
,
2000
0000
3002
0000
,
0000
0000
0000
0000
,
0000
0000
0000
0000
,
0000
0000
0000
0000
0000
0000
0000
0003
,
2000
0000
0000
0000
,
0000
0000
0000
0000
,
0000
0000
0000
0000
,
0000
0000
0000
0000
,
3000
0000
0000
0000
;

//---------------dance-single - ----------------
#NOTES:
     dance-single:
     :
     Easy:
     1:
     0.128,0.162,0.031,0.157,0.000,68.000,3.000,15.000,0.000,0.000:
0000
0000
0000
0000
,
0000
0000
0000
0000
,
2002
0000
0000
0000
0000
0000
0000
3003
,
0000
0000
0000
0000
,
0000
0000
0000
0000
,
1000
0000
0000
0000
,
1000
0000
0000
0000
,
0001
0000
0000
0000
,
0001
0000
0000
0000
,
0100
0000
0010
0000
,
1000
0000
0000
0000
,
0100
0000
0001
0000
,
0010
0000
0000
0000
,
1000
0000
0001
0000
,
1000
0000
0000
0000
,
0001
0000
1000
0000
,
0100
0000
0000
0000
,
0020
0000
0030
0000
,
0020
0000
0030
0000
,
0200
0000
0300
0000
,
0200
0000
0300
0000
,
1000
0000
0001
0000
,
1000
0000
0000
0000
,
0010
0000
0001
0000
,
0010
0000
0100
0000
,
1000
0000
0010
0000
,
0100
0000
0010
0000
,
1000
0000
0100
0000
,
0001
0000
0100
0000
,
2000
0000
3000
0000
,
0002
0000
0003
0000
,
0100
0000
0010
0000
,
1000
0000
0010
0000
,
0001
0000
1000
0000
,
0010
0000
1000
0000
,
0002
0000
0003
0000
,
2000
0000
3000
0000
,
0020
0000
0030
0000
,
0100
0000
0100
0100
,
0100
0000
0100
0000
,
0001
0000
0001
0000
,
1000
0000
1000
0000
,
0010
0000
0010
0000
,
1000
0000
0100
0000
,
0001
0000
0010
0100
,
0010
0000
0220
0000
,
0000
0000
0000
0000
,
0000
0000
0330
0000
,
0000
0000
0000
0000
,
2002
0000
0000
0000
,
0000
0000
0000
0000
,
0000
0000
0000
3003
;
