#TITLE:Over The Frail Dream;
#SUBTITLE:(v2);
#ARTIST:PHANTASMA;
#TITLETRANSLIT:;
#SUBTITLETRANSLIT:;
#ARTISTTRANSLIT:;
#CREDIT:;
#BANNER:Over The Frail Dream-BN.jpg;
#BACKGROUND:Over The Frail Dream-BG.jpg;
#LYRICSPATH:;
#CDTITLE:!cattitle.png;
#MUSIC:Over The Frail Dream.mp3;
#OFFSET:-2.500;
#SAMPLESTART:32.394;
#SAMPLELENGTH:12.000;
#SELECTABLE:YES;
#BPMS:0.000=200.000;
#STOPS:;
#BGCHANGES:;
// cache tags:
#FIRSTBEAT:0.000;
#LASTBEAT:289.000;
#SONGFILENAME:Songs/StepmaniaFreak's Favorites/cat_OTFD (v2)/Over The Frail Dream.sm;
#HASMUSIC:1;
#HASBANNER:1;
#MUSICLENGTH:91.898;
// end cache tags

//---------------dance-single - Cat----------------
#NOTES:
     dance-single:
     Cat:
     Hard:
     11:
     1.000,1.000,0.065,0.239,1.000,785.000,6.000,22.000,0.000,0.000:
0010
0001
1000
0100
1000
0001
0010
0000
,
0001
1000
0100
0000
1000
0001
0010
0000
,
0100
1000
0001
0010
0000
0001
0010
0000
,
0010
0000
0000
0000
0010
0000
0000
0000
0100
0000
1000
0000
0001
0000
1000
0010
,
0100
0001
0100
0010
1000
0010
0100
0010
1000
0010
0100
0001
0100
0010
0100
0010
,
1000
0010
0100
0001
0010
0100
1000
0010
0100
0001
0010
0001
0100
0010
1000
0100
,
1000
0010
0100
0001
0100
0010
1000
0010
0100
0001
1000
0001
0110
0000
0000
0000
,
0110
0000
0000
0000
0220
0000
0000
0000
0330
0000
1000
0100
1000
0000
0001
0000
,
0100
0001
1000
0100
1000
0001
0010
0000
,
0001
1000
0100
0000
1000
0001
0010
0000
,
0100
1000
0001
0010
0000
0001
0010
0000
,
0010
0000
0010
0000
0100
1000
0001
0000
,
0100
1000
0001
0010
0001
1000
0100
0000
,
1000
0001
0010
0000
0001
1000
0100
0000
,
0010
0001
1000
0100
0000
1000
0100
0000
,
0100
0000
0100
0000
0010
0001
1000
0001
,
1000
0010
0100
0001
0100
0010
1000
0010
0100
0010
1000
0010
0100
0001
0100
0010
,
0100
0001
0100
0010
1000
0010
0100
0001
1000
0100
0010
0001
0100
0010
1000
0100
,
0010
0001
0100
0010
1000
0010
0100
0001
0100
0010
1000
0100
1000
0010
0100
0001
,
0010
0001
0100
0010
1000
0100
1000
0010
0100
0001
0100
0001
1000
0010
1000
0100
,
1000
0010
0100
0001
0100
0010
1000
0010
0100
0001
0010
0001
0100
0010
1000
0100
,
1000
0010
0100
0001
0100
0010
0100
0001
1000
0010
0100
0010
1000
0010
0100
0001
,
0100
0010
1000
0100
0010
0001
0100
0010
1000
0010
0100
0000
1100
0000
0000
0000
,
1010
0000
0000
0000
2002
0000
0000
0000
3003
0000
0001
0000
0001
0000
1000
0010
,
0100
0001
0100
0010
1000
0010
0100
0001
0010
0001
0100
0010
1000
0100
1000
0010
,
0100
0001
0010
0001
0100
0010
1000
0100
1000
0010
0100
0010
1000
0010
0100
0001
,
0100
0010
0100
0001
1000
0010
0100
0001
1000
0010
0100
0001
0010
0100
0010
0001
,
1000
0010
0100
0010
1000
0100
0010
0100
1000
0001
0100
0010
0100
0001
0100
0010
,
1000
0010
0100
0001
0010
0100
1000
0100
1000
0010
0100
0001
0010
0001
0100
0010
,
1000
0100
1000
0010
0100
0001
0010
0001
0100
0010
1000
0010
0100
0001
0100
0010
,
1000
0100
0010
0001
0100
0010
1000
0001
0010
0100
1000
0010
0100
0001
0100
0010
,
1000
0010
0100
0001
0010
0100
1000
0010
0100
0001
0010
0100
0010
0001
0100
0010
,
1000
0100
0010
0100
1000
0010
0100
0001
0100
0010
0100
0001
1000
0010
0100
0001
,
1000
0010
0100
0010
1000
0001
0100
0010
1000
0100
0010
0001
0100
0010
1000
0001
,
0010
0100
1000
0010
0100
0001
1000
0010
0100
0001
0010
0100
1000
0010
0100
0001
,
0100
0010
1000
0100
0010
0100
1000
0001
0010
0100
0010
0001
0100
0010
1000
0010
,
0100
0001
0010
0100
1000
0010
0100
0001
0100
0010
1000
0010
0100
0001
0010
0100
,
1000
0100
1000
0010
0100
0001
0010
0001
0100
0010
1000
0100
1000
0010
0100
0001
,
0010
0001
0100
0010
1000
0010
0100
0001
0100
0010
1000
0010
0100
0001
0010
0001
,
0100
0010
1000
0100
1000
0010
0100
0001
0010
0100
1000
0000
0000
0000
0001
0000
,
0000
0100
1000
0001
0010
0000
0010
0000
,
0100
1000
0010
0000
1000
0000
0001
0020
,
0000
0000
2000
0030
0000
0000
0000
0000
,
0000
0000
3000
0000
0100
0100
1000
0002
,
0000
0003
0000
0010
,
0010
0000
0001
0100
0001
1000
0100
2000
,
0000
0000
0200
3000
0000
0000
0300
0000
,
0000
0000
0000
0000
0000
0100
0100
0002
,
0000
0000
0000
0003
0001
1000
0001
0020
,
0000
0000
0030
2000
0000
0002
3000
0020
,
0003
0000
0032
0000
0000
0003
0000
0000
,
0000
0000
0000
0100
0100
0001
0000
0020
,
0000
0000
0030
0000
0010
1000
0001
0200
,
0000
0000
0000
2300
0000
0000
0000
3002
,
0000
0000
0000
0003
0000
0020
0000
2030
,
0000
0000
3100
0000
0000
0000
0001
0000
0000
0000
0001
0000
0010
0000
1000
0010
,
0100
0001
0100
0010
1000
0010
0100
0001
0010
0001
0100
0010
1000
0100
1000
0010
,
0100
0001
0100
0010
1000
0100
0010
0001
0100
0010
1000
0001
0010
0100
1000
0001
,
0100
0010
1000
0010
0100
0001
0100
0010
1000
0010
0100
0001
0100
0010
0100
0001
,
1000
0010
0100
0010
1000
0010
0100
0001
0100
0010
1000
0100
0010
0100
1000
0010
,
0100
0001
0010
0100
0010
0001
0100
0010
1000
0100
1000
0010
0100
0001
0010
0001
,
0100
0010
1000
0010
0100
0001
0100
0010
1000
0010
0100
0001
0010
0001
0100
0010
,
1000
0100
1000
0010
0100
0001
0100
0010
1000
0010
0100
0001
0010
0100
1000
0010
,
0100
0001
1000
0100
0010
0001
0100
0010
1000
0100
0010
0001
0100
0010
1000
0100
,
1000
0001
0100
0001
1000
0010
0100
0001
0100
0010
1000
0010
0100
0001
0010
0100
,
1000
0010
0100
0001
0010
0100
1000
0010
0100
0001
0010
0001
0100
0010
1000
0100
,
1000
0010
0100
0001
0100
0010
1000
0100
0010
0001
0100
0010
0100
0001
0100
0010
,
1000
0010
0100
0010
1000
0010
0100
0001
0010
0100
0010
0001
0100
0010
1000
0100
,
0010
0100
1000
0010
0100
0001
0100
0010
1000
0010
0100
0001
0010
0100
1000
0010
,
0100
0001
0010
0100
1000
0010
0100
0001
0100
0010
1000
0010
0100
0001
0010
0100
,
1000
0010
0100
0001
0100
0010
1000
0010
0100
0001
0010
0100
1000
0000
0000
0000
,
0001
0020
0000
0000
,
0000
0030
0000
0000
;
