#TITLE:The Empress;
#SUBTITLE:;
#ARTIST:UNDEAD CORPORATION;
#TITLETRANSLIT:;
#SUBTITLETRANSLIT:;
#ARTISTTRANSLIT:;
#CREDIT:;
#BANNER:BN.png;
#BACKGROUND:BG.png;
#LYRICSPATH:;
#CDTITLE:;
#MUSIC:music.ogg;
#OFFSET:-0.320;
#SAMPLESTART:76.773;
#SAMPLELENGTH:16.550;
#SELECTABLE:YES;
#BPMS:0.000=270.000;
#STOPS:;
#BGCHANGES:;
// cache tags:
#FIRSTBEAT:16.000;
#LASTBEAT:598.000;
#SONGFILENAME:Songs/owenviau1 Simfiles 7/The Empress - [R. Uchima] v1.0.1/steps.sm;
#HASMUSIC:1;
#HASBANNER:1;
#MUSICLENGTH:134.091;
// end cache tags

//---------------dance-single - 25.25 (25) (R. Uchim----------------
#NOTES:
     dance-single:
     25.25 (25) (R. Uchim:
     Challenge:
     25:
     1.000,1.000,0.075,0.254,1.000,1803.000,10.000,34.000,0.000,0.000:
0000
0000
0000
0000
,
0000
0000
0000
0000
,
0000
0000
0000
0000
,
0000
0000
0000
0000
,
2002
0000
0000
0000
0000
0000
0000
3003
,
1100
0000
0000
0000
,
2002
0000
0000
0000
0000
0000
0000
3003
,
0101
0000
0000
0000
0000
0000
0000
0000
0001
0100
0010
0100
0001
1000
0100
0010
,
0002
0000
0010
0010
,
2003
0010
0010
0010
,
3002
0010
0010
0010
,
2003
0000
0000
0000
0010
0000
0000
0000
0010
0000
0000
0000
3010
1000
0010
1000
,
0002
0100
0100
0100
,
1003
0001
1000
0001
1000
0001
0010
0100
1000
0001
0010
0001
1000
0100
0010
0100
,
1000
0001
0010
0100
1000
0001
0010
0001
1000
0100
0010
0001
1000
0100
1000
0001
,
0100
0000
0000
0000
0010
1000
0010
1000
0001
0100
0001
0100
0010
1000
0001
1000
,
0100
0000
0000
0000
0010
0001
0010
0100
1000
0000
0000
0000
0010
0100
0010
1000
,
0001
0000
0000
0000
1000
0001
0100
0001
1000
0000
0000
0000
0100
0010
0100
1000
,
0001
0000
0000
0000
0100
0001
1000
0100
0010
0000
0000
0000
0001
0000
0000
0000
,
2002
0000
0000
3003
1010
0000
0000
0000
,
0001
0100
0010
1000
0010
0100
0001
1000
0010
0100
0010
1000
0001
0100
0001
1000
,
0100
0010
0001
1000
0100
1000
0001
0010
0100
0010
0001
1000
0100
0010
0100
1000
,
0001
0100
0001
1000
0010
0100
0010
1000
0001
0100
0001
1000
0010
0100
0010
1000
,
0001
0010
0100
1000
0001
1000
0100
0010
0001
0010
0100
1000
0001
0010
0100
1000
,
0010
0100
0001
1000
0010
1000
0001
0100
0010
0100
0001
1000
0010
0100
0001
1000
,
0001
0010
0100
0010
0001
1000
0100
1000
0001
0010
0001
0010
0100
1000
0001
0010
,
0001
1000
0001
1000
0010
0100
0010
1000
0001
0100
0001
0100
0010
1000
0001
1000
,
0001
0010
0001
1000
0100
1000
0001
0010
0100
0010
0001
1000
0100
0010
0100
1000
,
0010
1000
0001
0100
0010
1000
0001
0100
0010
1000
0010
1000
0001
0100
0010
1000
,
0001
1000
0001
0010
0100
1000
0100
0010
0001
1000
0100
0010
0001
1000
0100
1000
,
0001
1000
0001
0100
0010
1000
0001
0100
0010
0100
0001
1000
0010
0100
0001
1000
,
0001
1000
0100
0010
0001
0010
0100
1000
0001
0010
0001
1000
0100
0010
0100
1000
,
0010
1000
0001
1000
0010
0100
0001
0100
0010
1000
0001
0100
0010
0100
0010
1000
,
0100
0010
0001
0010
0100
1000
0001
1000
0100
0010
0100
0010
0001
1000
0100
1000
,
0010
0000
0000
0000
0100
0010
1000
0001
0010
0000
0000
0000
0100
0000
0000
0000
,
1100
0000
0000
0000
0100
0010
0100
1000
0001
0000
0000
0000
0000
0000
0000
0000
,
1000
0100
0010
0001
1000
0100
1000
0001
0010
0100
1000
0001
0010
0001
1000
0100
,
1000
0001
0100
0001
1000
0010
0100
0001
0100
0001
1000
0010
1000
0001
0100
0010
,
1000
0001
1000
0001
0010
0100
1000
0001
0010
0001
1000
0100
1000
0001
0010
0001
,
1000
0010
0100
0001
0100
0010
1000
0001
0100
0001
0100
0010
1000
0001
0100
0001
,
0010
0100
0010
0001
1000
0100
0010
0100
1000
0001
0010
0001
1000
0100
1000
0001
,
0100
0001
1000
0010
0100
0001
0100
0001
1000
0010
1000
0001
0100
0010
1000
0010
,
1000
0001
0010
0100
1000
0001
0100
0001
1000
0100
0010
0001
1000
0010
1000
0001
,
0010
0100
1000
0001
0100
0001
1000
0100
0010
0100
1000
0001
1000
0010
0100
0001
,
0010
0100
0010
0001
1000
0100
0010
0100
1000
0001
0010
0001
1000
0100
1000
0001
,
0100
0001
0100
0010
1000
0001
0100
0001
1000
0010
0100
0010
1000
0001
0100
0001
,
1000
0100
0010
0100
1000
0001
1000
0100
0010
0001
1000
0100
1000
0001
0010
0001
,
1000
0010
0100
0010
1000
0001
0100
0001
1000
0010
1000
0001
0100
0010
0100
0001
,
0010
0001
1000
0100
1000
0001
0010
0100
0010
0001
1000
0001
0010
0100
1000
0001
,
0100
0001
0100
0010
1000
0001
0100
0010
1000
0001
0100
0001
1000
0010
1000
0001
,
0010
0100
0010
0100
1000
0001
0100
0001
1000
0100
0010
0100
0010
0001
1000
0001
,
0100
0010
0100
0010
1000
0001
0010
0001
0100
0000
0000
0000
0000
0000
0000
0000
,
0010
1000
0010
0100
0001
0010
0100
1000
,
0010
0100
0010
1000
0100
0010
0001
0100
,
0001
1000
0100
1000
0010
0100
0001
0010
,
0001
0000
0100
0000
0010
0000
1000
0000
0100
0000
0010
0000
0001
1000
0001
1000
,
0010
0100
0010
1000
0010
0100
0010
1000
,
0001
0010
0100
0010
0001
0010
0100
0010
,
0001
1000
0001
0010
0001
1000
0001
0010
,
0001
1000
0010
1000
0001
1000
0100
0000
,
0011
0010
0001
0100
0001
0010
0100
1000
,
0010
1000
0100
0010
0001
1000
0010
1000
,
0100
1000
0001
0100
0001
0010
0001
1000
,
0100
0000
1000
0000
0001
0000
0100
0000
0001
0000
0010
0000
0100
1000
0100
1000
,
0001
0100
0001
0100
0010
1000
0001
0100
0010
0100
0001
1000
0010
1000
0001
0100
,
0001
1000
0100
0010
0001
1000
0100
1000
0001
0010
0100
0010
0001
1000
0100
1000
,
0001
0100
0001
0100
0010
1000
0001
0010
0001
0010
0100
1000
0001
0100
0001
0100
,
0010
1000
0001
0010
0100
1000
0100
1000
0001
0100
0001
1000
0010
0100
0010
1000
,
0100
0010
0001
1000
0100
1000
0001
0010
0100
0010
0001
1000
0100
0010
0100
1000
,
0010
0100
0001
0100
0010
1000
0001
0100
0001
1000
0010
0100
0010
1000
0001
0100
,
0001
1000
0100
0010
0001
1000
0100
1000
0001
0010
0001
1000
0100
0010
0100
1000
,
0010
0100
0001
0100
0001
1000
0010
1000
0001
0100
0001
0010
0100
1000
0001
1000
,
0010
0100
0001
0100
0010
1000
0001
0100
0001
1000
0010
0100
0001
0100
0010
1000
,
0100
0010
0001
1000
0100
1000
0001
0010
0100
1000
0001
0010
0001
1000
0100
1000
,
0001
0100
0001
0100
0010
1000
0010
0100
0001
1000
0010
1000
0001
0100
0010
1000
,
0100
0010
0001
1000
0100
1000
0001
0010
0001
1000
0100
1000
0010
0100
0010
0100
,
0001
1000
0001
0010
0100
0010
0001
1000
0100
0010
0001
1000
0100
0010
0100
1000
,
0010
0100
0001
0100
0001
1000
0010
0100
0001
0100
0010
1000
0100
0010
0100
1000
,
0001
0100
0010
0100
0001
1000
0010
0100
0010
1000
0001
1000
0010
0100
0010
1000
,
0100
1000
0001
0010
0100
1000
0001
0010
0001
0010
0100
1000
0010
0100
0001
1000
,
0100
0010
0001
0010
0100
1000
0010
0100
0001
0100
0010
1000
0100
0010
0100
1000
,
0010
0100
0010
1000
0001
0100
0001
0010
0100
1000
0100
0010
0001
0100
0010
1000
,
0100
0010
0001
1000
0100
1000
0001
0010
0001
1000
0010
1000
0001
0100
0010
1000
,
0001
0010
0001
1000
0100
0010
0001
1000
0001
0100
0010
0100
0001
1000
0010
1000
,
0001
0010
0100
1000
0010
0100
0001
0100
0010
1000
0100
0010
0001
0100
0001
1000
,
0100
0010
0001
1000
0010
0100
0001
0010
0100
0000
0000
0000
0000
0000
0000
0000
,
1000
0100
1000
0001
0010
0100
1000
0001
0010
0001
1000
0100
0010
0001
1000
0100
,
1000
0001
0100
0001
1000
0010
0100
0010
1000
0001
0100
0010
1000
0001
1000
0010
,
0100
0001
1000
0100
0010
0100
1000
0001
1000
0100
0010
0001
1000
0100
1000
0001
,
0100
0010
0100
0001
1000
0010
1000
0010
0100
0001
1000
0001
0100
0010
0100
0001
,
0010
0100
0010
0001
1000
0100
0010
0100
1000
0001
0010
0100
1000
0001
0010
0001
,
1000
0010
0100
0010
1000
0001
0100
0010
0100
0001
1000
0010
0100
0010
1000
0001
,
0010
0100
1000
0001
0010
0001
1000
0100
1000
0001
0010
0100
1000
0001
0010
0001
,
1000
0010
0100
0001
0100
0010
1000
0001
0100
0001
1000
0010
0100
0001
0100
0001
,
0010
0100
1000
0001
0010
0001
1000
0100
1000
0001
0010
0100
1000
0001
0010
0001
,
1000
0010
0100
0001
0100
0001
1000
0010
1000
0001
0100
0001
1000
0010
0100
0001
,
1000
0100
1000
0001
0010
0100
1000
0001
0010
0001
1000
0100
1000
0001
0010
0001
,
1000
0010
0100
0001
1000
0010
1000
0001
0100
0001
1000
0010
0100
0010
0100
0001
,
0010
0100
1000
0001
0010
0001
1000
0100
0010
0001
1000
0100
1000
0001
0010
0001
,
1000
0010
0100
0001
1000
0010
1000
0001
0100
0001
0100
0010
1000
0001
0100
0001
,
1000
0100
1000
0100
0010
0001
1000
0010
1000
0010
0100
0001
1000
0100
0010
0001
,
0100
0000
0000
0000
0000
0000
0000
0000
0001
0100
0001
0100
0010
1000
0010
1000
,
0100
0010
0001
1000
0100
1000
0001
0010
0100
0010
0001
1000
0100
0010
0001
1000
,
0010
0100
0001
0100
0010
1000
0001
0100
0001
1000
0010
0100
0010
1000
0001
0100
,
0001
1000
0100
0010
0001
1000
0100
1000
0001
0010
0001
1000
0100
0010
0001
1000
,
0010
0100
0010
1000
0001
0100
0010
0100
0001
1000
0010
1000
0001
0100
0010
1000
,
0100
0010
0001
1000
0100
1000
0001
0010
0100
1000
0001
0010
0001
1000
0100
1000
,
0001
0100
0001
0100
0010
1000
0001
0100
0010
1000
0010
1000
0001
0100
0001
1000
,
0100
0010
0001
1000
0100
1000
0001
0010
0100
1000
0001
0010
0001
1000
0100
1000
,
0001
0100
0010
0100
0001
1000
0010
1000
0001
0100
0001
1000
0010
0100
0010
1000
,
0100
0010
0001
1000
0100
1000
0001
0010
0001
1000
0100
0010
0001
1000
0100
1000
,
0001
0100
0001
1000
0010
0100
0010
1000
0001
0100
0010
0100
0001
1000
0010
1000
,
0001
0010
0001
1000
0100
1000
0001
0010
0100
1000
0001
0010
0001
1000
0100
1000
,
0001
0100
0010
0100
0001
1000
0010
0100
0010
1000
0001
1000
0010
0100
0010
1000
,
0100
0000
0010
0100
1000
0100
0010
0001
0100
0000
0001
0100
0001
1000
0010
1000
,
0100
0000
0010
0100
1000
0001
0010
0001
0100
0000
0010
1000
0010
0100
0001
0010
,
0100
0000
0000
0000
0010
0100
0010
0001
1000
0000
0000
0000
0010
0000
0000
0000
,
0110
0000
1001
0000
,
1000
0100
0010
0100
1000
0001
0010
0100
1000
0001
0010
0001
1000
0100
1000
0001
,
0100
0010
0100
0001
1000
0010
0100
0010
1000
0001
0100
0010
0100
0001
1000
0010
,
1000
0001
0010
0001
1000
0100
0010
0001
1000
0100
1000
0001
0010
0100
1000
0001
,
1000
0010
0100
0010
1000
0001
0100
0010
0100
0001
1000
0010
1000
0001
0100
0001
,
0010
0100
1000
0100
0010
0001
1000
0100
1000
0001
0010
0100
1000
0100
0010
0001
,
1000
0010
1000
0001
0100
0001
1000
0010
0100
0010
1000
0001
0100
0010
1000
0001
,
0010
0100
1000
0001
0010
0001
1000
0010
1000
0001
0100
0010
0100
0001
1000
0100
,
0010
0001
1000
0001
0100
0010
0100
0001
1000
0100
1000
0001
0010
0100
0010
0001
,
0100
0010
0100
0001
1000
0010
1000
0001
0010
0100
0010
0001
1000
0100
1000
0001
,
0100
0001
1000
0010
0100
0010
1000
0001
0010
0100
0010
0001
1000
0100
1000
0001
,
0100
0001
1000
0010
1000
0001
0100
0010
1000
0001
0010
0001
1000
0100
0010
0001
,
1000
0010
1000
0001
0100
0001
0100
0010
1000
0001
0010
0001
1000
0100
0010
0001
,
0100
0001
1000
0010
1000
0001
0100
0010
1000
0001
0010
0100
1000
0001
0010
0001
,
1000
0010
1000
0010
0100
0001
1000
0010
1000
0001
0010
0100
0010
0001
1000
0100
,
1000
0001
0100
0010
1000
0001
0010
0100
1000
0001
0100
0010
1000
0001
0010
0100
,
1000
0001
0100
0010
1000
0001
0010
0100
1000
0001
0100
0001
1000
0010
0100
0001
,
0020
0000
0100
0000
,
0032
0000
0100
0100
,
2003
0000
0100
0000
,
3020
0000
0100
0000
,
2030
0000
0001
0000
,
3200
0000
0010
0000
,
2300
0000
0010
0000
,
3002
0000
0003
0000
,
2000
0000
3200
0000
,
2300
0000
3020
0000
,
0032
0000
0023
0000
,
2030
0000
3200
0000
,
0320
0000
0032
0000
,
0203
0000
0320
0000
,
2030
0000
3200
0000
,
0302
0000
0003
0000
;

//---------------dance-single - ----------------
#NOTES:
     dance-single:
     :
     Hard:
     19:
     1.000,1.000,0.082,0.254,1.000,1291.000,11.000,34.000,0.000,0.000:
0000
0000
0000
0000
,
0000
0000
0000
0000
,
0000
0000
0000
0000
,
0000
0000
0000
0000
,
2002
0000
0000
0000
0000
0000
0000
3003
,
1100
0000
0000
0000
,
2002
0000
0000
0000
0000
0000
0000
3003
,
0101
0000
0000
0000
0000
0000
0000
0000
0001
0100
0010
0100
0001
1000
0100
0010
,
0002
0000
0010
0010
,
2003
0010
0010
0010
,
3002
0010
0010
0010
,
2003
0000
0000
0000
0010
0000
0000
0000
0010
0000
0000
0000
3010
1000
0010
1000
,
0002
0100
0100
0100
,
0103
0010
0100
0010
,
4000
0004
0000
0000
0000
0000
3003
0000
,
0100
0000
0000
0000
0010
1000
0010
1000
0001
0100
0001
0100
0010
1000
0001
1000
,
0100
0000
0000
0000
0010
0001
0010
0100
1000
0000
0000
0000
0010
0100
0010
1000
,
0001
0000
0000
0000
1000
0001
0100
0001
1000
0000
0000
0000
0100
0010
0100
1000
,
0001
0000
0000
0000
0100
0001
1000
0100
0010
0000
0000
0000
0001
0000
0000
0000
,
2002
0000
0000
3003
1010
0000
0000
0000
,
0100
0001
0100
0001
0100
0010
1000
0100
,
0010
0001
0010
0100
1000
0001
0100
0010
,
1000
0100
0010
0001
0010
0100
1000
0001
,
0100
0010
1000
0100
1000
0001
0010
0001
,
1000
0010
0100
0001
0010
0001
0010
0100
,
1000
0001
0100
0010
1000
0100
0010
0001
,
0010
0100
1000
0010
0100
0001
0100
0010
,
1000
0100
0010
0001
0010
0100
1000
0001
,
0100
0010
0100
0010
1000
0100
0010
0001
,
0010
0100
1000
0001
0100
0001
1000
0010
,
0100
0001
0010
0001
0010
0100
1000
0100
,
0010
0100
1000
0001
0010
0001
0100
0010
,
0100
0001
0010
0001
1000
0010
0100
0001
,
0100
0000
0010
0000
1000
0000
0001
0000
0100
0010
1000
0001
0100
0010
1000
0100
,
0010
0000
0000
0000
0100
0010
1000
0001
0010
0000
0000
0000
0100
0000
0000
0000
,
1100
0000
0000
0000
0100
0010
0100
1000
0001
0000
0000
0000
0000
0000
0000
0000
,
1000
0100
0010
0001
0010
0100
1000
0001
,
0100
0001
1000
0100
0010
0100
1000
0001
,
0100
0010
1000
0100
0010
0001
1000
0100
,
0010
0001
0100
0010
1000
0100
0010
0001
,
0010
0100
0010
0001
1000
0100
0010
0100
1000
0001
0010
0001
1000
0100
1000
0001
,
0100
0001
1000
0010
0100
0001
0100
0001
1000
0010
1000
0001
0100
0010
1000
0010
,
0100
0001
0100
0010
1000
0100
0010
0001
,
0010
0100
1000
0001
0100
0010
1000
0001
,
0010
0100
0010
0001
1000
0100
0010
0100
1000
0001
0010
0001
1000
0100
1000
0001
,
0100
0001
0100
0010
1000
0001
0100
0001
1000
0010
0100
0010
1000
0001
0100
0001
,
0100
0010
1000
0001
0100
0010
1000
0100
,
0010
0001
0010
0100
1000
0001
0100
0001
,
0010
0001
1000
0100
1000
0001
0010
0100
0010
0001
1000
0001
0010
0100
1000
0001
,
0100
0001
0100
0010
1000
0001
0100
0010
1000
0001
0100
0001
1000
0010
1000
0001
,
0010
0100
0010
0100
1000
0001
0100
0001
1000
0100
0010
0100
0010
0001
1000
0001
,
0100
0010
0100
0010
1000
0001
0010
0001
0100
0000
0000
0000
0000
0000
0000
0000
,
0010
1000
0010
0100
0001
0010
0100
1000
,
0010
0100
0010
1000
0100
0010
0001
0100
,
0001
1000
0100
1000
0010
0100
0001
0010
,
0001
0000
0100
0000
0010
0000
1000
0000
0100
0000
0010
0000
0001
1000
0001
1000
,
0010
0100
0010
1000
0010
0100
0010
1000
,
0001
0010
0100
0010
0001
0010
0100
0010
,
0001
1000
0001
0010
0001
1000
0001
0010
,
0001
1000
0010
1000
0001
1000
0100
0000
,
0011
0010
0001
0100
0001
0010
0100
1000
,
0010
1000
0100
0010
0001
1000
0010
1000
,
0100
1000
0001
0100
0001
0010
0001
1000
,
0100
0000
1000
0000
0001
0000
0100
0000
0001
0000
0010
0000
0100
1000
0100
1000
,
0001
0100
0010
1000
0001
0100
0010
1000
,
0100
0010
0001
0010
0100
1000
0001
0100
,
0010
1000
0100
0010
0001
0010
0100
1000
,
0001
0100
0010
1000
0100
0010
0001
1000
,
0100
0010
0001
1000
0100
1000
0001
0010
0100
0010
0001
1000
0100
0010
0100
1000
,
0010
0100
0001
0100
0010
1000
0001
0100
0001
1000
0010
0100
0010
1000
0001
0100
,
0010
1000
0001
0100
0010
1000
0100
0010
,
0001
0010
0100
1000
0001
0100
0010
1000
,
0010
0100
0001
0100
0010
1000
0001
0100
0001
1000
0010
0100
0001
0100
0010
1000
,
0100
0010
0001
1000
0100
1000
0001
0010
0100
1000
0001
0010
0001
1000
0100
1000
,
0001
0010
0100
1000
0001
0100
0010
1000
,
0100
0010
0001
0010
0100
1000
0001
0100
,
0001
1000
0001
0010
0100
0010
0001
1000
0100
0010
0001
1000
0100
0010
0100
1000
,
0010
0100
0001
0100
0001
1000
0010
0100
0001
0100
0010
1000
0100
0010
0100
1000
,
0001
0010
0100
1000
0100
0010
0001
0010
,
0100
1000
0001
0100
0010
1000
0100
0010
,
0100
0010
0001
0010
0100
1000
0010
0100
0001
0100
0010
1000
0100
0010
0100
1000
,
0010
0100
0010
1000
0001
0100
0001
0010
0100
1000
0100
0010
0001
0100
0010
1000
,
0100
0010
0001
1000
0100
1000
0001
0010
0001
1000
0010
1000
0001
0100
0010
1000
,
0001
0010
0001
1000
0100
0010
0001
1000
0001
0100
0010
0100
0001
1000
0010
1000
,
0001
0010
0100
1000
0010
0100
0001
0100
0010
1000
0100
0010
0001
0100
0001
1000
,
0100
0010
0001
1000
0010
0100
0001
0010
0100
0000
0000
0000
0000
0000
0000
0000
,
1000
0100
0010
0001
0010
0100
1000
0001
,
0100
0010
1000
0100
0010
0001
0010
0100
,
1000
0001
0100
0010
1000
0100
0010
0100
,
1000
0001
0100
0010
1000
0001
0010
0001
,
0010
0100
1000
0100
0010
0001
0100
0010
,
1000
0100
0010
0100
1000
0001
0010
0100
,
1000
0100
0010
0001
0100
0010
1000
0100
,
0010
0001
0010
0100
1000
0001
0100
0010
,
1000
0100
1000
0100
0010
0001
0010
0001
,
0100
0010
0100
0010
1000
0100
1000
0100
,
0010
0001
0010
0001
0100
0010
0100
0010
,
1000
0100
0010
0001
0010
0100
1000
0001
,
0100
0010
1000
0100
0010
0001
0010
0100
,
1000
0001
0100
0010
1000
0100
0010
0001
,
0010
0100
1000
0001
0100
0010
1000
0001
,
0100
0000
0000
0000
0000
0000
0000
0000
0001
0100
0001
0100
0010
1000
0010
1000
,
0100
0010
0001
1000
0100
1000
0001
0010
0100
0010
0001
1000
0100
0010
0001
1000
,
0010
0100
0001
0100
0010
1000
0001
0100
0001
1000
0010
0100
0010
1000
0001
0100
,
0001
0010
0100
1000
0100
0010
0001
0100
,
0010
1000
0100
0010
0001
0010
0100
1000
,
0001
0010
0001
0010
0100
1000
0001
0100
0010
1000
0100
0010
0001
0010
0100
1000
,
0001
0100
0001
0100
0010
1000
0001
0100
0010
1000
0010
1000
0001
0100
0001
1000
,
0100
0010
0100
1000
0001
0010
0100
1000
,
0100
0010
0100
1000
0001
0100
0010
1000
,
0100
0010
0001
1000
0100
1000
0001
0010
0001
1000
0100
0010
0001
1000
0100
1000
,
0001
0100
0001
1000
0010
0100
0010
1000
0001
0100
0010
0100
0001
1000
0010
1000
,
0100
0010
0001
0010
0100
1000
0001
0100
,
0010
1000
0100
0010
0001
0010
0100
1000
,
0010
0000
0100
0010
1000
0100
0010
0001
0100
0000
0001
0100
0001
1000
0010
1000
,
0100
0000
0010
0100
1000
0001
0010
0001
0100
0000
0010
1000
0010
0100
0001
0010
,
0100
0000
0000
0000
0010
0100
0010
0001
1000
0000
0000
0000
0010
0000
0000
0000
,
0110
0000
1001
0000
,
1000
0100
0010
0001
0010
0100
1000
0001
,
0100
0010
1000
0100
0010
0001
0010
0100
,
1000
0001
0100
0010
1000
0100
0010
0001
,
0010
0100
1000
0001
0100
0010
1000
0100
,
0010
0100
1000
0001
0100
0010
1000
0100
,
0010
0001
0010
0100
1000
0001
0100
0010
,
1000
0100
1000
0001
0010
0001
0100
0010
,
1000
0001
0100
0010
1000
0001
0100
0001
,
0100
0010
0100
0001
1000
0010
1000
0001
0010
0100
0010
0001
1000
0100
1000
0001
,
0100
0001
1000
0010
0100
0010
1000
0001
0010
0100
0010
0001
1000
0100
1000
0001
,
0100
0001
1000
0010
1000
0001
0100
0010
1000
0001
0010
0001
1000
0100
0010
0001
,
1000
0010
1000
0001
0100
0001
0100
0010
1000
0001
0010
0001
1000
0100
0010
0001
,
0100
0001
1000
0010
1000
0001
0100
0010
1000
0001
0010
0100
1000
0001
0010
0001
,
1000
0010
1000
0010
0100
0001
1000
0010
1000
0001
0010
0100
0010
0001
1000
0100
,
1000
0001
0100
0010
1000
0001
0010
0100
1000
0001
0100
0010
1000
0001
0010
0100
,
1000
0001
0100
0010
1000
0001
0010
0100
1000
0001
0100
0001
1000
0010
0100
0001
,
0020
0000
0100
0000
,
0032
0000
0100
0100
,
2003
0000
0100
0000
,
3020
0000
0100
0000
,
2030
0000
0001
0000
,
3200
0000
0010
0000
,
2300
0000
0010
0000
,
3002
0000
0003
0000
,
2000
0000
3200
0000
,
2300
0000
3020
0000
,
0032
0000
0023
0000
,
2030
0000
3200
0000
,
0320
0000
0032
0000
,
0203
0000
0320
0000
,
2030
0000
3200
0000
,
0302
0000
0003
0000
;

//---------------dance-single - ----------------
#NOTES:
     dance-single:
     :
     Medium:
     13:
     1.000,1.000,0.075,0.254,0.127,1006.000,10.000,34.000,0.000,0.000:
0000
0000
0000
0000
,
0000
0000
0000
0000
,
0000
0000
0000
0000
,
0000
0000
0000
0000
,
2002
0000
0000
0000
0000
0000
0000
3003
,
1100
0000
0000
0000
,
2002
0000
0000
0000
0000
0000
0000
3003
,
0101
0000
0000
0000
0001
0010
0001
0100
,
0002
0000
0010
0013
,
0200
0010
0010
0310
,
0002
0010
0010
0010
,
0203
0000
0000
0000
0010
0000
0000
0000
0310
0000
0000
0000
1000
0100
0010
0001
,
0200
0010
0010
0000
,
0301
0010
0100
1000
,
4000
0004
0000
0000
0000
0000
3003
0000
,
0100
0000
1000
0100
0010
0001
0010
0100
,
1000
0000
0010
1000
0010
0000
0100
0001
,
0100
0000
0001
1000
0001
0000
1000
0100
,
1000
0000
0001
1000
0001
0000
0001
0000
,
2002
3003
1010
0000
,
0100
0001
0100
0001
0100
0010
1000
0100
,
0010
0001
0010
0100
1000
0001
0100
0010
,
1000
0100
0010
0001
0010
0100
1000
0001
,
0100
0010
1000
0100
1000
0001
0010
0001
,
1000
0010
0100
0001
0010
0001
0010
0100
,
1000
0001
0100
0010
1000
0100
0010
0001
,
0010
0100
1000
0010
0100
0001
0100
0010
,
1000
0100
0010
0001
0010
0100
1000
0001
,
0100
0010
0100
0010
1000
0100
0010
0001
,
0010
0100
1000
0001
0100
0001
1000
0010
,
0100
0001
0010
0001
0010
0100
1000
0100
,
0010
0100
1000
0001
0010
0001
0100
0010
,
0100
0001
0010
0001
1000
0010
0100
0001
,
0100
0010
1000
0001
0100
1000
0100
1000
,
0010
0000
0100
0001
1000
0000
0100
0000
,
1100
0000
1000
0100
0001
0000
0000
0000
,
1000
0100
0010
0001
0010
0100
1000
0001
,
0100
0001
1000
0100
0010
0100
1000
0001
,
0100
0010
1000
0100
0010
0001
1000
0100
,
0010
0001
0100
0010
1000
0100
0010
0001
,
0100
0010
1000
0001
0100
0010
1000
0100
,
0010
0001
0010
0100
1000
0001
0100
0010
,
0100
0001
0100
0010
1000
0100
0010
0001
,
0010
0100
1000
0001
0100
0010
1000
0001
,
0010
0100
1000
0001
0100
0010
1000
0100
,
0010
0001
0010
0100
1000
0001
0100
0010
,
0100
0010
1000
0001
0100
0010
1000
0100
,
0010
0001
0010
0100
1000
0001
0100
0010
,
1000
0001
0100
0010
1000
0100
0010
0001
,
0010
0100
1000
0001
0010
0100
1000
0100
,
0010
0001
0100
0010
1000
0100
0010
0001
,
0010
0100
1000
0001
0100
0000
0000
0000
,
0010
1000
0010
0100
0001
0010
0100
1000
,
0010
0100
0010
1000
0100
0010
0001
0100
,
0001
1000
0100
1000
0010
0100
0001
0010
,
0001
0100
0010
1000
0100
0010
0001
1000
,
0010
0100
0010
1000
0010
0100
0010
1000
,
0001
0010
0100
0010
0001
0010
0100
0010
,
0001
1000
0001
0010
0001
1000
0001
0010
,
0001
1000
0010
1000
0001
0000
0000
0000
,
0001
0010
0001
0100
0001
0010
0100
1000
,
0010
1000
0100
0010
0001
1000
0010
1000
,
0100
1000
0001
0100
0001
0010
0001
1000
,
0100
1000
0001
0100
0001
0010
0100
0010
,
0001
0100
0010
1000
0001
0100
0010
1000
,
0100
0010
0001
0010
0100
1000
0001
0100
,
0010
1000
0100
0010
0001
0010
0100
1000
,
0001
0100
0010
1000
0100
0010
0001
1000
,
0100
0010
0001
0010
0100
1000
0001
0100
,
0010
1000
0100
0010
0001
0010
0100
1000
,
0010
1000
0001
0100
0010
1000
0100
0010
,
0001
0010
0100
1000
0001
0100
0010
0001
,
0010
0100
0001
0010
0100
1000
0100
0010
,
0001
0100
0010
1000
0100
0010
0001
0100
,
0001
0010
0100
1000
0001
0100
0010
1000
,
0100
0010
0001
0010
0100
1000
0001
0100
,
0001
0010
0100
1000
0001
0010
0100
1000
,
0001
0100
0010
1000
0100
0010
0001
0100
,
0001
0010
0100
1000
0100
0010
0001
0010
,
0100
1000
0001
0100
0010
1000
0100
0010
,
0001
0010
0100
1000
0001
0100
0010
1000
,
0001
0010
0001
1000
0010
0100
0001
0010
,
0001
1000
0100
0010
0001
0010
0100
1000
,
0001
0100
0010
1000
0100
0010
0001
0010
,
0100
1000
0001
0100
0010
1000
0100
0010
,
0001
0010
0100
0010
0100
0000
0000
0000
,
1000
0100
0010
0001
0010
0100
1000
0001
,
0100
0010
1000
0100
0010
0001
0010
0100
,
1000
0001
0100
0010
1000
0100
0010
0100
,
1000
0001
0100
0010
1000
0001
0010
0001
,
0010
0100
1000
0100
0010
0001
0100
0010
,
1000
0100
0010
0100
1000
0001
0010
0100
,
1000
0100
0010
0001
0100
0010
1000
0100
,
0010
0001
0010
0100
1000
0001
0100
0010
,
1000
0100
1000
0100
0010
0001
0010
0001
,
0100
0010
0100
0010
1000
0100
1000
0100
,
0010
0001
0010
0001
0100
0010
0100
0010
,
1000
0100
0010
0001
0010
0100
1000
0001
,
0100
0010
1000
0100
0010
0001
0010
0100
,
1000
0001
0100
0010
1000
0100
0010
0001
,
0010
0100
1000
0001
0100
0010
1000
0001
,
0100
0000
0000
0000
0001
0010
0100
1000
,
0100
0010
0001
1000
0010
0100
0001
0100
,
0010
1000
0100
0010
0001
0010
0001
0100
,
0001
0010
0100
1000
0100
0010
0001
0100
,
0010
1000
0100
0010
0001
0010
0100
1000
,
0001
0010
0100
1000
0001
0100
0010
1000
,
0100
0010
0001
0010
0100
1000
0010
0100
,
0001
0010
0100
1000
0001
0010
0100
1000
,
0100
0010
0100
1000
0001
0100
0010
1000
,
0100
0010
0001
0010
0100
1000
0001
0100
,
0010
1000
0100
0010
0100
1000
0001
1000
,
0100
0010
0001
0010
0100
1000
0001
0100
,
0010
1000
0100
0010
0001
0010
0100
1000
,
0001
0010
0100
1000
0001
0100
0010
1000
,
0100
0010
0001
0010
0100
1000
0001
0100
,
0010
0000
0100
0010
1000
0000
0010
0000
,
0110
0000
1001
0000
,
1000
0100
0010
0001
0010
0100
1000
0001
,
0100
0010
1000
0100
0010
0001
0010
0100
,
1000
0001
0100
0010
1000
0100
0010
0001
,
0010
0100
1000
0001
0100
0010
1000
0100
,
0010
0100
1000
0001
0100
0010
1000
0100
,
0010
0001
0010
0100
1000
0001
0100
0010
,
1000
0100
1000
0001
0010
0001
0100
0010
,
1000
0001
0100
0010
1000
0001
0100
0001
,
1000
0100
0010
0001
0010
0100
1000
0001
,
0100
0010
1000
0100
0010
0001
0010
0100
,
1000
0001
0100
0001
0100
0010
1000
0100
,
0010
0001
0010
0100
1000
0100
0010
0001
,
1000
0100
1000
0100
1000
0100
1000
0100
1000
0100
1000
0100
1000
0100
1000
0100
,
0010
0001
0010
0001
0010
0001
0010
0001
0010
0001
0010
0001
0010
0001
0010
0001
,
1000
0010
1000
0010
1000
0010
1000
0010
1000
0010
1000
0010
1000
0010
1000
0010
,
0100
0001
0100
0001
0100
0001
0100
0001
0100
0001
0100
0001
0100
0001
0100
0001
,
0020
0000
0130
0000
,
2000
0000
3100
0100
,
2000
0000
3100
0000
,
0020
0000
0130
0000
,
2000
0000
3001
0000
,
0200
0000
0310
0000
,
2000
0000
3010
0000
,
0002
0000
0003
0000
,
2000
0000
3200
0000
,
2300
0000
3020
0000
,
0032
0000
0023
0000
,
2030
0000
3200
0000
,
0320
0000
0032
0000
,
0203
0000
0320
0000
,
2030
0000
3200
0000
,
0302
0000
0003
0000
;

//---------------dance-single - ----------------
#NOTES:
     dance-single:
     :
     Easy:
     9:
     0.518,0.948,0.119,0.567,0.000,383.000,16.000,76.000,0.000,0.000:
0000
0000
0000
0000
,
0000
0000
0000
0000
,
0000
0000
0000
0000
,
0000
0000
0000
0000
,
2002
0000
3003
0000
,
1100
0000
0000
0000
,
2002
0000
3003
0000
,
0101
0000
0001
1000
,
0002
0000
0013
0100
,
2000
0000
3010
0000
,
0002
0000
0013
0000
,
0200
0000
0010
0000
0310
0000
1000
0010
,
0200
0010
0010
0000
,
0301
0010
0100
1000
,
4000
0004
0000
0000
0000
0000
3003
0000
,
0100
1000
0100
0010
,
0001
0010
0100
1000
,
0100
0010
0001
1000
,
0100
0010
0001
1000
,
2002
3003
1010
0000
,
0004
0000
0403
0000
,
0340
0000
4030
0000
,
3004
0000
0043
0000
,
0130
1000
0100
1000
,
0400
0000
0340
0000
,
0031
0100
0001
0100
,
0004
0000
0043
0000
,
0130
1000
0100
1000
,
0400
0000
0340
0000
,
0031
0100
0001
0100
,
0004
0000
4003
0000
,
3010
0100
0000
0100
,
0040
0000
4030
0000
,
3001
0100
0010
1000
,
0010
0100
0001
0100
,
0010
1000
0001
0000
,
2000
0000
3020
0000
,
0230
0000
0301
0100
,
0020
0000
2030
0000
,
3002
0000
0023
0000
,
0230
0000
2300
0000
,
3200
0000
0301
0000
,
0200
0000
2300
0000
,
3010
0000
0000
0000
,
2000
0000
3002
0000
,
0023
0000
0230
0000
,
2300
0000
3200
0000
,
0320
0000
0032
0000
,
2003
0000
3020
0000
,
0230
0000
0302
0000
,
0023
0000
0230
0000
,
1300
0000
0100
0000
,
0001
0000
0100
0000
,
0010
0000
1000
0000
,
0001
0000
0010
0000
,
0100
0000
1000
0000
,
0001
0000
0100
0000
,
0010
0000
1000
0000
,
0001
0000
0010
0000
,
0100
0000
0001
0000
,
1000
0000
0001
0000
,
0100
0000
0010
0000
,
1000
0000
0010
0000
,
0100
0000
0001
0000
,
0010
0000
0100
0000
,
1000
0000
0100
0000
,
0010
0000
0001
0000
,
0100
0000
0010
0000
,
1000
0000
0001
0000
,
0100
0000
0010
0000
,
1000
0010
1000
0010
,
0100
0001
0100
0000
,
0001
0010
0001
0010
,
0001
1000
0001
0000
,
0100
0010
0100
0010
,
1000
0010
1000
0000
,
0001
0100
0001
0100
,
0001
0010
0001
0000
,
1000
0010
1000
0010
,
0100
0001
0100
0000
,
0010
0001
0010
0100
,
1000
0100
0010
0000
,
1000
0001
1000
0001
,
0100
0010
0100
0010
,
1000
0001
1000
0001
,
0100
0010
1000
0000
,
0002
0000
0203
0000
,
0320
0000
2030
0000
,
3002
0000
0103
0010
,
0200
0000
0320
0000
,
2030
0000
3001
1000
,
0002
0000
0000
0000
,
0013
0100
0010
0100
,
0010
0000
0000
0000
,
2000
0000
3200
0000
,
0320
0000
0031
0000
,
0002
0000
1003
0010
,
1000
0000
0100
0000
,
0020
0000
0230
0000
,
2300
0000
3002
0000
,
1003
0000
0000
0000
,
0100
0000
0000
0000
,
0100
0000
0010
0000
,
1000
0000
0001
0000
,
0010
0000
0100
0000
,
1000
0000
0001
0000
,
0100
0000
0010
0000
,
1000
0001
1000
0001
,
1000
0000
0010
0000
,
0100
0010
0000
0000
,
1000
0000
0001
0000
,
0100
0010
0100
0010
,
0100
0000
1000
0000
,
0001
1000
0000
0000
,
0010
1000
0010
0100
,
0001
0000
1001
0000
,
0010
1000
0100
0010
,
0110
0000
1001
0000
,
2000
0000
3200
0000
,
0320
0000
0031
0100
,
0020
0000
2030
0000
,
3200
0000
0320
0000
,
0031
0000
0100
0000
,
0010
0000
1000
0000
,
0001
0000
0100
0000
,
0010
0000
1000
0000
,
0001
0100
0001
0100
0001
0100
0001
0100
,
0001
1000
0001
1000
0001
1000
0001
1000
,
0001
0100
0001
0100
0001
0100
0001
0100
,
0010
1000
0010
1000
0010
1000
0010
1000
,
0001
0010
0100
1000
0100
0010
0001
0100
,
0010
1000
0001
0100
0010
1000
0001
0010
,
0100
1000
0100
0010
0001
0010
0100
1000
,
0001
0010
0100
1000
0100
0010
0001
0100
,
0010
0000
1000
0000
,
0010
0000
0100
0001
,
0100
0000
0010
0000
,
1000
0000
0010
0000
,
0100
0000
0001
0000
,
1000
0000
0010
0000
,
0100
0000
0001
0000
,
1000
0000
0000
0000
,
2000
0000
3200
0000
,
2300
0000
3020
0000
,
0032
0000
0023
0000
,
2030
0000
3200
0000
,
0320
0000
0032
0000
,
0203
0000
0320
0000
,
2030
0000
3200
0000
,
0302
0000
0003
0000
;

//---------------dance-single - ----------------
#NOTES:
     dance-single:
     :
     Beginner:
     2:
     0.130,0.276,0.022,0.000,0.000,119.000,3.000,0.000,0.000,0.000:

0000
0000
0000
0000
,
0000
0000
0000
0000
,
0000
0000
0000
0000
,
0000
0000
0000
0000
,
1001
0000
0000
0000
,
0010
0000
0000
0000
,
1001
0000
0000
0000
,
0100
0000
0000
0000
,
0001
0000
0000
0000
,
1000
0000
0000
0000
,
1000
0000
0000
0000
,
0001
0000
0000
0000
,
1000
0000
0000
0000
,
0001
0000
0000
0000
,
0010
0000
0000
0000
,
0100
0000
0000
0000
,
1000
0000
0000
0000
,
0001
0000
0000
0000
,
1000
0000
0000
0000
,
0001
0000
0000
0000
,
1000
0000
0000
0000
,
0001
0000
0000
0000
,
0100
0000
0000
0000
,
0010
0000
0000
0000
,
1000
0000
0000
0000
,
0010
0000
0000
0000
,
0100
0000
0000
0000
,
0001
0000
0000
0000
,
1000
0000
0000
0000
,
0010
0000
0000
0000
,
0100
0000
0000
0000
,
0001
0000
0000
0000
,
0010
0000
0000
0000
,
0010
0000
0000
0000
,
0100
0000
0000
0000
,
0100
0000
0000
0000
,
1000
0000
0000
0000
,
1000
0000
0000
0000
,
0001
0000
0000
0000
,
1000
0000
0000
0000
,
0010
0000
0000
0000
,
0100
0000
0000
0000
,
0001
0000
0000
0000
,
0100
0000
0000
0000
,
0010
0000
0000
0000
,
1000
0000
0000
0000
,
0100
0000
0000
0000
,
0010
0000
0000
0000
,
0100
0000
0000
0000
,
0001
0000
0000
0000
,
1000
0000
0000
0000
,
0010
0000
0000
0000
,
0100
0000
0000
0000
,
0000
0000
0000
0000
,
0010
0000
0000
0000
,
0000
0000
0000
0000
,
0100
0000
0000
0000
,
0000
0000
0000
0000
,
0001
0000
0000
0000
,
0000
0000
0000
0000
,
1000
0000
0000
0000
,
0000
0000
0000
0000
,
0001
0000
0000
0000
,
0000
0000
0000
0000
,
0100
0000
0000
0000
,
0000
0000
0000
0000
,
0010
0000
0000
0000
,
0000
0000
0000
0000
,
1000
0000
0000
0000
,
1000
0000
0000
0000
,
0001
0000
0000
0000
,
0100
0000
0000
0000
,
0010
0000
0000
0000
,
1000
0000
0000
0000
,
0001
0000
0000
0000
,
0100
0000
0000
0000
,
0010
0000
0000
0000
,
1000
0000
0000
0000
,
0001
0000
0000
0000
,
0100
0000
0000
0000
,
0010
0000
0000
0000
,
1000
0000
0000
0000
,
0001
0000
0000
0000
,
0100
0000
0000
0000
,
0010
0000
0000
0000
,
1000
0000
0000
0000
,
0001
0000
0000
0000
,
0001
0000
0000
0000
,
0100
0000
0000
0000
,
0010
0000
0000
0000
,
1000
0000
0000
0000
,
0001
0000
0000
0000
,
0100
0000
0000
0000
,
0100
0000
0000
0000
,
0010
0000
0000
0000
,
1000
0000
0000
0000
,
0001
0000
0000
0000
,
1000
0000
0000
0000
,
0010
0000
0000
0000
,
0100
0000
0000
0000
,
0001
0000
0000
0000
,
1000
0000
0000
0000
,
0001
0000
0000
0000
,
0001
0000
0000
0000
,
0100
0000
0000
0000
,
0000
0000
0000
0000
,
0010
0000
0000
0000
,
1000
0000
0000
0000
,
0001
0000
0000
0000
,
0000
0000
0000
0000
,
0001
0000
0000
0000
,
1000
0000
0000
0000
,
0001
0000
0000
0000
,
0000
0000
0000
0000
,
1000
0000
0000
0000
,
0001
0000
0000
0000
,
0100
0000
0000
0000
,
0010
0000
0000
0000
,
1000
0000
0000
0000
,
0000
0000
0000
0000
,
0001
0000
0000
0000
,
0000
0000
0000
0000
,
0100
0000
0000
0000
,
0000
0000
0000
0000
,
0010
0000
0000
0000
,
0000
0000
0000
0000
,
1000
0000
0000
0000
,
0000
0000
0000
0000
,
0001
0000
0000
0000
,
0000
0000
0000
0000
,
0100
0000
0000
0000
,
0000
0000
0000
0000
,
0010
0000
0000
0000
,
0000
0000
0000
0000
,
1001
0000
0000
0000
,
0000
0000
0000
0000
,
0010
0000
0000
0000
,
0000
0000
0000
0000
,
0100
0000
0000
0000
,
0000
0000
0000
0000
,
0001
0000
0000
0000
,
0000
0000
0000
0000
,
1000
0000
0000
0000
,
0000
0000
0000
0000
,
0001
0000
0000
0000
,
0000
0000
0000
0000
,
0010
0000
0000
0000
,
0000
0000
0000
0000
,
0100
0000
0000
0000
;
