#TITLE:P.P.R.;
#SUBTITLE:;
#ARTIST:Handsome JET;
#TITLETRANSLIT:;
#SUBTITLETRANSLIT:;
#ARTISTTRANSLIT:;
#CREDIT:;
#BANNER:PPR.png;
#BACKGROUND:PPR-bg.png;
#LYRICSPATH:;
#CDTITLE:!toph-cdtitle.png;
#MUSIC:Handsome JET - PPR.mp3;
#OFFSET:-0.347;
#SAMPLESTART:43.480;
#SAMPLELENGTH:10.800;
#SELECTABLE:YES;
#BPMS:0.000=178.000,192.000=164.000,194.000=140.000,195.000=111.500,196.000=123.400,198.000=80.500,198.500=111.000,199.000=123.000,199.500=126.000,200.000=139.000,200.500=140.000,201.000=142.000,201.500=147.000,202.000=150.000,202.500=144.000,203.000=124.000,203.500=106.000,204.000=98.000,204.500=82.000,205.000=70.000,205.500=76.500;
#STOPS:;
#BGCHANGES:;
// cache tags:
#FIRSTBEAT:16.000;
#LASTBEAT:207.000;
#SONGFILENAME:Songs/Community Keyboard Megapack - Volume 1/(Toph) PPR/PPR.sm;
#HASMUSIC:1;
#HASBANNER:1;
#MUSICLENGTH:75.363;
// end cache tags

//---------------dance-single - ----------------
#NOTES:
     dance-single:
     :
     Easy:
     5:
     0.474,0.584,0.584,0.093,0.000,199.000,44.000,7.000,0.000,0.000:  // measure 1
0000
0000
0000
0000
,  // measure 2
0000
0000
0000
0000
,  // measure 3
0000
0000
0000
0000
,  // measure 4
0000
0000
0000
0000
,  // measure 5
0001
1100
0010
0101
,  // measure 6
1000
0110
0001
1100
,  // measure 7
0010
1001
0100
1001
,  // measure 8
0010
0101
1100
0000
,  // measure 9
0010
1001
0100
1001
,  // measure 10
0010
0101
1000
0101
,  // measure 11
0010
1000
0010
1000
0010
1000
0010
1000
,  // measure 12
0010
1000
0010
1000
0000
0000
0000
0000
,  // measure 13
0010
0001
0010
0001
0010
0001
0010
0001
,  // measure 14
0010
0001
0010
0001
0010
0001
0010
0001
,  // measure 15
1000
0001
0100
0010
,  // measure 16
1000
0000
0100
0010
0000
0001
1000
0000
,  // measure 17
0010
0100
0001
0100
,  // measure 18
0010
0000
1000
0000
0100
0010
0100
0010
,  // measure 19
0001
1000
0010
1000
,  // measure 20
0100
0000
1000
0010
0000
0100
0001
0000
,  // measure 21
0010
0100
1000
0100
,  // measure 22
0010
0001
0110
1001
,  // measure 23
2010
0000
3000
0001
,  // measure 24
0012
0100
0010
0103
,  // measure 25
0001
0100
0010
1000
,  // measure 26
0100
1100
0100
0101
,  // measure 27
0120
0000
0030
1000
,  // measure 28
0101
0000
1100
0000
0001
1000
0001
1000
,  // measure 29
0010
0010
0010
0100
,  // measure 30
0010
0010
0010
0100
,  // measure 31
1001
0110
1001
0110
,  // measure 32
2002
0000
0000
3003
,  // measure 33
0010
1100
0001
1100
,  // measure 34
0010
0101
0010
1100
,  // measure 35
0001
0110
1000
0101
,  // measure 36
0010
1001
0010
1001
,  // measure 37
0110
1100
0001
1010
,  // measure 38
0100
1001
0010
1100
,  // measure 39
0001
1000
0001
0000
1000
0001
1000
0000
,  // measure 40
0110
0101
1001
1100
,  // measure 41
0010
0000
0001
0010
0001
0000
0010
0100
,  // measure 42
0010
0000
0100
1000
0100
0000
0010
0000
,  // measure 43
0001
0000
1000
0001
1000
0000
0010
1000
,  // measure 44
0010
0000
0100
0010
0100
0000
0000
0000
,  // measure 45
0001
0000
1000
0100
1000
0000
0100
0010
,  // measure 46
0100
0000
0010
0001
0010
0000
0001
0000
,  // measure 47
0100
1000
0100
0001
,  // measure 48
1000
0100
0001
0100
,  // measure 49
1000
0000
0001
0000
,  // measure 50
2002
0000
0000
0000
,  // measure 51
0000
0000
0000
0000
,  // measure 52
0000
0000
0000
3003
;

//---------------dance-single - ----------------
#NOTES:
     dance-single:
     :
     Medium:
     7:
     0.569,0.618,0.531,0.119,0.000,251.000,40.000,9.000,0.000,0.000:  // measure 1
0000
0000
0000
0000
,  // measure 2
0000
0000
0000
0000
,  // measure 3
0000
0000
0000
0000
,  // measure 4
0000
0000
0000
0000
,  // measure 5
0001
0000
0010
0100
0010
0000
0100
1000
,  // measure 6
0100
0000
1000
0001
1000
0000
0010
0000
,  // measure 7
0100
0000
0001
0010
0001
0000
1000
0001
,  // measure 8
1000
0000
0010
1000
0010
0000
0000
0000
,  // measure 9
1001
0000
0100
0010
0100
0000
0010
0001
,  // measure 10
0010
0000
0001
0100
0001
0000
0001
0000
,  // measure 11
1000
1000
0100
0100
0010
0010
0001
0001
,  // measure 12
0100
0100
0010
0010
0000
0000
1001
0000
,  // measure 13
0100
0100
0010
0010
1000
1000
0001
0001
,  // measure 14
0010
0010
0100
0100
1000
0001
0100
0010
,  // measure 15
1000
0000
1000
0100
0010
0001
0000
0200
,  // measure 16
0000
0300
0010
1000
0000
0000
1001
0000
,  // measure 17
0010
0100
0000
1001
0000
0010
0100
0002
,  // measure 18
0000
0003
1001
0000
1000
0001
1000
0001
,  // measure 19
1000
0000
0010
0100
0001
0010
0000
0200
,  // measure 20
0000
0300
1000
0010
0000
0000
1001
0000
,  // measure 21
0100
0000
0100
0001
0000
0010
0100
1000
,  // measure 22
0001
0110
1001
0110
,  // measure 23
2000
0100
3010
1001
,  // measure 24
0120
0000
1030
0001
0100
0010
1000
0100
,  // measure 25
0010
0001
0010
0001
0000
0100
0010
0100
,  // measure 26
0000
0001
1000
0000
1100
0000
0101
0000
,  // measure 27
2000
0100
3010
1001
,  // measure 28
0120
0000
0031
0000
1000
0010
0100
0001
,  // measure 29
0010
0100
1000
0001
0000
0100
0000
0010
,  // measure 30
0000
0100
0001
1000
0000
0001
0010
0100
,  // measure 31
1000
0001
1000
0010
0000
0101
0000
1100
,  // measure 32
0000
0100
0010
0000
0010
0000
0010
0000
,  // measure 33
1001
0000
1000
0100
1000
0000
1000
0001
,  // measure 34
1000
0000
1000
0010
1000
0000
1001
0000
,  // measure 35
1001
0000
0001
0100
0001
0000
0001
1000
,  // measure 36
0001
0000
0001
0010
0001
0000
0000
0000
,  // measure 37
1001
0000
0010
1000
0010
0000
0010
0100
,  // measure 38
0010
0000
0010
0001
0010
0000
0110
0000
,  // measure 39
1001
1000
1000
0000
0001
0001
0001
0000
,  // measure 40
0110
1010
1001
0011
,  // measure 41
0110
0000
1000
0001
0101
0000
0001
1000
,  // measure 42
1010
0000
1000
0100
0110
0000
0001
0100
,  // measure 43
0110
0000
1000
0001
0011
0000
0100
1000
,  // measure 44
1010
0000
1000
0001
0011
0000
0001
0100
,  // measure 45
1010
0000
1000
0100
0011
0000
0001
1000
,  // measure 46
0110
0000
1000
0001
1100
0000
0001
1000
,  // measure 47
0010
0100
1000
0100
0001
0100
1000
0100
,  // measure 48
0010
0100
1000
0100
0001
0100
0010
0100
,  // measure 49
0001
0000
1000
0000
,  // measure 50
2002
0000
0000
0000
,  // measure 51
0000
0000
0000
0000
,  // measure 52
0000
0000
0000
3003
;

//---------------dance-single - ----------------
#NOTES:
     dance-single:
     :
     Hard:
     9:
     0.694,0.755,0.531,0.027,0.285,324.000,40.000,2.000,0.000,0.000:  // measure 1
0000
0000
0000
0000
,  // measure 2
0000
0000
0000
0000
,  // measure 3
0000
0000
0000
0000
,  // measure 4
0000
0000
0000
0000
,  // measure 5
1001
0000
0010
0100
1000
0000
0010
0100
,  // measure 6
0001
0000
1000
0100
0010
0000
1001
0000
,  // measure 7
0110
0000
1000
0100
0010
0000
0001
0100
,  // measure 8
1000
0000
0000
0000
0100
0000
0010
0000
1000
0000
0000
0000
0100
0010
0100
0010
,  // measure 9
0001
0000
0100
0010
1000
0000
0001
0010
,  // measure 10
1000
0000
0001
0100
1000
0000
1100
0000
,  // measure 11
0001
0100
0010
1000
0001
0010
0100
1000
,  // measure 12
0010
0100
0001
0010
0000
0000
1100
0000
,  // measure 13
0010
0100
0001
0010
0001
0100
1000
0100
,  // measure 14
0001
0000
0010
0000
0001
0000
0100
0000
0001
1000
0001
1000
0001
0000
1000
0001
,  // measure 15
0010
0000
0001
0100
0010
1000
0000
0100
,  // measure 16
0010
0000
0001
1000
0000
0010
0100
0000
,  // measure 17
0001
0010
0001
1000
0000
0010
0100
0001
,  // measure 18
1000
0000
0100
0000
0010
0001
1000
0001
,  // measure 19
0110
0000
1000
0100
0010
0001
0000
1000
,  // measure 20
0010
0000
0100
0001
0000
0010
0100
0000
,  // measure 21
1000
0001
1000
0010
0000
0100
0001
0010
,  // measure 22
0100
1100
0101
1100
,  // measure 23
0011
0000
0001
0100
0000
0100
0010
1000
,  // measure 24
0001
0000
1000
1000
0100
1000
0010
1000
,  // measure 25
0001
0001
0010
0001
0000
0100
1000
0100
,  // measure 26
0010
1010
1001
0011
,  // measure 27
1100
0000
0010
0001
0100
0010
1000
0001
,  // measure 28
0010
0000
0000
0000
0100
0000
0000
0000
1000
0001
1000
0001
1000
0001
1000
0001
,  // measure 29
0100
0000
0000
0000
0101
0000
0000
0000
1100
0000
0000
0000
0010
0001
0010
0000
,  // measure 30
1001
0000
0000
0000
1100
0000
0000
0000
0101
0000
0000
0000
0010
1000
0010
0000
,  // measure 31
1001
1100
1001
0101
,  // measure 32
1001
0010
0010
0010
,  // measure 33
1000
0100
1001
0100
0001
0100
1001
0010
,  // measure 34
1000
0100
1001
0010
0001
0100
1001
0010
,  // measure 35
1000
0001
0110
1000
0001
0100
1010
0001
,  // measure 36
0010
0000
0100
0000
1001
0000
0010
0000
1000
0000
0100
0000
0010
0001
0010
0001
,  // measure 37
1000
0010
0101
0010
1000
0001
1100
0010
,  // measure 38
0001
1000
0110
0001
1000
0100
1001
0010
,  // measure 39
0001
0000
0001
0000
0001
0000
0100
0010
1000
0000
1000
0000
0001
0100
0001
0100
,  // measure 40
0010
0000
0000
0000
1010
0000
0000
0000
1001
0000
0000
0000
0101
0000
0001
0100
,  // measure 41
0010
0000
0000
0000
1000
0100
1000
0100
0010
0000
0000
0000
0001
0100
0001
0100
,  // measure 42
0010
0000
0000
0000
1000
0001
1000
0001
0010
0000
0000
0000
0100
1000
0100
1000
,  // measure 43
0001
0000
0000
0000
0100
0010
0100
0010
1000
0000
0000
0000
0001
0010
0001
0010
,  // measure 44
0100
0000
0000
0000
1000
0010
1000
0010
0100
0000
0000
0000
0001
1000
0001
1000
,  // measure 45
0100
0000
0000
0000
0010
0001
0010
0001
1000
0000
0000
0000
0010
0100
0010
0100
,  // measure 46
0001
0000
0000
0000
1000
0100
1000
0100
0010
0000
0000
0000
0001
0100
0001
0100
,  // measure 47
0010
1000
0100
1000
0010
1000
0100
1000
,  // measure 48
0010
0000
0100
0000
0001
0000
0010
0000
0100
0000
1000
0000
0010
0100
0010
0100
,  // measure 49
0001
0000
0100
0000
,  // measure 50
2020
0000
0000
0000
,  // measure 51
0000
0000
0000
0000
,  // measure 52
0000
0000
3030
1100
;

//---------------dance-single - ----------------
#NOTES:
     dance-single:
     :
     Challenge:
     11:
     0.976,1.000,1.000,0.106,0.338,343.000,164.000,8.000,0.000,0.000:  // measure 1
0000
0000
0000
0000
,  // measure 2
0000
0000
0000
0000
,  // measure 3
0000
0000
0000
0000
,  // measure 4
0000
0000
0000
0000
,  // measure 5
0011
0000
1010
0100
1010
0000
1001
0010
,  // measure 6
1001
0010
0101
1010
0101
0010
1100
0010
,  // measure 7
1001
0000
1010
0100
1010
0000
1001
0010
,  // measure 8
1001
0000
0010
0000
1100
0000
0011
0000
1100
0000
0001
0000
0010
0100
0010
0100
,  // measure 9
0011
0000
1010
0100
1010
0000
1001
0010
,  // measure 10
1001
0010
0101
1010
0101
0010
1100
0010
,  // measure 11
1001
1010
0011
0011
1100
1010
0011
1010
,  // measure 12
1100
1010
0011
0011
0000
0000
1000
0000
,  // measure 13
1100
1010
0011
0011
1100
1010
1010
1010
,  // measure 14
1100
0000
1010
0000
0011
0000
0011
0000
0010
0100
0010
0100
0010
0000
0010
0100
,  // measure 15
1001
0000
0011
0000
1000
1000
0011
0000
,  // measure 16
1000
0000
0101
1010
0000
1000
0110
0000
,  // measure 17
0001
0000
1100
0011
0000
0100
1001
0000
,  // measure 18
1000
0000
0011
1000
0000
1010
0101
0011
,  // measure 19
1100
0000
0011
0000
0100
0100
1010
0000
,  // measure 20
0100
0000
0101
1010
0000
1000
0011
0000
,  // measure 21
1000
0000
0110
0000
0001
0001
1010
0000
,  // measure 22
0100
0000
0000
0000
0000
0000
0000
0000
0000
0000
0000
0000
0011
0000
0000
0000
0000
0000
1000
0000
0000
0000
0000
0000
0010
0001
0000
0000
0000
0000
1000
0000
0000
0000
0000
0000
0010
0001
0000
0000
0000
0000
1000
0000
0000
0000
0000
0000
,  // measure 23
0110
0000
1001
0000
1100
0100
1010
0000
,  // measure 24
0101
0000
0011
0010
1100
1001
0110
0001
,  // measure 25
1100
0000
0110
0000
0101
0001
1010
0000
,  // measure 26
1100
0000
0011
1000
0110
0100
0011
0000
,  // measure 27
1001
0000
1010
0000
0101
0001
1010
0000
,  // measure 28
0101
0000
0000
0000
0110
0000
0000
0000
0010
0100
0010
0100
0010
0100
0010
0100
,  // measure 29
1001
0000
0000
0000
0000
0000
0000
0000
0000
0000
0000
0000
0000
0000
0000
0001
0100
0000
0000
0000
0000
0000
0000
0000
0000
0000
0000
0000
0000
0000
0000
0001
0100
0000
0000
0000
0000
0000
0000
0000
0000
0000
0000
0000
0000
0000
0000
0000
0001
0000
0000
0000
0010
0000
0000
0000
0100
0000
0000
0000
0000
0000
0000
0000
,  // measure 30
1001
0000
0000
0000
0000
0000
0000
0000
0000
0000
0000
0000
0000
0000
0000
0001
0100
0000
0000
0000
0000
0000
0000
0000
0000
0000
0000
0000
0000
0000
0000
0001
0100
0000
0000
0000
0000
0000
0000
0000
0000
0000
0000
0000
0000
0000
0000
0000
0001
0000
0000
0000
0010
0000
0000
0000
0100
0000
0000
0000
0000
0000
0000
0000
,  // measure 31
2002
3003
0022
0033
2002
3003
0022
0033
,  // measure 32
1001
0010
1100
0010
1100
0010
1100
0010
,  // measure 33
1001
0100
0011
0000
1001
1000
0011
0000
,  // measure 34
0110
0000
1010
0001
1100
1000
0011
0000
,  // measure 35
1100
0000
0011
0000
1000
1000
0110
0000
,  // measure 36
1100
0000
0001
0000
0110
0000
0001
0000
1000
0000
1001
0000
0010
0100
0010
0100
,  // measure 37
1001
0000
0110
0001
1000
1000
0110
0000
,  // measure 38
1100
0000
0011
0100
1010
1000
0110
0000
,  // measure 39
0011
0000
0011
0000
0011
0000
1000
0100
0011
0000
0011
0000
0001
0010
0001
0010
,  // measure 40
1001
0000
0000
0000
1010
0000
0000
0000
0110
0000
0000
0000
0101
0000
0100
0010
,  // measure 41
1001
0000
0000
0000
0001
0100
0001
0100
1010
0000
0000
0000
0100
0010
0100
0010
,  // measure 42
1001
0000
0000
0000
1000
0100
1000
0100
0011
0000
0000
0000
0010
0100
0010
0100
,  // measure 43
1001
0000
0000
0000
0001
0010
0001
0010
1100
0000
0000
0000
0010
1000
0010
1000
,  // measure 44
0101
0000
0000
0000
0001
1000
0001
1000
0110
0000
0000
0000
1000
0100
1000
0100
,  // measure 45
0011
0000
0000
0000
0010
0100
0010
0100
1001
0000
0000
0000
1000
0001
1000
0001
,  // measure 46
0110
0000
0000
0000
0010
1000
0010
1000
0101
0000
0000
0000
1000
0100
1000
0100
,  // measure 47
0011
1001
1100
1001
0011
1001
1100
1001
,  // measure 48
0011
0000
0110
0000
1100
0000
0110
0000
0011
0000
0110
0000
0010
0100
0010
0100
,  // measure 49
0011
0000
1100
0000
,  // measure 50
1001
0000
0000
0000
1000
1000
1000
1000
,  // measure 51
1000
1000
1000
1000
1000
1000
1000
1000
,  // measure 52
1000
0000
0000
0000
0000
0000
1000
0000
0000
0000
0000
0000
1000
0000
0000
0000
0000
0000
1000
0000
0000
0000
0000
0000
0000
0000
0000
0000
0000
0000
0000
0000
0000
0000
1000
0100
0001
0000
0000
0000
0000
0000
0000
0000
0000
0000
0000
0000
;
