#TITLE:MIDNIGHT BLOOD;
#SUBTITLE:;
#ARTIST:NIEN;
#TITLETRANSLIT:;
#SUBTITLETRANSLIT:;
#ARTISTTRANSLIT:;
#CREDIT:;
#BANNER:MIDNIGHT BLOOD.PNG;
#BACKGROUND:MIDNIGHT BLOOD_bg.PNG;
#LYRICSPATH:;
#CDTITLE:NVLM-cdtitle.png;
#MUSIC:MIDNIGHT BLOOD.mp3;
#OFFSET:-12.620;
#SAMPLESTART:79.560;
#SAMPLELENGTH:28.000;
#SELECTABLE:YES;
#BPMS:0.000=147.000;
#STOPS:;
#BGCHANGES:;
// cache tags:
#FIRSTBEAT:3.500;
#LASTBEAT:300.000;
#SONGFILENAME:Songs/mongol/MIDNIGHT BLOOD/MIDNIGHT BLOOD.sm;
#HASMUSIC:1;
#HASBANNER:1;
#MUSICLENGTH:137.926;
// end cache tags

//---------------dance-single - ----------------
#NOTES:
     dance-single:
     :
     Edit:
     16:
     1.000,1.000,1.000,0.102,1.000,953.000,478.000,14.000,0.000,18.000:  // measure 1
0000
0000
0000
0000
0000
0000
0000
0000
0000
0000
0000
0000
0000
0000
0011
0110
,  // measure 2
1100
1010
1001
1010
0000
1010
1001
1010
,  // measure 3
0000
0000
1001
0000
1001
0000
0101
0000
0110
0000
0101
0000
1001
0000
1000
0100
,  // measure 4
1010
1010
1001
1010
0000
1010
1001
1010
,  // measure 5
0110
1010
1001
1010
1001
1010
1001
1010
,  // measure 6
1100
1010
1001
1010
0000
1010
1001
1010
,  // measure 7
0000
0000
1001
0000
1001
0000
0101
0000
0110
0000
0101
0000
1001
0000
1000
0100
,  // measure 8
1010
1010
1001
1010
0000
1010
1001
1010
,  // measure 9
0110
0000
1010
0000
1001
0100
0010
0100
1001
0100
0010
0100
1001
0100
0010
0001
,  // measure 10
1100
0100
0010
0100
0011
0100
0010
0000
0000
0000
1010
0100
1001
0000
1010
0000
,  // measure 11
0000
0000
1001
0000
1001
0000
0101
0000
0110
1000
0101
0010
1001
0010
0110
1100
,  // measure 12
1100
0100
0010
0100
0011
0100
0010
0000
0000
0000
1010
0100
1001
0000
1010
0000
,  // measure 13
0110
0000
1010
0000
1001
0010
0100
1000
1001
0100
0010
0001
1001
0100
0010
0001
,  // measure 14
1100
0100
0010
0100
0011
0100
0010
0000
0000
0000
1010
0100
1001
0000
1010
0000
,  // measure 15
0000
0000
1001
0000
1001
0000
0101
0000
0110
1000
0101
0010
1001
0010
0110
1100
,  // measure 16
1100
0100
0010
0100
0011
0100
0010
0000
0000
0000
1010
0100
1001
0000
1010
0000
,  // measure 17
0110
0000
1010
0000
1001
0010
1110
1000
1001
0100
1010
0001
1001
0100
1010
0101
,  // measure 18
0101
0000
1100
0000
0101
0000
1100
0000
0101
0010
1100
0010
0101
0000
1100
0000
,  // measure 19
1010
0000
1001
0000
1010
0000
1001
0000
1010
0100
1001
0100
1010
0001
0011
0100
,  // measure 20
0110
0000
0011
0000
0110
0000
0011
0000
0110
1000
0011
1000
0110
1000
0011
0100
,  // measure 21
1001
0000
0101
0000
1001
0000
0101
0000
1001
0010
0101
0100
1001
0010
0101
1000
,  // measure 22
0011
1100
0011
1100
0011
1100
0011
1100
0011
1100
0011
1100
0011
1100
0011
1100
,  // measure 23
0110
1001
0110
1001
0110
1001
0110
1001
0110
1001
0110
1001
0110
1001
0110
1001
,  // measure 24
1100
0011
1100
0011
1100
0011
1100
0011
1100
0011
1100
0011
1100
0011
1100
0011
,  // measure 25
1001
0110
1001
0110
1001
0110
1001
0110
1001
0110
1001
0110
1100
1100
1100
1100
,  // measure 26
1122
1133
2020
3131
,  // measure 27
0022
0000
0000
0000
1133
0000
0000
0000
2002
0000
0000
0000
3113
0000
0011
0110
,  // measure 28
1100
0110
0011
0110
1000
0011
0110
1100
,  // measure 29
1001
0110
0011
0110
0011
1001
0110
0110
,  // measure 30
1100
0110
0011
0110
1000
0110
0011
0100
,  // measure 31
0001
0100
1100
0110
1100
0110
0011
0110
,  // measure 32
1100
0110
0011
0110
0100
1100
0110
0011
,  // measure 33
0110
0000
1100
0000
0110
0000
0011
0000
0011
0000
1001
0000
2211
0011
0011
0011
,  // measure 34
3311
0100
0010
1000
0101
0010
0001
0100
0011
1000
0100
0010
0101
0010
0100
0001
,  // measure 35
1010
0001
1000
0100
0011
1000
0010
0001
1010
0100
0001
1000
0011
1000
0001
0010
,  // measure 36
0101
1000
0001
0010
1100
0001
0100
1000
0101
0010
1000
0001
1100
0001
1000
0100
,  // measure 37
1100
0010
0100
0001
1010
0100
1000
0010
1100
0001
0010
0100
1010
0100
0010
1000
,  // measure 38
0011
0100
0010
1000
0101
0010
0001
0100
0011
1000
0100
0010
0101
0010
0100
0001
,  // measure 39
1010
0001
1000
0100
0011
1000
0010
0001
1010
0100
0001
1000
0011
1000
0001
0010
,  // measure 40
0101
1000
0001
0010
1100
0001
0100
1000
0101
0010
1000
0001
1100
0001
1000
0100
,  // measure 41
1100
0010
0100
0001
1010
0100
1000
0010
1100
0001
0010
0100
1010
0100
0010
1000
,  // measure 42
1001
0100
0010
0100
1001
0100
0010
0100
1001
0100
0010
0100
0011
0100
0010
0001
,  // measure 43
0110
0100
0010
0100
1100
0001
1000
0001
0110
1000
0010
1000
0110
0001
0100
0001
,  // measure 44
0011
1000
0100
0001
0011
1000
0100
0001
0011
1000
0100
0001
0011
1000
0100
0001
,  // measure 45
1010
0100
0010
0100
0011
1000
0100
0001
1010
1000
0001
0100
0011
1000
0100
0010
,  // measure 46
1001
0100
0010
0100
1001
0100
0010
0100
1001
0100
0010
0100
0011
0100
0010
0001
,  // measure 47
0110
0100
0010
0100
1100
0001
1000
0001
0110
1000
0010
1000
0110
0001
0100
0001
,  // measure 48
0011
1000
0100
0001
0011
1000
0100
0001
0011
1000
0100
0001
0011
1000
0100
0001
,  // measure 49
1010
0000
0100
0000
0010
0000
0100
0000
0011
0000
1000
0000
0100
0000
0001
0000
0011
0000
1100
0000
0011
0000
1100
0000
0011
1100
0011
1100
0011
1100
0011
1100
,  // measure 50
0011
0100
0010
0100
1001
0100
0010
0100
1001
0100
0010
0100
0011
0100
0010
0001
,  // measure 51
0110
0100
0010
0100
1100
0001
1000
0001
0110
1000
0010
1000
0110
0001
0100
0001
,  // measure 52
0011
1000
0100
0001
0011
1000
0100
0001
0011
1000
0100
0001
0011
1000
0100
0001
,  // measure 53
1010
0100
0010
0100
0011
1000
0100
0001
1010
1000
0001
0100
0011
1000
0100
0010
,  // measure 54
0011
1000
0100
0001
0011
1000
0100
0001
0011
1000
0100
0001
0011
1000
0100
0001
,  // measure 55
1010
0100
0010
0100
0011
1000
0100
0001
0110
1000
0001
0100
0011
1000
0100
0010
,  // measure 56
1001
0100
0010
0100
1001
0100
0010
0100
1001
0100
0010
0100
0011
0100
0010
0001
,  // measure 57
0110
0100
0010
0100
1100
0001
1000
0001
0110
1000
0010
1000
0110
0001
0100
0001
,  // measure 58
1001
0000
0110
0000
1001
0000
0110
0000
1001
0000
0110
0000
1001
0000
0110
0000
0010
0100
0001
1000
0100
0010
0001
0100
0010
1000
0001
0010
0100
0010
0001
1000
,  // measure 59
0110
1010
1001
1010
0000
1010
1001
1010
,  // measure 60
0000
0000
1001
0000
1001
0000
0101
0000
0110
0000
0101
0000
1001
0000
1000
0100
,  // measure 61
1010
1010
1001
1010
0000
1010
1001
1010
,  // measure 62
0110
0000
1010
0000
1001
0010
1110
1000
1001
0010
1110
1000
1001
0010
1110
1000
,  // measure 63
1100
1010
1001
1010
0000
1010
1001
1010
,  // measure 64
0000
0000
1001
0000
1001
0000
0101
0000
0110
0000
0101
0000
1001
0000
1000
0100
,  // measure 65
1010
1010
1001
1010
0000
1010
1001
1010
,  // measure 66
0110
0000
1010
0000
1001
0010
1110
1000
1001
0010
1110
1000
1001
0010
1110
1000
,  // measure 67
1100
0010
0001
0010
1100
0010
0001
0010
1100
0010
0001
0010
1100
0010
0001
0010
,  // measure 68
1001
0010
0100
0001
1010
0100
0001
0010
1100
1000
0010
0001
1100
0010
0001
0001
,  // measure 69
1100
0010
0001
0010
1100
0010
0001
0010
1100
0010
0001
0010
1100
0010
0001
0010
,  // measure 70
1100
0010
1000
0100
1100
0001
1000
0100
1010
1000
0001
0100
0011
1000
0001
0010
,  // measure 71
1100
0010
0001
0010
1100
0010
0001
0010
1100
0010
0001
0010
1100
0010
0001
0010
,  // measure 72
1001
0010
0100
0001
1010
0100
0001
0010
1100
1000
0010
0001
1100
0010
0001
0001
,  // measure 73
1100
0010
0001
0010
1100
0010
0001
0010
1100
0010
0001
0010
1100
0010
0001
0010
,  // measure 74
1001
0000
0110
0000
1001
0000
0110
0000
1001
0000
0110
0000
1001
0000
0110
0000
1001
0110
1001
0110
1001
0110
1001
0110
1001
0110
1001
0110
1001
0110
1001
0110
,  // measure 75
2222
0000
0000
0000
,  // measure 76
3333
0000
0000
0000
;

//---------------dance-single - ----------------
#NOTES:
     dance-single:
     :
     Challenge:
     12:
     0.792,0.897,0.957,0.080,0.435,622.000,132.000,11.000,0.000,0.000:  // measure 1
0000
0000
0000
0000
0000
0000
0000
0000
0000
0000
0000
0000
0000
0000
0010
0100
,  // measure 2
1000
0100
0010
0100
0000
0100
0010
0100
,  // measure 3
0000
0000
0100
0000
0010
0000
1000
0000
0100
0000
0010
0000
1000
0000
1000
0100
,  // measure 4
1000
0100
0010
0100
0000
0100
0010
0100
,  // measure 5
0010
0100
0010
1000
0100
1010
1001
1100
,  // measure 6
1000
0100
0010
0100
0000
0100
0010
0100
,  // measure 7
0000
0000
0100
0000
0010
0000
1000
0000
0100
0000
0010
0000
1000
0000
1000
0100
,  // measure 8
1000
0100
0010
0100
0000
0100
0010
0100
,  // measure 9
0010
0100
0010
1000
0100
1010
1001
1100
,  // measure 10
1000
0100
0010
0100
0000
0100
0010
0100
,  // measure 11
0000
0000
0100
0000
0010
0000
1000
0000
0100
0000
0010
0000
1000
0000
1000
0100
,  // measure 12
1000
0100
0010
0100
0000
0100
0010
0100
,  // measure 13
0010
0100
0010
1000
0100
1010
1001
1100
,  // measure 14
1000
0100
0010
0100
0000
0100
0010
0100
,  // measure 15
0000
0000
0100
0000
0010
0000
1000
0000
0100
0000
0010
0000
1000
0000
1000
0100
,  // measure 16
1000
0100
0010
0100
0000
0100
0010
0100
,  // measure 17
0010
0000
0100
0000
0010
0000
1000
0000
0100
0000
1010
0000
1001
0000
1000
0100
,  // measure 18
0001
0001
0001
0001
,  // measure 19
0010
0010
0010
0010
,  // measure 20
0100
0100
0100
0100
,  // measure 21
1000
1000
1000
1000
,  // measure 22
0001
0010
0001
0010
0001
0010
0001
0010
,  // measure 23
0010
0100
0010
0100
0010
0100
0010
0100
,  // measure 24
0100
1000
0100
1000
0100
1000
0100
1000
,  // measure 25
1000
0000
0001
0000
1000
0000
0001
0000
1000
0000
0001
0000
1000
0100
1000
0100
,  // measure 26
1002
1003
2000
3001
,  // measure 27
0002
0000
0000
0000
1003
0000
0000
0000
2000
0000
0000
0000
3010
0000
0010
0100
,  // measure 28
1000
0100
0010
0100
0000
0001
0010
0100
,  // measure 29
1000
0100
0010
0100
0010
0001
0010
0010
,  // measure 30
1000
0100
0010
0100
0000
0100
0010
0000
,  // measure 31
0000
0000
1000
0100
1000
0100
0010
0100
,  // measure 32
1000
0100
0010
0100
0000
1000
0100
0010
,  // measure 33
0100
0000
1000
0000
0100
0000
0010
0000
0001
0000
1001
0000
0001
1000
0001
1000
,  // measure 34
1001
0001
0001
0001
,  // measure 35
1000
1000
1000
1000
,  // measure 36
0001
0001
0001
0001
,  // measure 37
1000
0000
1000
0000
1000
0000
1000
1000
,  // measure 38
0001
1000
0001
1000
0001
1000
0001
1000
,  // measure 39
0001
1000
0001
1000
0001
1000
0001
1000
,  // measure 40
0010
0100
0010
0100
0010
0100
0010
0100
,  // measure 41
0010
0100
0010
0100
0010
0100
0010
0100
,  // measure 42
1000
0100
0010
0100
1000
0100
0010
0100
1000
0100
0010
0100
0010
0100
0010
0001
,  // measure 43
0010
0100
0010
0100
1000
0001
1000
0001
0010
1000
0010
1000
0100
0001
0100
0001
,  // measure 44
0010
1000
0100
0001
0010
1000
0100
0001
0010
1000
0100
0001
0010
1000
0100
0001
,  // measure 45
1000
0100
0010
0100
0001
1000
0100
0001
0010
1000
0001
0100
0010
1000
0100
0010
,  // measure 46
0001
0100
0010
0100
1000
0100
0010
0100
1000
0100
0010
0100
0010
0100
0010
0001
,  // measure 47
0010
0100
0010
0100
1000
0001
1000
0001
0010
1000
0010
1000
0100
0001
0100
0001
,  // measure 48
0010
1000
0100
0001
0010
1000
0100
0001
0010
1000
0100
0001
0010
1000
0100
0001
,  // measure 49
1000
0100
0010
0100
0001
1000
0100
0001
0010
1000
0001
0100
0010
1000
0100
0010
,  // measure 50
2000
0000
3001
0000
0001
1000
0001
0000
,  // measure 51
0002
0000
1003
0000
1000
0001
1000
0000
,  // measure 52
1000
0100
0010
0100
1000
0100
0010
0100
1000
0100
0010
0100
0010
0100
0010
0001
,  // measure 53
0010
0100
0010
0100
1000
0001
1000
0001
0010
1000
0010
1000
0100
0001
0100
0001
,  // measure 54
0010
1000
0100
0001
0010
1000
0100
0001
0010
1000
0100
0001
0010
1000
0100
0001
,  // measure 55
1000
0100
0010
0100
0001
1000
0100
0001
0010
1000
0001
0100
0010
1000
0100
0010
,  // measure 56
0002
0000
0000
0000
1003
0000
0011
0000
0101
0000
0000
1010
0000
0000
1001
0000
,  // measure 57
0220
0000
0000
0000
0000
0000
0000
0330
,  // measure 58
1000
0100
1000
0100
1000
0100
1000
0100
0010
0001
0010
0001
0010
0001
0010
0001
,  // measure 59
0110
1010
1001
1010
0000
1010
1001
1010
,  // measure 60
0000
0000
1001
0000
1001
0000
0101
0000
0110
0000
0101
0000
1001
0000
1000
0100
,  // measure 61
1010
1010
1001
1010
0000
1010
1001
1010
,  // measure 62
0110
1010
1001
1010
1001
1010
1001
1010
,  // measure 63
1100
1010
1001
1010
0000
1010
1001
1010
,  // measure 64
0000
0000
1001
0000
1001
0000
0101
0000
0110
0000
0101
0000
1001
0000
1000
0100
,  // measure 65
1010
1010
1001
1010
0000
1010
1001
1010
,  // measure 66
0110
1010
1001
1010
1001
1010
1001
1010
,  // measure 67
1100
1010
1001
1010
0000
1010
1001
1010
,  // measure 68
0000
0000
1001
0000
1001
0000
0101
0000
0110
0000
0101
0000
1001
0000
1000
0100
,  // measure 69
1010
1010
1001
1010
0000
1010
1001
1010
,  // measure 70
0110
1001
1001
0101
0110
0101
1001
1100
,  // measure 71
1010
1010
1001
1010
0000
1010
1001
1010
,  // measure 72
0000
0000
1001
0000
1001
0000
0101
0000
0110
0000
0101
0000
1001
0000
1000
0100
,  // measure 73
1010
1010
1001
1010
0000
1010
1001
1010
,  // measure 74
0110
1001
1001
0101
0110
0101
1001
1100
,  // measure 75
2002
0000
0000
0000
,  // measure 76
3003
0000
0000
0000
;

//---------------dance-single - ----------------
#NOTES:
     dance-single:
     :
     Hard:
     12:
     0.917,0.897,1.000,0.065,0.493,644.000,232.000,9.000,0.000,0.000:  // measure 1
0000
0000
0000
0000
0000
0000
0000
0000
0000
0000
0000
0000
0000
0000
0010
0100
,  // measure 2
1100
1010
1001
1010
0000
1010
1001
1010
,  // measure 3
0000
0000
1001
0000
1001
0000
0101
0000
0110
0000
0101
0000
1001
0000
1000
0100
,  // measure 4
1010
1010
1001
1010
0000
1010
1001
1010
,  // measure 5
0110
1010
1001
1010
1001
1010
1001
1010
,  // measure 6
1100
1010
1001
1010
0000
1010
1001
1010
,  // measure 7
0000
0000
1001
0000
1001
0000
0101
0000
0110
0000
0101
0000
1001
0000
1000
0100
,  // measure 8
1010
1010
1001
1010
0000
1010
1001
1010
,  // measure 9
0110
1010
1001
1010
1001
1010
1001
1010
,  // measure 10
1100
1010
1001
1010
0000
1010
1001
1010
,  // measure 11
0000
0000
1001
0000
1001
0000
0101
0000
0110
0000
0101
0000
1001
0000
1000
0100
,  // measure 12
1010
1010
1001
1010
0000
1010
1001
1010
,  // measure 13
0110
1010
1001
1010
1001
1010
1001
1010
,  // measure 14
1100
1010
1001
1010
0000
1010
1001
1010
,  // measure 15
0000
0000
1001
0000
1001
0000
0101
0000
0110
0000
0101
0000
1001
0000
1000
0100
,  // measure 16
1010
1010
1001
1010
0000
1010
1001
1010
,  // measure 17
0110
0000
1010
0000
1001
0000
1010
0000
1001
0000
1010
0000
1001
0000
1000
0100
,  // measure 18
0001
0001
0001
0001
,  // measure 19
0010
0010
0010
0010
,  // measure 20
0100
0100
0100
0100
,  // measure 21
1000
1000
1000
1000
,  // measure 22
0001
0010
0001
0010
0001
0010
0001
0010
,  // measure 23
0010
0100
0010
0100
0010
0100
0010
0100
,  // measure 24
0100
1000
0100
1000
0100
1000
0100
1000
,  // measure 25
1000
0000
0001
0000
1000
0000
0001
0000
1000
0000
0001
0000
1000
0100
1000
0100
,  // measure 26
1002
1003
2000
3001
,  // measure 27
0002
0000
0000
0000
1003
0000
0000
0000
2000
0000
0000
0000
3010
0000
0010
0100
,  // measure 28
1000
0100
0010
0100
0000
0001
0010
0100
,  // measure 29
1000
0100
0010
0100
0010
0001
0010
0010
,  // measure 30
1000
0100
0010
0100
0000
0100
0010
0000
,  // measure 31
0000
0000
1000
0100
1000
0100
0010
0100
,  // measure 32
1000
0100
0010
0100
0000
1000
0100
0010
,  // measure 33
0100
0000
1000
0000
0100
0000
0010
0000
0001
0000
1001
0000
0001
1000
0001
1000
,  // measure 34
1001
0001
0001
0001
,  // measure 35
1000
1000
1000
1000
,  // measure 36
0001
0001
0001
0001
,  // measure 37
1000
0000
1000
0000
1000
0000
1000
1000
,  // measure 38
0001
1000
0001
1000
0001
1000
0001
1000
,  // measure 39
0001
1000
0001
1000
0001
1000
0001
1000
,  // measure 40
0010
0100
0010
0100
0010
0100
0010
0100
,  // measure 41
0010
0100
0010
0100
0010
0100
0010
0100
,  // measure 42
1000
0100
0010
0100
1000
0100
0010
0100
1000
0100
0010
0100
0010
0100
0010
0001
,  // measure 43
0010
0100
0010
0100
1000
0001
1000
0001
0010
1000
0010
1000
0100
0001
0100
0001
,  // measure 44
0010
1000
0100
0001
0010
1000
0100
0001
0010
1000
0100
0001
0010
1000
0100
0001
,  // measure 45
1000
0100
0010
0100
0001
1000
0100
0001
0010
1000
0001
0100
0010
1000
0100
0010
,  // measure 46
0001
0100
0010
0100
1000
0100
0010
0100
1000
0100
0010
0100
0010
0100
0010
0001
,  // measure 47
0010
0100
0010
0100
1000
0001
1000
0001
0010
1000
0010
1000
0100
0001
0100
0001
,  // measure 48
0010
1000
0100
0001
0010
1000
0100
0001
0010
1000
0100
0001
0010
1000
0100
0001
,  // measure 49
1000
0100
0010
0100
0001
1000
0100
0001
0010
1000
0001
0100
0010
1000
0100
0010
,  // measure 50
1000
0100
0010
0100
0001
1000
0100
0001
0010
1000
0001
0100
0010
1000
0100
0010
,  // measure 51
0001
0100
0010
0100
1000
0100
0010
0100
1000
0100
0010
0100
0010
0100
0010
0001
,  // measure 52
0010
0100
0010
0100
1000
0100
0010
0100
1000
0100
0010
0100
0010
0100
0010
0001
,  // measure 53
0010
0100
0010
0100
1000
0001
1000
0001
0010
1000
0010
1000
0100
0001
0100
0001
,  // measure 54
0010
1000
0100
0001
0010
1000
0100
0001
0010
1000
0100
0001
0010
1000
0100
0001
,  // measure 55
1000
0100
0010
0100
0001
1000
0100
0001
0010
1000
0001
0100
0010
1000
0100
0010
,  // measure 56
0002
0000
0000
0000
1003
0000
0011
0000
0101
0000
0000
1010
0000
0000
1001
0000
,  // measure 57
0220
0000
0000
0000
0000
0000
0000
0330
,  // measure 58
1000
0100
1000
0100
1000
0100
1000
0100
0010
0001
0010
0001
0010
0001
0010
0001
,  // measure 59
0110
1010
1001
1010
0000
1010
1001
1010
,  // measure 60
0000
0000
1001
0000
1001
0000
0101
0000
0110
0000
0101
0000
1001
0000
1000
0100
,  // measure 61
1010
1010
1001
1010
0000
1010
1001
1010
,  // measure 62
0110
1010
1001
1010
1001
1010
1001
1010
,  // measure 63
1100
1010
1001
1010
0000
1010
1001
1010
,  // measure 64
0000
0000
1001
0000
1001
0000
0101
0000
0110
0000
0101
0000
1001
0000
1000
0100
,  // measure 65
1010
1010
1001
1010
0000
1010
1001
1010
,  // measure 66
0110
1010
1001
1010
1001
1010
1001
1010
,  // measure 67
1100
1010
1001
1010
0000
1010
1001
1010
,  // measure 68
0000
0000
1001
0000
1001
0000
0101
0000
0110
0000
0101
0000
1001
0000
1000
0100
,  // measure 69
1010
1010
1001
1010
0000
1010
1001
1010
,  // measure 70
0110
1001
1001
0101
0110
0101
1001
1100
,  // measure 71
1010
1010
1001
1010
0000
1010
1001
1010
,  // measure 72
0000
0000
1001
0000
1001
0000
0101
0000
0110
0000
0101
0000
1001
0000
1000
0100
,  // measure 73
1010
1010
1001
1010
0000
1010
1001
1010
,  // measure 74
0110
1001
1001
0101
0110
0101
1001
1100
,  // measure 75
2002
0000
0000
0000
,  // measure 76
3003
0000
0000
0000
;

//---------------dance-single - ----------------
#NOTES:
     dance-single:
     :
     Medium:
     8:
     0.546,0.544,0.102,0.087,0.073,501.000,14.000,12.000,0.000,0.000:  // measure 1
0000
0000
0000
0000
0000
0000
0000
0000
0000
0000
0000
0000
0000
0000
0010
0100
,  // measure 2
1000
0100
0010
0100
0000
0100
0010
0100
,  // measure 3
0000
0000
0100
0000
0010
0000
1000
0000
0100
0000
0010
0000
1000
0000
1000
0100
,  // measure 4
1000
0100
0010
0100
0000
0100
0010
0100
,  // measure 5
0010
0100
0010
1000
0100
0010
0001
0100
,  // measure 6
1000
0100
0010
0100
0000
0100
0010
0100
,  // measure 7
0000
0000
0100
0000
0010
0000
1000
0000
0100
0000
0010
0000
1000
0000
1000
0100
,  // measure 8
1000
0100
0010
0100
0000
0100
0010
0100
,  // measure 9
0010
0100
0010
1000
0100
0010
0001
0100
,  // measure 10
1000
0100
0010
0100
0000
0100
0010
0100
,  // measure 11
0000
0000
0100
0000
0010
0000
1000
0000
0100
0000
0010
0000
1000
0000
1000
0100
,  // measure 12
1000
0100
0010
0100
0000
0100
0010
0100
,  // measure 13
0010
0100
0010
1000
0100
0010
0001
0100
,  // measure 14
1000
0100
0010
0100
0000
0100
0010
0100
,  // measure 15
0000
0000
0100
0000
0010
0000
1000
0000
0100
0000
0010
0000
1000
0000
1000
0100
,  // measure 16
1000
0100
0010
0100
0000
0100
0010
0100
,  // measure 17
0010
0000
0100
0000
0010
0000
1000
0000
0100
0000
0010
0000
0001
0000
1000
0100
,  // measure 18
0001
0001
0001
0001
,  // measure 19
0010
0010
0010
0010
,  // measure 20
0100
0100
0100
0100
,  // measure 21
1000
1000
1000
1000
,  // measure 22
0001
0000
0001
0000
0001
0010
0001
0000
,  // measure 23
0010
0000
0010
0000
0010
0100
0010
0000
,  // measure 24
0100
0000
0100
0000
0100
1000
0100
0000
,  // measure 25
1000
0000
1000
0001
1000
0001
2000
0000
,  // measure 26
3002
1003
2000
3001
,  // measure 27
0002
0000
0000
0000
1003
0000
0000
0000
2000
0000
0000
0000
3010
0000
0010
0100
,  // measure 28
1000
0100
0010
0100
0000
0001
0010
0100
,  // measure 29
1000
0100
0010
0100
0010
0001
0010
0010
,  // measure 30
1000
0100
0010
0100
0000
0100
0010
0000
,  // measure 31
0000
0000
1000
0100
1000
0100
0010
0100
,  // measure 32
1000
0100
0010
0100
0000
1000
0100
0010
,  // measure 33
0100
0000
1000
0000
0100
0000
0010
0000
0001
0000
1001
0000
0001
1000
0001
1000
,  // measure 34
0001
0001
0001
0001
,  // measure 35
1000
1000
1000
1000
,  // measure 36
0001
0001
0001
0001
,  // measure 37
1000
0000
1000
0000
1000
0000
1000
1000
,  // measure 38
0001
1000
0001
0000
0001
1000
0001
0000
,  // measure 39
0001
1000
0001
0000
0001
1000
0001
0000
,  // measure 40
0010
0100
0010
0000
0010
0100
0010
0000
,  // measure 41
0010
0100
0010
0000
0010
0100
0010
0000
,  // measure 42
1000
0100
0010
0100
1000
0100
0010
0001
,  // measure 43
0100
0010
1000
0001
0100
0010
1000
0001
,  // measure 44
0100
0010
1000
0100
0001
0010
0100
1000
,  // measure 45
0100
0010
0001
0010
0100
0001
0100
1000
,  // measure 46
0100
0010
0100
1000
0100
0010
0001
1000
,  // measure 47
0100
1000
0010
0100
0001
1000
0100
0010
,  // measure 48
0001
0010
0001
0100
0010
1000
0100
0001
,  // measure 49
0010
1000
0100
0001
0010
0100
1000
0010
,  // measure 50
2000
0000
3001
0000
0001
1000
0001
0000
,  // measure 51
0002
0000
1003
0000
1000
0001
1000
0000
,  // measure 52
1000
0001
0100
0010
0100
0010
0001
1000
,  // measure 53
0001
0010
1000
0100
1000
0001
0100
0010
,  // measure 54
1000
0100
0001
1000
0001
0010
1000
0001
,  // measure 55
1000
0001
0010
1000
0010
0001
1000
0001
,  // measure 56
0002
0000
0000
0000
1003
0000
0010
0000
0100
0000
0000
1000
0000
0000
0001
0000
,  // measure 57
0020
0000
0000
0000
0000
0000
0000
0030
,  // measure 58
1000
0100
1000
0100
1000
0100
1000
0100
1000
0100
1000
0100
2000
0000
0000
0000
,  // measure 59
3000
0100
0010
0100
0000
0100
0010
0100
,  // measure 60
0000
0000
0100
0000
0010
0000
1000
0000
0100
0000
0010
0000
1000
0000
1000
0100
,  // measure 61
1000
0100
0010
0100
0000
0100
0010
0100
,  // measure 62
0010
0100
0010
1000
0100
1010
1001
1100
,  // measure 63
1000
0100
0010
0100
0000
0100
0010
0100
,  // measure 64
0000
0000
0100
0000
0010
0000
1000
0000
0100
0000
0010
0000
1000
0000
1000
0100
,  // measure 65
1000
0100
0010
0100
0000
0100
0010
0100
,  // measure 66
0010
0100
0010
1000
0100
1010
1001
1100
,  // measure 67
1000
0100
0010
0100
0000
0100
0010
0100
,  // measure 68
0000
0000
0100
0000
0010
0000
1000
0000
0100
0000
0010
0000
1000
0000
1000
0100
,  // measure 69
1000
0100
0010
0100
0000
0100
0010
0100
,  // measure 70
0010
0100
0010
1000
0100
1010
1001
1100
,  // measure 71
1000
0100
0010
0100
0000
0100
0010
0100
,  // measure 72
0000
0000
0100
0000
0010
0000
1000
0000
0100
0000
0010
0000
1000
0000
1000
0100
,  // measure 73
1000
0100
0010
0100
0000
0100
0010
0100
,  // measure 74
0010
0100
0010
1000
0100
1010
1001
1100
,  // measure 75
2002
0000
0000
0000
,  // measure 76
3003
0000
0000
0000
;

//---------------dance-single - ----------------
#NOTES:
     dance-single:
     :
     Easy:
     2:
     0.197,0.245,0.000,0.022,0.004,187.000,0.000,3.000,0.000,0.000:  // measure 1
0000
0000
0000
0000
,  // measure 2
1000
0000
0100
0000
,  // measure 3
0010
0000
0100
0000
,  // measure 4
0010
0000
0100
0000
,  // measure 5
0010
0000
0100
0000
,  // measure 6
0010
0000
0100
0000
,  // measure 7
0010
0000
0100
0000
,  // measure 8
0010
0000
0100
0000
,  // measure 9
0010
0000
0100
0000
,  // measure 10
0010
0000
0100
0000
,  // measure 11
0010
0000
0100
0000
,  // measure 12
0010
0000
0100
0000
,  // measure 13
0010
0000
0100
0000
,  // measure 14
0010
0000
0100
0000
,  // measure 15
0010
0000
0100
0000
,  // measure 16
0010
0000
0100
0000
,  // measure 17
0010
0000
0100
0000
,  // measure 18
0001
0000
0001
0000
,  // measure 19
0010
0000
0010
0000
,  // measure 20
0100
0000
0100
0000
,  // measure 21
1000
0000
1000
0000
,  // measure 22
0001
0000
0001
0001
,  // measure 23
0010
0000
0010
0010
,  // measure 24
0100
0000
0100
0100
,  // measure 25
0000
1000
1000
0000
,  // measure 26
1000
0000
0001
0000
,  // measure 27
0001
0000
1000
0000
,  // measure 28
0010
0000
0100
0000
,  // measure 29
0010
0000
0100
1000
,  // measure 30
0010
0000
0100
0000
,  // measure 31
0010
0000
0100
1000
,  // measure 32
0010
0000
1000
0100
,  // measure 33
0010
0000
1000
0100
,  // measure 34
0001
0000
0001
0000
,  // measure 35
1000
0000
1000
0000
,  // measure 36
0001
0000
0001
0000
,  // measure 37
1000
0000
1000
0000
,  // measure 38
0001
0000
1000
0000
,  // measure 39
0001
0000
1000
0000
,  // measure 40
0010
0000
0100
0000
,  // measure 41
0010
0000
0100
0000
,  // measure 42
0010
0001
0100
1000
,  // measure 43
0100
0010
0001
0010
,  // measure 44
0010
0100
1000
0010
,  // measure 45
0001
0010
0100
0010
,  // measure 46
0100
0010
0001
0010
,  // measure 47
0100
1000
0001
0010
,  // measure 48
1000
0010
0100
0001
,  // measure 49
0100
0010
0100
1000
,  // measure 50
0010
0001
0000
0001
,  // measure 51
0001
1000
0000
1000
,  // measure 52
1000
0010
0100
0010
,  // measure 53
0100
1000
0001
1000
,  // measure 54
0001
0010
0100
0010
,  // measure 55
0100
1000
0100
0001
,  // measure 56
0100
0000
0000
0000
1000
0000
0000
0000
0100
0000
0000
1000
0000
0000
0000
0000
,  // measure 57
0020
0000
0000
0000
,  // measure 58
2030
0000
0000
0000
0000
0000
0000
3000
,  // measure 59
0010
0000
0100
0000
,  // measure 60
0010
0000
0100
1000
,  // measure 61
0010
0000
0100
0000
,  // measure 62
0010
0000
0100
1000
,  // measure 63
0010
0000
0100
0000
,  // measure 64
0010
0000
0100
1000
,  // measure 65
0010
0000
0100
0000
,  // measure 66
0010
0000
0100
1000
,  // measure 67
0010
0000
0100
0000
,  // measure 68
0010
0000
0100
1000
,  // measure 69
0010
0000
0100
0000
,  // measure 70
0010
0000
0100
1000
,  // measure 71
0010
0000
0100
0000
,  // measure 72
0010
0000
0100
1000
,  // measure 73
0010
0000
0100
0000
,  // measure 74
0010
0000
0100
0000
,  // measure 75
2000
0000
0000
0000
,  // measure 76
3000
0000
0000
0000
;

//---------------dance-single - ----------------
#NOTES:
     dance-single:
     :
     Beginner:
     1:
     0.119,0.190,0.000,0.022,0.004,112.000,0.000,3.000,0.000,0.000:  // measure 1
0000
0000
0000
0000
,  // measure 2
0000
0000
0000
0000
,  // measure 3
0000
0000
0000
0000
,  // measure 4
0000
0000
0000
0000
,  // measure 5
0000
0000
0000
0000
,  // measure 6
0000
0000
0000
0000
,  // measure 7
0000
0000
0000
0000
,  // measure 8
0000
0000
0000
0000
,  // measure 9
0000
0000
0000
0000
,  // measure 10
0000
0000
0000
0000
,  // measure 11
0000
0000
0000
0000
,  // measure 12
0000
0000
0000
0000
,  // measure 13
0000
0000
0000
0000
,  // measure 14
0000
0000
0000
0000
,  // measure 15
0000
0000
0000
0000
,  // measure 16
0000
0000
0000
0000
,  // measure 17
0000
0000
0000
0000
,  // measure 18
0001
0000
0000
0000
,  // measure 19
0010
0000
0000
0000
,  // measure 20
0100
0000
0000
0000
,  // measure 21
1000
0000
0000
0000
,  // measure 22
0001
0000
0010
0000
,  // measure 23
0100
0000
1000
0000
,  // measure 24
1000
0000
0100
0000
,  // measure 25
0010
0000
0001
0000
,  // measure 26
1000
0000
0000
0000
,  // measure 27
0001
0000
0000
0000
,  // measure 28
0001
0000
0010
0000
,  // measure 29
0100
0000
1000
0000
,  // measure 30
1000
0000
0100
0000
,  // measure 31
0010
0000
0001
0000
,  // measure 32
0010
0000
0000
0000
,  // measure 33
0100
0000
1000
0000
,  // measure 34
0010
0000
0000
0000
,  // measure 35
1000
0000
0000
0000
,  // measure 36
0001
0000
0000
0000
,  // measure 37
1000
0000
0000
0000
,  // measure 38
0001
0000
0000
0000
,  // measure 39
0010
0000
0000
0000
,  // measure 40
0100
0000
0000
0000
,  // measure 41
1000
0000
0000
0000
,  // measure 42
0001
0000
0100
0000
,  // measure 43
0010
0000
0100
0000
,  // measure 44
0010
0000
0100
0000
,  // measure 45
1000
0100
0010
0001
,  // measure 46
0010
0000
0100
0000
,  // measure 47
1000
0100
0010
0100
,  // measure 48
0010
0000
0100
0000
,  // measure 49
1000
0100
0010
0001
,  // measure 50
0010
0001
0000
0000
,  // measure 51
0001
0000
0000
0000
,  // measure 52
1000
0000
0000
0000
,  // measure 53
1000
0100
0010
0100
,  // measure 54
1000
0000
0001
0000
,  // measure 55
1000
0000
0010
0000
,  // measure 56
0010
0000
0000
0000
0000
0000
0000
0000
0100
0000
0000
1000
0000
0000
0000
0000
,  // measure 57
0020
0000
0000
0000
,  // measure 58
2030
0000
0000
0000
0000
0000
0000
3000
,  // measure 59
0010
0000
0100
0000
,  // measure 60
0010
0000
0100
1000
,  // measure 61
0010
0000
0100
0000
,  // measure 62
0010
0000
0100
1000
,  // measure 63
0010
0000
0100
0000
,  // measure 64
0010
0000
0100
1000
,  // measure 65
0010
0000
0100
0000
,  // measure 66
0010
0000
0100
1000
,  // measure 67
0010
0000
0100
0000
,  // measure 68
0010
0000
0100
1000
,  // measure 69
0010
0000
0100
0000
,  // measure 70
0010
0000
0100
1000
,  // measure 71
0010
0000
0100
0000
,  // measure 72
0010
0000
0100
1000
,  // measure 73
0010
0000
0100
0000
,  // measure 74
0010
0000
0100
0000
,  // measure 75
2000
0000
0000
0000
,  // measure 76
3000
0000
0000
0000
;
