#TITLE:The Man With The Machine Gun;
#SUBTITLE:FFVIII;
#ARTIST:植松伸夫;
#TITLETRANSLIT:;
#SUBTITLETRANSLIT:;
#ARTISTTRANSLIT:Nobuo Uematsu;
#CREDIT:;
#BANNER:The Man With The Machine Gun-bn.jpg;
#BACKGROUND:The Man With The Machine Gun-bg.jpg;
#LYRICSPATH:;
#CDTITLE:;
#MUSIC:The Man With The Machine Gun.mp3;
#OFFSET:0.000;
#SAMPLESTART:37.707;
#SAMPLELENGTH:12.000;
#SELECTABLE:YES;
#BPMS:0.000=140.000;
#STOPS:;
#BGCHANGES:;
// cache tags:
#FIRSTBEAT:8.000;
#LASTBEAT:186.000;
#SONGFILENAME:Songs/mike songs/The Man With The Machine Gun/The Man With The Machine Gun.sm;
#HASMUSIC:1;
#HASBANNER:1;
#MUSICLENGTH:82.163;
// end cache tags

//---------------dance-single - ----------------
#NOTES:
     dance-single:
     :
     Hard:
     9:
     0.694,0.644,0.414,0.450,0.560,328.000,34.000,37.000,0.000,0.000:
0000
0000
0000
0000
,
0000
0000
0000
0000
,
1000
0000
0100
0000
1000
0000
0001
0010
0000
0001
0000
0010
0001
0000
1000
0000
,
0010
0000
0100
0000
0001
0000
1000
0100
0000
1000
0000
0100
1000
0000
0010
0000
,
0100
0000
1000
0000
0100
0000
0001
1000
0000
0100
0000
0010
0001
0000
1000
0000
,
0001
0000
0010
0000
1000
0000
0010
0100
0000
1000
0000
0010
0100
0000
0001
0000
,
2000
0000
0000
0000
0100
0000
0000
0000
3001
0000
0000
0000
1001
0000
0001
0100
,
0020
0000
0000
0000
0001
0000
0000
0000
0130
0000
0000
0000
1010
0000
1000
0001
,
0200
0000
0000
0000
1000
0000
0000
0000
0301
0000
0000
0000
1010
0000
0010
0100
,
0001
0000
0010
0000
0100
0000
1000
0100
0000
1000
0000
0010
0100
0000
0001
0010
,
0002
0000
1000
0000
0103
0000
0001
0100
0000
0001
0000
1000
0100
0000
1000
0010
,
0200
0000
0001
0000
0310
0000
1000
0010
0000
0100
0000
0001
1000
0000
0100
0010
,
0002
0000
1000
0000
0013
0000
0001
0010
0000
0100
0000
1000
0001
0000
0100
0010
,
2000
0000
0100
0000
3001
0000
1000
0010
0000
0100
0000
0001
0010
0000
0001
1000
,
0100
0000
1000
0000
1002
0000
0000
0000
0103
0000
0000
0010
1000
0000
0001
0010
,
0100
0000
1000
0000
1020
0000
0000
0000
0130
0000
0000
0010
1000
0000
0001
1000
,
0100
0000
0010
0000
0012
0000
0000
0000
0103
0000
0000
0001
1000
0000
0100
0010
,
0100
0000
1000
0000
1002
0000
0000
0000
0103
0000
0000
0010
0100
0000
0001
0010
,
0200
0000
0000
2300
0000
0000
3001
0000
0200
0000
0000
0320
0000
0000
0031
0000
,
2000
0000
0000
3200
0000
0000
0310
0000
1000
0000
0001
0000
0010
0000
0100
0000
,
2000
0000
0010
0000
3010
0000
1000
0010
0000
1010
0000
0010
1000
0000
0000
0000
,
0002
0000
0100
0000
0103
0000
0001
0100
0000
0101
0000
0001
0100
0000
0000
0000
,
0010
0000
1000
0000
0100
0000
0010
0001
0000
1001
0000
1000
0100
0000
1000
0010
,
0100
0000
0001
0000
0010
0000
0100
1000
0000
1010
0000
0010
0100
0000
0001
1000
,
0100
0000
0010
0000
0001
0000
1000
0010
0000
0110
0000
0100
0001
0000
1000
0100
,
1000
0000
0010
0000
0100
0000
0001
0010
0000
1010
0000
1000
0010
0000
0100
1000
,
0002
0000
0100
0000
0103
0000
0001
2000
0000
0100
0000
3100
0010
0000
0000
0000
,
0001
0100
0010
1000
,
0200
0000
0010
0000
0310
0000
0001
2000
0000
0001
0000
3001
1000
0000
0000
0000
,
0010
0000
0100
0000
0001
0000
0010
0100
,
2100
0001
0100
3001
,
2100
0000
0000
0000
3001
0000
0000
0000
0102
0000
0000
0000
1003
0000
0001
1000
,
0001
0210
0010
0320
,
0130
0000
0210
0000
0310
0000
0100
0010
,
0012
1000
0010
1003
,
2010
0000
0000
0000
3001
0000
0000
0000
2010
0000
0000
0000
3001
0000
1000
0010
,
0100
0120
0230
0010
,
0310
0000
0000
0000
0210
0000
0000
0000
0320
0000
0000
0000
0130
0000
0001
0010
,
0100
0000
0000
1100
0000
0000
0010
0000
0001
0000
0000
0110
0000
0000
1000
0000
,
0001
0000
0000
0101
0000
0000
0010
0000
1000
0000
0000
0001
0000
0000
0010
0000
,
0100
0000
1000
0000
0100
0010
0100
0000
1000
0000
0001
0000
1001
0000
0000
0000
,
0100
0000
0010
0000
1000
0010
1000
0000
0010
0000
0100
0000
0101
0000
0001
1000
,
0100
0000
0000
0011
0000
0000
1000
0000
0010
0000
0000
0101
0000
0000
0010
0000
,
0100
0000
0000
1001
0000
0000
0010
0000
0100
0000
0000
0011
0000
0000
1000
0000
,
0010
0000
0100
0000
0001
0100
0000
0001
0100
0000
0010
0000
1010
0000
0000
0000
,
1000
0000
0001
0000
0010
0100
0000
0010
0100
0000
1000
0000
2010
0000
0000
0000
,
3001
0000
0000
0000
;

//---------------dance-single - ----------------
#NOTES:
     dance-single:
     :
     Easy:
     3:
     0.216,0.283,0.110,0.170,0.000,101.000,9.000,14.000,0.000,0.000:
0000
0000
0000
0000
,
0000
0000
0000
0000
,
1000
0000
0100
0000
,
1000
0000
0002
0010
,
0013
0000
0001
0000
,
1000
0000
0001
0100
,
0100
0000
0000
0010
,
1000
0000
0000
0100
,
0010
0000
0000
0001
,
1000
0000
0000
0010
,
2000
0000
3001
0000
,
0002
0000
1003
0000
,
0002
0100
0103
0000
,
0001
1000
0001
0000
,
1000
0000
0000
0010
,
1001
0000
0000
0100
,
1001
0000
0000
1000
,
0110
0000
0000
0000
,
0001
0010
0001
0000
,
1000
0000
0100
0100
,
0010
0000
0001
0000
,
0100
0000
0010
0010
,
0010
0000
0000
2000
,
3001
0000
0000
0200
,
0301
0000
0000
0020
,
1030
0000
0000
0010
,
0001
0001
1000
0001
,
0001
0000
1000
0000
,
0001
0100
0001
0001
,
0100
0000
0001
0000
,
2000
0000
0010
3010
,
1000
0000
0001
0000
,
0020
0000
0001
0031
,
0010
0000
0100
0000
,
1001
0000
0000
0010
,
0001
0000
1000
0001
,
1000
0000
0001
0000
,
0101
0000
0000
0000
,
2000
3000
0001
1000
,
0002
0003
1000
0001
,
1001
0000
0000
0000
,
0110
0000
0000
0000
,
0020
0030
0100
0010
,
0200
0300
0010
0100
,
0110
0000
0000
0000
,
1001
0000
0000
0000
,
2000
0000
3000
0000
;

//---------------dance-single - ----------------
#NOTES:
     dance-single:
     :
     Medium:
     6:
     0.421,0.420,0.438,0.146,0.000,194.000,36.000,12.000,0.000,0.000:
0000
0000
0000
0000
,
0000
0000
0000
0000
,
0010
0100
1000
0000
1010
0000
1001
0000
,
0100
0001
0010
0000
0011
0000
1001
0000
,
0100
1000
0010
0000
1010
0000
0110
0000
,
0001
1000
0100
0000
0110
0000
1100
0000
,
0010
0000
0001
0000
1001
0000
1000
0100
,
0010
0000
0001
0000
0101
0000
0001
1000
,
0010
0000
0100
0000
1001
0000
0010
0100
,
1000
0000
0001
0000
1010
0000
0100
0001
,
0100
0000
0010
0000
1000
0000
0100
0010
,
0001
0000
1000
0000
0010
0000
1000
0001
,
0100
0000
0001
0000
0010
0000
0100
1000
,
0001
0100
2002
3003
,
0002
0000
0000
0000
0013
0000
0001
1000
,
0200
0000
0000
0000
1300
0000
0010
1000
,
0200
0000
0000
0000
0310
0000
0001
1000
,
0020
0000
0000
0000
0130
0000
0001
1000
,
0001
0000
0000
0001
1000
0000
0000
1000
,
0100
0000
0000
0010
0001
1000
0001
0000
,
1100
0000
0000
0000
0010
0001
0100
0000
,
1001
0000
0000
0000
0010
1000
0100
0000
,
0010
0000
0011
0000
0101
0000
0001
0100
,
0010
0000
1010
0000
1100
0000
1000
0010
,
0100
0000
0101
0000
1001
0000
0001
0010
,
0100
0000
1100
0000
1001
0000
1000
0010
,
0100
0010
1000
1100
,
0010
0001
0100
0101
,
0010
1000
0100
0110
,
0001
0100
0010
0110
,
0200
0001
0001
0010
,
0301
0000
0101
0000
1001
0000
1000
0100
,
1000
1001
0010
0010
,
1001
0100
1000
0010
,
0200
0010
0010
1000
,
0001
0000
0010
0000
0310
0000
1000
0001
,
0010
2002
0000
3003
,
0010
0000
1100
0000
0000
0000
0001
0100
,
0001
0000
0000
0001
0010
0000
0000
0010
,
0100
0000
1000
0000
0010
0000
0100
0001
,
0100
0010
0010
1000
,
0100
0000
0010
0000
0010
0000
0001
1000
,
0001
0000
0000
1000
0010
0000
0000
0100
,
0001
0010
0100
1000
,
0020
1000
0130
0110
,
0200
0001
0310
0110
,
1001
0000
0000
0000
;
