#TITLE:Maids In Hanaukyo;
#SUBTITLE:- Hanaukyo Maid Tai No Uta;
#ARTIST:Tanaka/Kaneda/Arishima/Hiramatsu;
#TITLETRANSLIT:;
#SUBTITLETRANSLIT:;
#ARTISTTRANSLIT:;
#CREDIT:EvilNaokiIIDX;
#BANNER:hanaukyo-bn.png;
#BACKGROUND:hanaukyo-bg.png;
#LYRICSPATH:;
#CDTITLE:;
#MUSIC:hanaukyo.mp3;
#OFFSET:-8.440;
#SAMPLESTART:66.980;
#SAMPLELENGTH:12.000;
#SELECTABLE:YES;
#BPMS:0.000=112.000;
#STOPS:;
#BGCHANGES:1.250=hanaukyo.avi=1.000=0=0=1,
150.500=hanaukyo-bg.png=1.000=0=0=1,
99999=-nosongbg-=1.000=0=0=0 // don't automatically add -songbackground-
;
// cache tags:
#FIRSTBEAT:1.500;
#LASTBEAT:150.500;
#SONGFILENAME:Songs/Anime Songs/hanaukyo/hanaukyo.sm;
#HASMUSIC:1;
#HASBANNER:1;
#MUSICLENGTH:89.789;
// end cache tags

//---------------dance-single - BASIC----------------
#NOTES:
     dance-single:
     BASIC:
     Easy:
     3:
     0.213,0.209,0.134,0.067,0.000,116.000,12.000,6.000,0.000,0.000:

0000
0000
0000
0110
0000
0000
0000
1001
,
0000
0010
0000
1000
0000
0010
0000
1000
,
0000
0100
0000
0010
0000
0001
0000
0010
,
0000
0001
0000
1000
0000
0100
0000
1100
,
0000
0101
0000
0000
0000
0100
0000
0100
,
0000
0200
0000
0000
0000
0000
0000
0000
,
0300
0000
0000
0000
,
0000
0100
0000
0010
0000
0001
0000
1000
,
0000
0100
0000
0010
0000
0001
0000
1000
,
0000
0100
0000
0010
0000
0001
0000
0010
,
0000
1000
0000
1000
0000
0100
0000
0010
,
0000
0001
0000
0001
0000
0010
0000
1000
,
0000
0100
0000
0010
0000
0001
0000
0010
,
0000
0001
0000
0000
0000
0010
0000
1000
,
0000
0220
0000
0000
0000
0000
0000
0000
,
0000
0000
0000
0000
0000
0000
0000
0330
,
0000
1000
0000
0100
0000
0001
0000
0100
,
0000
1100
0000
0000
0000
0100
0000
0010
,
0000
0001
0000
0100
0000
0010
0000
1000
,
0000
0010
0000
0000
0000
1000
0000
0010
,
0000
1000
0000
0001
0000
0010
0000
0001
,
0000
1000
0000
0010
0000
1000
0000
0001
,
0000
1000
0000
0001
0000
1000
0000
0001
,
0000
0100
0000
0100
0000
0110
0000
0000
,
0000
1000
0000
1000
0000
0001
0000
0001
,
0000
1000
0000
1000
0000
0100
0000
0010
,
0000
0002
0000
0000
0000
0000
0000
0000
,
0000
0003
0000
1000
0000
0001
0000
0010
,
0000
1001
0000
0100
0000
0010
0000
0100
,
0000
1000
0000
0001
0000
1000
0000
0010
,
0000
0000
0000
0010
0000
0020
0000
0000
,
0030
0000
0000
0100
0000
0100
0000
0010
,
0000
1001
0000
0100
0000
0010
0000
1000
,
0000
0010
0000
0100
0000
0001
0000
0100
,
0000
1000
0000
0100
0000
1001
0000
0000
,
0000
0100
0000
0101
0000
0100
0000
1100
,
0000
0200
0000
0000
0000
0000
0000
0000
,
0000
0000
0000
0000
0000
0000
0000
0000
0000
0300
0000
0000
0000
0000
0000
0000;

//---------------dance-single - ANOTHER----------------
#NOTES:
     dance-single:
     ANOTHER:
     Medium:
     5:
     0.278,0.293,0.245,0.200,0.017,135.000,22.000,18.000,0.000,0.000:


0000
0000
0000
1000
0000
0001
0000
1001
,
0000
0010
0000
1000
0000
0010
0000
1100
,
0000
2000
0000
3000
0000
0010
0000
0010
,
1000
0000
0001
0000
0000
0000
1000
0000
0020
0000
0000
0030
0000
0000
1100
0000
,
0000
0101
0000
0000
0000
0010
0000
0100
,
0010
0200
0000
0000
0000
0000
0000
0000
,
0300
0000
0000
0000
,
0000
0110
0000
0010
0000
0001
1000
0010
,
0000
0100
0000
0100
1000
0010
0000
1000
,
0000
0100
0001
0010
0000
1000
0000
0010
,
0010
1000
0000
1000
0000
0010
0010
0001
,
0000
1000
0000
0010
1000
0001
0000
0010
,
0000
0100
0100
0100
0000
0001
0000
0010
,
0000
0001
0100
0010
0000
0010
0000
1000
,
1000
0001
0020
0000
0030
0000
0200
0000
,
0300
0000
0020
0000
0000
0000
0000
0030
,
0000
1000
0000
0100
0000
0001
0000
0100
,
0010
1001
0000
0000
0000
0100
0000
0010
,
0000
0001
0000
0100
0010
0100
0000
0000
,
1000
0010
0000
0000
0000
1000
0000
0100
,
0000
1000
0000
0001
0000
0100
0000
0001
,
0000
1000
0000
0010
0000
0100
0000
1001
,
0000
1000
0000
0001
0000
1000
0000
1001
,
0000
0000
0010
0000
0000
0000
0010
0000
0000
0000
2002
0000
0000
3003
0000
0000
,
0000
0000
0020
0000
0000
1000
0030
0000
0000
0000
0200
0000
0000
0001
0300
0000
,
0000
0000
0020
0000
0000
0100
0030
0000
0000
0000
1001
0000
0000
0000
0010
0000
,
0000
2002
0000
0000
0000
0000
0000
0000
,
0000
3003
0000
1000
0000
0001
0000
0010
,
0000
1001
0000
0100
0000
0100
0000
0100
,
0000
0110
0000
1000
0000
0001
0000
1000
,
0000
1001
0000
0100
0100
0200
0000
0000
,
0300
0000
0000
0100
0000
0100
0000
1001
,
0000
0110
0000
0100
0000
0010
0000
0010
,
0000
0200
0000
0300
0000
0100
0000
0100
,
0000
0001
0000
0100
0200
0000
0300
1001
,
0000
1100
0000
0101
0000
0110
0000
1001
,
0000
2002
0000
0000
0000
0000
0000
0000
,
0000
0000
0000
0000
0000
3003
0000
0000;

//---------------dance-single - MANIAC----------------
#NOTES:
     dance-single:
     MANIAC:
     Hard:
     7:
     0.372,0.335,0.145,0.189,0.100,204.000,13.000,17.000,0.000,0.000:



0000
0000
0000
1001
0000
0110
0000
1001
,
0000
0000
0010
0000
0000
0000
1000
0000
0010
0000
0010
0000
0000
1000
0000
0000
,
1000
2000
0000
3000
0001
0100
0010
0100
,
1000
0000
0001
0000
0000
0000
1000
0000
2002
0000
0000
3003
0000
0000
1000
0000
,
0001
1000
0010
0000
0000
0100
0000
1000
,
0001
2002
0000
0000
0000
0000
0000
0000
,
3003
0000
0000
0000
0000
0000
0001
0100
0001
0100
0001
0000
0000
0000
0000
0000
,
0000
0100
0100
0010
0010
0001
1000
0010
,
0100
1000
0010
0100
0001
0010
0100
1000
,
0000
0100
0001
0010
0100
1000
0100
0010
,
0100
1000
0000
1000
0100
0010
0100
0001
,
0010
0100
1000
0010
0000
0001
0100
0010
,
0100
1000
0100
0010
0100
0001
0000
0010
,
1000
0001
0100
0010
0000
0010
0100
0001
,
1000
0001
0010
0010
1000
0000
0100
0001
,
0001
0000
1000
0100
0100
0010
0001
1000
,
0001
0000
1000
0000
0100
0010
0000
0000
0001
0000
0100
0000
0010
0000
0100
0000
,
0001
1000
0000
0000
0000
0000
0000
0000
0000
0000
0100
0000
0000
0000
0010
0000
,
0001
0100
0000
0000
0001
0000
0100
0000
0010
0000
0100
0000
0000
0000
0000
0000
,
1000
0010
0000
0000
0100
1000
0010
0100
,
0001
0000
1000
0000
0010
0000
0100
0000
0001
0000
1000
0000
0010
0100
0000
0000
,
0010
0000
1000
0000
0020
0000
0030
0000
0000
0000
1000
0000
1000
0001
0000
0000
,
0000
0000
1000
0000
0000
0001
0000
0000
1000
0000
0001
0000
1000
0001
0000
0000
,
0000
0000
0100
0000
0000
1000
0000
0000
0010
0000
2002
0000
0000
3003
0000
0000
,
0010
0000
0100
0000
0001
1000
0000
0000
0010
0000
0100
0000
1000
0001
0000
0000
,
0010
0000
0100
0000
0000
1000
0000
0000
0010
0000
0001
0000
1000
0000
0001
0000
,
1000
2002
0000
0000
0000
0000
0000
0000
,
0000
3003
0000
1000
0000
0001
0000
0100
,
0000
0000
1001
0000
0000
0000
1000
0000
0010
0000
0100
0000
0000
0001
0000
0000
,
0010
0000
0200
0000
0000
0300
0000
0000
1000
0000
0001
0000
0000
0100
0000
0000
,
0010
0000
0010
0000
0000
1000
0000
0000
0100
0000
0020
0000
0000
0000
0000
0000
,
0000
0030
0000
0000
0000
0000
1001
0000
0000
0000
0101
0000
0000
0000
1001
0000
,
0000
0000
0010
0000
0000
0000
0100
0000
1000
0000
0010
0000
0000
0100
0000
0000
,
0010
2000
0000
3000
0001
0100
0010
0100
,
1000
0001
0000
1000
2002
0000
3003
1000
,
0001
1000
0010
0000
0000
0100
0000
1000
,
0001
2002
0000
0000
0000
0000
0000
0000
,
0000
0000
0000
0000
0000
3003
0000
0000;
