#TITLE:Exciting Hyper Highspeed Star;
#SUBTITLE:;
#ARTIST:Jea;
#TITLETRANSLIT:;
#SUBTITLETRANSLIT:;
#ARTISTTRANSLIT:;
#CREDIT:;
#BANNER:exciting hyper bn.png;
#BACKGROUND:exciting bg.png;
#LYRICSPATH:;
#CDTITLE:;
#MUSIC:Exciting Hyper Highspeed Star.ogg;
#OFFSET:-0.286;
#SAMPLESTART:5.124;
#SAMPLELENGTH:21.315;
#SELECTABLE:YES;
#BPMS:0.000=180.150;
#STOPS:;
#BGCHANGES:;
// cache tags:
#FIRSTBEAT:8.000;
#LASTBEAT:315.000;
#SONGFILENAME:Songs/SHARPNELSTREAMZ v2/Exciting Hyper Highspeed Star/Exciting Hyper Highspeed Star.sm;
#HASMUSIC:1;
#HASBANNER:1;
#MUSICLENGTH:109.244;
// end cache tags

//---------------dance-single - 14+ (TYLR)----------------
#NOTES:
     dance-single:
     14+ (TYLR):
     Challenge:
     14:
     1.000,1.000,0.027,0.522,1.000,1051.000,3.000,57.000,32.000,0.000:
0000
0000
0000
0000
,
0000
0000
0000
0000
,
1000
0011
0100
1001
,
0100
0000
1010
0000
0100
0002
2003
3200
,
0310
0000
0100
1000
0001
0000
0100
0010
0000
1000
0001
0010
0100
0010
0001
1000
,
0010
0000
0100
0001
0000
1000
0100
0000
0010
0100
0010
0001
0000
0001
1000
0000
,
0001
0000
0100
0001
0000
1000
0100
1000
0100
0010
0001
0100
M00M
0100
1000
0000
,
0010
0000
1000
0001
0000
0010
0100
1000
0001
1000
0010
0100
M00M
0100
1000
0001
,
0100
0000
0010
1000
0001
0000
0010
0100
0000
1000
0001
1000
0010
0100
0001
1000
,
0100
0000
0010
0001
0000
1000
0010
0000
0100
0010
0100
0001
0000
0001
1000
0000
,
0001
0000
1000
0100
0000
0010
0001
0010
0001
1000
0010
0100
M00M
0100
1000
0000
,
0001
0000
0100
0001
0000
0010
0100
1000
0002
0000
0000
0000
M2M3
0000
0000
0000
,
0310
0000
0100
0001
1000
0000
0100
0010
0000
0001
1000
0010
0100
0010
1000
0001
,
0010
0000
0100
1000
0000
0001
0100
0000
0010
0100
0010
1000
0000
1000
0001
0000
,
1000
0000
0100
1000
0000
0001
0100
0001
0100
0010
1000
0100
M00M
0100
0001
0000
,
0010
0000
0001
1000
0000
0010
0100
0001
1000
0001
0010
0100
M00M
0100
0001
1000
,
0100
0000
0010
0001
1000
0000
0010
0100
0000
0001
1000
0001
0010
0100
1000
0001
,
0100
0000
0010
1000
0000
0001
0010
0000
0100
0010
0100
1000
0000
1000
0001
0000
,
1000
0000
0001
0100
0000
0010
1000
0010
1000
0001
0010
0100
M00M
0100
0001
0000
,
1000
0000
0100
1000
0000
0010
0100
0001
2000
0000
0000
0000
32MM
0000
0000
0000
,
0310
0001
1000
0001
0010
0100
1000
0001
0100
0001
1000
0001
0010
0100
1000
0001
,
0100
0010
1000
0010
0100
0001
1000
0001
0010
0100
1000
0100
0010
0001
1000
0001
,
0100
0010
1000
0010
0100
0001
1000
0100
0010
0100
1000
0001
0100
0010
1000
0001
,
0020
0130
1000
0100
0020
0031
1000
0001
0020
0130
1000
0100
0020
0031
1000
0001
,
0100
0010
1000
0001
0100
0001
0100
0001
1000
0001
0100
0010
1000
0010
0100
0001
,
1000
0100
0010
0001
1000
0001
0010
0100
1000
0100
0010
0001
1000
0001
0100
0001
,
1000
0100
0010
0001
1000
0001
0100
0010
1000
0010
0100
0001
1000
0001
0100
0010
,
1000
0001
1000
0100
0010
0100
1000
0001
0200
0320
2030
3200
2300
3002
0203
0320
,
2030
3001
0010
0001
1000
0010
0100
0001
1000
0001
0100
0010
1000
0001
0010
0100
,
1000
0100
0010
0001
1000
0001
0100
0010
1000
0010
0100
0001
1000
0001
0010
0100
,
1000
0100
0010
0001
1000
0001
0100
0010
1000
0010
0100
0001
1000
0100
0010
0001
,
0200
0310
1000
0010
0200
0301
1000
0001
0200
0310
1000
0010
0200
0301
1000
0001
,
0010
0100
1000
0100
0010
0001
1000
0001
0010
0100
1000
0001
0100
0001
1000
0100
,
0010
0001
1000
0001
0010
0001
0010
0100
1000
0001
0100
0001
1000
0100
0010
0001
,
1000
0001
0010
0100
1000
0001
1000
0001
1000
0010
0100
0001
1000
0001
0100
0010
,
1000
0010
0100
0001
1000
0100
1000
0100
0010
0001
0010
0001
0100
0001
0100
0001
,
1000
0010
0100
0001
0010
0001
1000
0100
0010
0100
1000
0001
0010
0001
1000
0001
,
0100
0010
1000
0010
0100
0001
0100
0001
1000
0001
1000
0001
0010
0001
0010
0001
,
1000
0010
0100
0001
0010
0001
1000
0010
0100
0001
1000
0001
0100
0010
1000
0001
,
1000
0100
0010
0001
1000
0100
1000
0100
0010
0001
0010
0001
0100
0001
0100
0001
,
1000
0010
0100
0001
0010
0001
1000
0010
0100
0001
1000
0001
0100
0010
1000
0001
,
1000
0100
0010
0001
0100
0001
0100
0001
1000
0001
1000
0001
0010
0001
0010
0001
,
0200
0310
1000
0001
1000
0010
0100
0001
1000
0001
0100
0010
1000
0001
0020
0130
,
1000
0100
0010
0001
2000
3001
1000
0001
0010
0100
2000
3001
0200
0310
2000
3001
,
0020
0130
1000
0100
0010
0001
1000
0001
0010
0100
1000
0001
0010
0001
0020
0031
,
1000
0001
0100
0001
2000
3010
1000
0001
0100
0001
1000
0001
1000
0001
0010
0100
,
2000
3100
0010
0001
2000
3001
0010
0100
2000
3100
0010
0001
2000
3001
0010
0100
,
1000
0001
0100
0010
1000
0010
0100
0001
0010
0100
1000
0001
0100
0010
1000
0010
,
0200
0301
1000
0010
0200
0310
1000
0001
0200
0301
1000
0010
0200
0310
1000
0001
,
0010
0100
1000
0100
0010
0001
1000
0001
0100
0010
0100
0001
1000
0001
0100
0010
,
1000
0001
1000
0100
0010
0001
0010
0100
1000
0001
1000
0010
0100
0001
0100
0010
,
1000
0001
0100
0001
1000
0001
0010
0100
1000
0100
0010
0001
1000
0010
0100
0001
,
1000
0001
0100
0010
1000
0010
0100
0001
1000
0001
0100
0010
1000
0001
1000
0100
,
0010
0001
1000
0001
0100
0010
1000
0010
0100
0001
1000
0001
1000
0100
0010
0001
,
0200
0000
0301
0000
0010
0000
0100
0000
2000
3000
0100
0000
0010
0000
0001
0000
0200
0000
0301
0000
0010
0000
0100
0000
2000
3000
0100
0000
0010
0000
0001
0000
,
1000
0001
1000
0010
0100
0001
1000
0001
0010
0100
1000
0001
1000
0010
0100
0001
,
0020
0000
0031
0000
0100
0000
0010
0000
2000
3000
0010
0000
0100
0000
0001
0000
0020
0000
0031
0000
0100
0000
0010
0000
2000
3000
0010
0000
0100
0000
0001
0000
,
1000
0100
0010
0100
1000
0001
0100
0001
1000
0010
1000
0001
1000
0100
0010
0001
,
0100
0010
0100
0001
1000
0100
1000
0001
0100
0010
0100
0001
1000
0100
1000
0001
,
0010
0100
1000
0100
0010
0001
1000
0001
0100
0010
1000
0010
0100
0001
1000
0001
,
0010
0100
1000
0001
0100
0001
1000
0100
0010
0100
1000
0001
0100
0001
1000
0100
,
0010
0100
1000
0001
0100
0001
1000
0100
0010
0000
0200
0000
2300
0000
3002
0000
,
0103
0000
0010
1000
0001
0000
0010
0100
0000
1000
0001
0100
0010
0100
0001
1000
,
0100
0000
0010
0001
0000
1000
0010
0000
0100
0010
0100
0001
0000
0001
1000
0000
,
0001
0000
0010
0001
0000
1000
0010
1000
0010
0100
0001
0010
M00M
0010
1000
0000
,
0100
0000
1000
0001
0000
0100
0010
1000
0001
1000
0100
0010
M00M
0010
1000
0001
,
0010
0000
0100
1000
0001
0000
0100
0010
0000
1000
0001
1000
0100
0010
0001
1000
,
0010
0000
0100
0001
0000
1000
0100
0000
0010
0100
0010
0001
0000
0001
1000
0000
,
0001
0000
1000
0010
0000
0100
0001
0100
0001
1000
0100
0010
M00M
0010
1000
0000
,
0001
0000
0010
0001
0000
0100
0010
1000
0002
0000
0000
0000
MM23
0000
0000
0000
,
0130
0000
0010
0001
1000
0000
0010
0100
0000
0001
1000
0100
0010
0100
1000
0001
,
0100
0000
0010
1000
0000
0001
0010
0000
0100
0010
0100
1000
0000
1000
0001
0000
,
1000
0000
0010
1000
0000
0001
0010
0001
0010
0100
1000
0010
M00M
0010
0001
0000
,
0100
0000
0001
1000
0000
0100
0010
0001
1000
0001
0100
0010
M00M
0010
0001
1000
,
0010
0000
0100
0001
1000
0000
0100
0010
0000
0001
1000
0001
0100
0010
1000
0001
,
0010
0000
0100
1000
0000
0001
0100
0000
0010
0100
0010
1000
0000
1000
0001
0000
,
1000
0000
0001
0010
0000
0100
1000
0100
1000
0001
0100
0010
M00M
0010
0001
0000
,
1000
0000
0010
1000
0000
0100
0010
0001
2000
0000
0000
0000
3M2M
0000
0000
0000
,
0230
0000
0000
0300
;

//---------------dance-single - 13+ (TYLR)----------------
#NOTES:
     dance-single:
     13+ (TYLR):
     Hard:
     13:
     1.000,1.000,0.027,0.412,1.000,945.000,3.000,45.000,32.000,0.000:
0000
0000
0000
0000
,
0000
0000
0000
0000
,
1000
0011
0100
1001
,
0100
0000
1010
0000
0001
2000
3002
0023
,
0130
0000
0010
0001
1000
0000
0010
0100
0000
0001
1000
0100
0010
0100
1000
0001
,
0100
0000
0010
1000
0000
0001
0010
0000
0100
0010
0100
1000
0000
1000
0001
0000
,
1000
0000
0010
1000
0000
0001
0010
0001
0010
0100
1000
0010
M00M
0010
0001
0000
,
0100
0000
0001
1000
0000
0100
0010
0001
1000
0001
0100
0010
M00M
0010
0001
1000
,
0010
0000
0100
0001
1000
0000
0100
0010
0000
0001
1000
0001
0100
0010
1000
0001
,
0010
0000
0100
1000
0000
0001
0100
0000
0010
0100
0010
1000
0000
1000
0001
0000
,
1000
0000
0001
0010
0000
0100
1000
0100
1000
0001
0100
0010
M00M
0010
0001
0000
,
1000
0000
0010
1000
0000
0100
0010
0001
2000
0000
0000
0000
3M2M
0000
0000
0000
,
0130
0000
0010
1000
0001
0000
0010
0100
0000
1000
0001
0100
0010
0100
0001
1000
,
0100
0000
0010
0001
0000
1000
0010
0000
0100
0010
0100
0001
0000
0001
1000
0000
,
0001
0000
0010
0001
0000
1000
0010
1000
0010
0100
0001
0010
M00M
0010
1000
0000
,
0100
0000
1000
0001
0000
0100
0010
1000
0001
1000
0100
0010
M00M
0010
1000
0001
,
0010
0000
0100
1000
0001
0000
0100
0010
0000
1000
0001
1000
0100
0010
0001
1000
,
0010
0000
0100
0001
0000
1000
0100
0000
0010
0100
0010
0001
0000
0001
1000
0000
,
0001
0000
1000
0010
0000
0100
0001
0100
0001
1000
0100
0010
M00M
0010
1000
0000
,
0001
0000
0010
0001
0000
0100
0010
1000
0002
0000
0000
0000
MM23
0000
0000
0000
,
0130
1000
0001
1000
0100
0010
0001
1000
0010
1000
0001
1000
0100
0010
0001
1000
,
0010
0100
0001
0100
0010
1000
0001
1000
0100
0010
0001
0010
0100
1000
0001
1000
,
0010
0100
0001
0100
0010
1000
0001
0010
0100
0010
0001
1000
0010
0100
0001
1000
,
0200
0000
0310
0000
0200
0000
1300
0000
0200
0000
0300
0010
0200
0000
1300
0000
,
0001
0100
0001
1000
0010
1000
0010
1000
0001
1000
0010
0100
0001
0100
0010
1000
,
0001
0010
0100
1000
0001
1000
0100
0010
0001
0010
0100
1000
0001
1000
0010
1000
,
0001
0010
0100
1000
0001
1000
0010
0100
0001
0100
0010
1000
0001
1000
0010
0100
,
0001
0000
1000
0000
0001
0000
0010
0000
0100
0000
0010
0000
0001
0000
1000
0000
0020
0030
0200
0300
0002
0003
0020
0030
0002
0003
2000
3000
0020
0030
0200
0300
,
0002
0000
0100
0003
0010
0000
1000
0000
0001
0000
0100
0000
0010
0000
1000
0000
0001
0000
1000
0000
0010
0000
0100
0000
0001
0000
1000
0000
0100
0000
0010
0000
,
0001
0010
0100
1000
0001
1000
0010
0100
0001
0100
0010
1000
0001
1000
0100
0010
,
0001
0010
0100
1000
0001
1000
0010
0100
0001
0100
0010
1000
0001
0010
0100
1000
,
0020
0000
1030
0000
0020
0000
0130
0000
0020
0000
0030
1000
0020
0000
0130
0000
,
0001
1000
0100
1000
0001
1000
0001
1000
0010
0100
0001
1000
0010
1000
0001
0010
,
0100
1000
0001
1000
0100
1000
0100
0010
0001
1000
0010
1000
0001
0010
0100
1000
,
0001
1000
0100
0010
0001
1000
0001
1000
0001
0100
0010
1000
0001
1000
0010
0100
,
0001
0100
0010
1000
0002
0000
0000
0000
0023
0000
0000
0000
0230
0000
0000
0000
,
1300
0001
0100
0001
0010
0001
1000
0100
0010
0100
1000
0001
0010
0001
1000
0001
,
0100
0010
1000
0001
0200
0000
0000
0000
0320
0000
0000
0000
2030
0000
0000
0000
,
3001
0010
0100
1000
0010
1000
0001
0010
0100
1000
0001
1000
0100
0010
0001
1000
,
0001
0100
0010
1000
0002
0000
0000
0000
0023
0000
0000
0000
0230
0000
0000
0000
,
1300
0010
0100
0001
0010
0001
1000
0010
0100
0001
1000
0001
0100
0010
1000
0001
,
1000
0100
0010
0001
2000
0000
0000
0000
3020
0000
0000
0000
0230
0000
0000
0000
,
0301
1000
1000
1000
1000
0000
0100
1000
,
0000
0001
1000
2000
0000
3010
0100
0001
,
1000
0000
0100
0000
0100
1000
0100
0100
,
0010
0000
0100
0010
0000
0001
1000
0010
,
1000
0010
0100
0001
1000
0001
0100
0010
1000
0010
0100
0001
1000
0001
0100
0010
,
1000
0001
0010
0100
1000
0100
0010
0001
1000
0010
1000
0000
0001
0000
0010
0000
,
0100
1000
0001
0010
0100
0010
0001
1000
0100
1000
0001
0010
0100
0010
0001
1000
,
0010
0100
0001
0100
0010
1000
0001
1000
0100
0010
0100
0000
1000
0000
0001
0000
,
1000
0010
1000
0010
0100
0001
0100
0010
1000
0001
1000
0100
0010
0001
0010
0100
,
1000
0001
0010
0001
1000
0001
0100
0010
1000
0010
0100
0001
1000
0100
0010
0001
,
1000
0001
0010
0100
1000
0100
0010
0001
1000
0001
0010
0100
1000
0001
1000
0010
,
0100
0001
1000
0001
0010
0100
1000
0100
0010
0001
0010
0000
0001
0000
1000
0000
,
0010
1000
0100
0010
0001
0010
0100
1000
0010
1000
0100
0010
0001
0010
0100
1000
,
0001
1000
0001
0100
0010
1000
0001
1000
0100
0010
0100
0000
1000
0000
0001
0000
,
0100
0001
0010
0100
1000
0100
0010
0001
0100
0001
0010
0100
1000
0100
0010
0001
,
1000
0010
0100
0010
1000
0001
0010
0001
1000
0100
1000
0000
0001
0000
1000
0000
,
0010
0100
0010
1000
0001
0010
0001
1000
0010
0100
0010
1000
0001
0010
0001
1000
,
0100
0010
0001
0010
0100
1000
0001
1000
0010
0100
0001
0100
0010
1000
0001
1000
,
0100
0010
0001
1000
0010
1000
0001
0010
0100
0010
0001
1000
0010
1000
0001
0010
,
0100
0010
0001
1000
0010
1000
0001
0010
0100
0000
0020
0000
0032
0000
2003
0000
,
3010
0000
0100
0001
1000
0000
0100
0010
0000
0001
1000
0010
0100
0010
1000
0001
,
0010
0000
0100
1000
0000
0001
0100
0000
0010
0100
0010
1000
0000
1000
0001
0000
,
1000
0000
0100
1000
0000
0001
0100
0001
0100
0010
1000
0100
M00M
0100
0001
0000
,
0010
0000
0001
1000
0000
0010
0100
0001
1000
0001
0010
0100
M00M
0100
0001
1000
,
0100
0000
0010
0001
1000
0000
0010
0100
0000
0001
1000
0001
0010
0100
1000
0001
,
0100
0000
0010
1000
0000
0001
0010
0000
0100
0010
0100
1000
0000
1000
0001
0000
,
1000
0000
0001
0100
0000
0010
1000
0010
1000
0001
0010
0100
M00M
0100
0001
0000
,
1000
0000
0100
1000
0000
0010
0100
0001
2000
0000
0000
0000
32MM
0000
0000
0000
,
0310
0000
0100
1000
0001
0000
0100
0010
0000
1000
0001
0010
0100
0010
0001
1000
,
0010
0000
0100
0001
0000
1000
0100
0000
0010
0100
0010
0001
0000
0001
1000
0000
,
0001
0000
0100
0001
0000
1000
0100
1000
0100
0010
0001
0100
M00M
0100
1000
0000
,
0010
0000
1000
0001
0000
0010
0100
1000
0001
1000
0010
0100
M00M
0100
1000
0001
,
0100
0000
0010
1000
0001
0000
0010
0100
0000
1000
0001
1000
0010
0100
0001
1000
,
0100
0000
0010
0001
0000
1000
0010
0000
0100
0010
0100
0001
0000
0001
1000
0000
,
0001
0000
1000
0100
0000
0010
0001
0010
0001
1000
0010
0100
M00M
0100
1000
0000
,
0001
0000
0100
0001
0000
0010
0100
1000
0002
0000
0000
0000
M2M3
0000
0000
0000
,
0320
0000
0000
0030
;

//---------------dance-single - 9 (TYLR)----------------
#NOTES:
     dance-single:
     9 (TYLR):
     Medium:
     9:
     0.821,0.755,0.421,0.586,0.458,518.000,46.000,64.000,4.000,0.000:
0000
0000
0000
0000
,
0000
0000
0000
0000
,
0001
1100
0010
1001
,
0010
0000
0101
0000
1000
0002
2003
3200
,
0320
0000
0000
0000
0230
0000
0000
2300
0000
0000
3001
0000
0100
0000
0001
0000
,
1000
0000
0001
1000
0000
0001
1000
0000
0001
1000
0001
1000
0000
0000
0100
0000
,
0010
0000
0001
0010
0000
0001
0010
0000
0001
0010
0001
1000
0000
0000
0001
0000
,
0100
0000
0001
0100
0000
0001
0100
0000
0001
0100
0001
0010
0000
0000
0100
0000
,
2000
0000
0000
0000
3002
0000
0000
0203
0000
0000
0310
0000
1000
0000
0001
0000
,
0010
0000
0001
0010
0000
0001
0010
0000
0001
0010
0001
0010
0000
0000
0100
0000
,
1000
0000
0001
1000
0000
0001
1000
0000
0001
1000
0001
0100
0000
0000
0010
0000
,
1000
0000
0010
1000
0000
0010
1000
0000
0002
0000
0000
0000
0023
0000
0000
0000
,
0230
0000
0000
0000
2300
0000
0000
3002
0000
0000
1003
0000
0010
0000
1000
0000
,
0001
0000
1000
0001
0000
1000
0001
0000
1000
0001
1000
0001
0000
0000
0010
0000
,
0100
0000
1000
0100
0000
1000
0100
0000
1000
0100
1000
0001
0000
0000
1000
0000
,
0010
0000
1000
0010
0000
1000
0010
0000
1000
0010
1000
0100
0000
0000
0010
0000
,
0002
0000
0000
0000
2003
0000
0000
3020
0000
0000
0130
0000
0001
0000
1000
0000
,
0100
0000
1000
0100
0000
1000
0100
0000
1000
0100
1000
0100
0000
0000
0010
0000
,
0001
0000
1000
0001
0000
1000
0001
0000
1000
0001
1000
0010
0000
0000
0100
0000
,
0001
0000
0100
0001
0000
0100
0001
0000
2000
0000
0000
0000
3200
0000
0000
0000
,
0320
0031
0010
0001
0100
0001
1000
0100
,
0000
0M01
0010
0001
0100
0001
1000
0100
,
0000
0M01
0010
0001
0100
0001
1000
0100
,
0021
0000
0000
0030
1020
0000
0000
0030
0021
0000
0000
0030
1020
0000
0000
0030
,
0011
0001
0100
0100
0000
0000
0000
0000
,
0010
1000
0001
1000
0001
1000
0001
1000
,
0001
0010
0000
0200
0000
0000
0000
0000
,
0000
0000
0000
0000
0300
0000
0000
0000
1000
0100
0010
0001
0100
0010
1000
0001
,
2000
3010
0100
0001
0010
0100
1000
0001
,
0000
001M
0100
0001
0010
0100
1000
0001
,
0000
001M
0100
0001
0010
0100
1000
0010
,
1020
0000
0000
0030
0021
0000
0000
0030
1020
0000
0000
0030
0021
0000
0000
0030
,
1010
1000
0100
0100
0000
0000
0000
0000
,
0010
0001
1000
0001
1000
0001
1000
0001
,
0100
0010
1000
1000
0000
0000
0000
0000
,
0000
0002
0023
0230
,
1300
0001
0100
0100
0010
1000
0001
0010
,
0100
1000
0002
0000
0203
0000
0320
0000
,
1030
0010
0100
0100
0001
1000
0100
0010
,
0001
1000
0020
0000
0230
0000
0302
0000
,
0013
0100
1000
1000
0001
0100
0010
1000
,
0001
0000
1000
0000
0020
0000
0000
0000
0230
0000
0000
0000
0302
0000
0000
0003
,
1001
0001
1000
0001
1000
0000
0001
1001
,
0000
1000
1001
1001
0000
0001
0010
0100
,
1100
0000
0011
0000
0011
0001
1001
1000
,
0000
0000
1001
0000
0000
1000
0010
0100
,
0101
1100
0101
1100
,
0001
0010
0000
0100
1000
0010
0100
0000
,
0101
1100
0101
1100
,
0001
0100
0010
1000
0100
0000
1000
0000
,
1010
0010
1010
1000
,
1100
0000
0000
0010
0000
0001
0100
0020
,
1000
0100
1000
0100
,
1030
0000
0000
0001
0000
1000
0100
0010
,
1001
0110
1001
0110
,
1000
0001
0000
0001
0010
0100
1000
0000
,
1001
0110
1001
0110
,
1000
0100
0010
0001
0100
0000
0001
0000
,
0110
1000
0110
0001
,
1010
0100
0101
0001
,
1200
0010
1000
0010
,
1000
0000
0310
0000
0000
0002
2003
3020
,
0230
0000
0000
0000
0320
0000
0000
2030
0000
0000
3001
0000
0010
0000
0001
0000
,
1000
0000
0001
1000
0000
0001
1000
0000
0001
1000
0001
1000
0000
0000
0010
0000
,
0100
0000
0001
0100
0000
0001
0100
0000
0001
0100
0001
1000
0000
0000
0001
0000
,
0010
0000
0001
0010
0000
0001
0010
0000
0001
0010
0001
0100
0000
0000
0010
0000
,
2000
0000
0000
0000
3002
0000
0000
0023
0000
0000
0130
0000
1000
0000
0001
0000
,
0100
0000
0001
0100
0000
0001
0100
0000
0001
0100
0001
0100
0000
0000
0010
0000
,
1000
0000
0001
1000
0000
0001
1000
0000
0001
1000
0001
0010
0000
0000
0100
0000
,
1000
0000
0100
1000
0000
0100
1000
0000
0002
0000
0000
0000
0203
0000
0000
0000
,
0320
0000
0000
0000
2030
0000
0000
3002
0000
0000
1003
0000
0100
0000
1000
0000
,
0001
0000
1000
0001
0000
1000
0001
0000
1000
0001
1000
0001
0000
0000
0100
0000
,
0010
0000
1000
0010
0000
1000
0010
0000
1000
0010
1000
0001
0000
0000
1000
0000
,
0100
0000
1000
0100
0000
1000
0100
0000
1000
0100
1000
0010
0000
0000
0100
0000
,
0002
0000
0000
0000
2003
0000
0000
3200
0000
0000
0310
0000
0001
0000
1000
0000
,
0010
0000
1000
0010
0000
1000
0010
0000
1000
0010
1000
0010
0000
0000
0100
0000
,
0001
0000
1000
0001
0000
1000
0001
0000
1000
0001
1000
0100
0000
0000
0010
0000
,
0001
0000
0010
0001
0000
0010
0001
0000
2000
0000
0000
0000
3002
0000
0000
0000
,
0203
0000
0300
0000
;
