#TITLE:INFINITY Hyperspace;
#SUBTITLE:;
#ARTIST:Kommisar;
#TITLETRANSLIT:;
#SUBTITLETRANSLIT:;
#ARTISTTRANSLIT:;
#CREDIT:Arvin;
#BANNER:../Tachyon Gamma-bn.png;
#BACKGROUND:../Tachyon Gamma-bg.png;
#LYRICSPATH:;
#CDTITLE:;
#MUSIC:INFINITY Hyperspace.ogg;
#OFFSET:0.012;
#SAMPLESTART:110.240;
#SAMPLELENGTH:18.000;
#SELECTABLE:YES;
#DISPLAYBPM:160.000;
#BPMS:0.000=160.000;
#STOPS:;
#BGCHANGES:;
// cache tags:
#FIRSTBEAT:16.000;
#LASTBEAT:423.750;
#SONGFILENAME:Songs/Tachyon Gamma/INFINITY Hyperspace - [Arvin]/INFINITY Hyperspace.sm;
#HASMUSIC:1;
#HASBANNER:1;
#MUSICLENGTH:163.432;
// end cache tags

//---------------dance-single - Arvin----------------
#NOTES:
     dance-single:
     Arvin:
     Challenge:
     14:
     1.000,1.000,0.073,0.740,1.000,1074.000,12.000,121.000,34.000,0.000:

0000
0000
0000
0000
,
0000
0000
0000
0000
,
0000
0000
0000
0000
,
0000
0000
0000
0000
,
1000
0100
0000
0010
0001
1000
0000
0010
,
0100
0001
0000
1000
0100
0010
0001
0010
,
0100
1000
0000
0001
0100
0010
0000
1000
,
0001
0010
0000
0100
1000
0001
0100
0010
,
1000
0010
0200
0000
0000
0301
2000
0000
,
3200
0000
0000
0320
0000
0031
2000
0000
,
3010
0100
0001
1000
0010
0100
0001
0100
,
0010
1000
0100
0010
0001
0010
0100
1000
,
0002
0000
0000
0203
0000
0310
2000
0000
,
3002
0000
0013
0200
0000
1300
0002
0000
,
0103
0010
1000
0010
0100
0001
1000
0100
,
0010
0001
0010
0100
0010
0001
0010
0100
,
2000
0M00
00M0
000M
00M0
000M
00M0
0M00
,
00M0
000M
00M0
000M
00M0
0M00
00M0
000M
,
30M0
0M00
M000
0M00
00M0
000M
M000
00M0
,
M000
000M
0M00
000M
0M00
00M0
0M00
000M
,
2000
0000
3000
0002
0000
0003
2000
0000
3000
0002
0000
0003
2000
3000
0200
0300
,
0020
0000
0030
0002
0000
0003
0020
0000
0030
0002
0000
0003
2000
3000
0020
0030
,
0100
0001
0000
0100
0010
0000
0100
0001
0000
0100
0010
0000
1000
0100
0010
0001
,
1000
0010
0000
1000
0001
0000
1000
0010
0000
1000
0001
0000
1000
0001
0100
0010
,
1000
0100
1000
0100
0010
0100
0010
0001
0010
0001
1000
0001
,
1000
0000
0000
0000
0000
0000
0000
0000
0000
0000
0001
0000
0100
0000
0000
0000
0000
0000
0010
0000
0000
0000
0000
0000
1000
0000
0000
0200
0000
0000
0000
0000
0000
0000
0000
0000
0340
0000
0000
0000
0000
0000
0000
0000
0000
0030
0000
0000
,
0001
0010
0001
1000
0001
0100
0010
1000
0001
1000
0010
0100
0001
1000
0100
0010
,
0001
1000
0001
0100
0001
1000
0010
1000
0001
0100
0010
1000
0001
1000
0100
0010
,
0001
0100
0001
1000
0001
0010
0100
1000
0001
1000
0100
0010
0001
1000
0010
0100
,
0001
1000
0001
0010
0001
1000
0100
1000
0001
0010
0100
1000
0001
1000
0010
0100
,
0001
1000
0010
1000
0001
1000
0100
0010
0001
1000
0010
1000
0001
0010
0100
1000
,
0001
1000
0100
1000
0001
1000
0100
0010
0001
0010
0100
1000
0001
1000
0001
0100
,
0001
1000
0100
1000
0001
1000
0010
0100
0001
1000
0100
1000
0001
0100
0010
1000
,
0001
1000
0010
1000
0001
1000
0010
0100
0001
0100
0010
1000
0001
1000
0001
0010
,
0200
0000
0000
2300
0000
0000
3002
0000
0000
0000
0000
0000
0000
0000
0103
0010
,
2000
0000
0000
3002
0000
0000
0023
0000
0230
0000
0000
2300
0000
0000
3002
0000
,
0103
0010
0000
0100
0000
0010
2000
0000
0000
0000
0000
0000
0000
0000
0000
0000
,
0000
0000
0000
0000
0000
0000
0000
0000
0000
0000
0000
0000
0000
0000
0000
0000
0000
0000
0000
0000
0000
3000
0000
0000
0000
0000
0000
0000
0001
0000
0010
0000
0100
0000
1000
0000
0001
0000
0000
0000
0000
0000
0000
0000
0000
0000
0000
0000
,
0200
0000
0000
0302
0000
0000
2003
0000
0000
0000
0000
0000
0000
0000
3100
0010
,
0002
0000
0000
2003
0000
0000
3020
0000
0230
0000
0000
0302
0000
0000
2003
0000
,
3002
0000
0000
0000
0000
0000
0000
0000
0000
0000
0000
0003
1000
0200
0000
0000
,
1300
0010
0100
0001
1000
0010
0100
0001
1000
0100
0010
0001
1000
0100
0010
0001
,
0200
0000
0000
0302
0000
0000
2003
0000
0000
0000
0000
0000
0000
0000
3100
0010
,
0002
0000
0000
2003
0000
0000
3020
0000
0230
0000
0000
0302
0000
0000
2003
0000
,
3100
0010
0000
0100
0000
0010
0002
0000
0000
0000
0000
0000
0000
0000
0000
0000
,
0000
0000
0000
0000
0000
0000
0000
0000
0000
0000
0000
0000
0003
0000
1000
0010
0100
0001
1000
0000
0000
0000
0000
0000
,
0020
0000
0000
0230
0000
0000
0302
0000
0000
0000
0000
0000
0000
0000
0013
0100
,
2000
0000
0000
3002
0000
0000
0203
0000
0320
0000
0000
0000
2030
0000
3002
0000
,
0203
0000
0000
0000
,
0301
0010
0100
1000
0100
0010
0001
1000
0001
0100
0010
1000
0010
0100
0001
0100
,
0020
0000
0000
2030
0000
0000
3001
0010
0001
1000
0000
0010
1000
0000
0001
0000
,
2000
0000
0000
3200
0000
0000
0310
0100
1000
0010
0000
1000
0010
0000
0100
0000
,
0002
0000
0000
0000
0000
0000
0000
0000
0000
0013
0001
1000
0020
0000
0000
0000
0000
0000
0230
0000
0000
0000
0000
0000
,
0301
0100
0010
1000
0001
0100
0001
1000
0100
0010
0100
1000
0010
0100
0001
1000
,
0002
0000
0000
0000
0003
1000
0010
0100
0001
0000
0000
0000
0000
1000
0100
0010
,
0002
0000
0000
2003
0000
0000
3020
0000
0230
0000
0000
0000
0000
0000
0000
0000
,
0301
0010
0100
1000
0100
0010
0001
1000
0001
0100
0010
1000
0010
0100
0001
0100
,
0010
1000
0100
0010
0001
0100
0010
1000
0001
0010
0100
1000
0010
0100
0001
1000
,
0020
0000
0000
2030
0000
0000
3001
0010
0001
1000
0000
0010
1000
0000
0001
0000
,
2000
0000
0000
3200
0000
0000
0310
0001
1000
0100
0000
1000
0100
0000
0010
0000
,
0002
0000
0000
0203
0000
0000
0320
0000
,
1030
0100
0010
0001
1000
0100
1000
0001
0100
0010
0100
0001
0010
0100
1000
0001
,
2000
0000
0000
0000
0000
0000
0000
0000
0000
0000
0000
0000
3000
0000
0000
0001
0000
0000
0010
0000
0000
0100
0000
0000
1000
0000
0000
0000
0000
0000
0000
0000
0000
0000
0000
0000
0001
0000
1000
0000
0010
0000
1000
0000
0001
0000
0100
0000
,
0020
0000
0000
2030
0000
0000
3200
0000
0320
0000
0000
0000
0032
0000
0000
0000
,
1003
0100
0010
0001
0010
0100
1000
0001
1000
0010
0100
0001
0100
0010
1000
0010
,
0100
0001
0010
0100
1000
0010
0100
0001
1000
0100
0010
0001
0100
0010
1000
0001
,
1000
0001
0011
0010
0100
1000
1010
0010
,
0100
0001
0011
0010
0110
0000
0110
0000
,
1000
0001
1001
1000
0010
0100
0101
0001
,
1000
0100
1100
1000
0010
0100
0101
0001
,
1000
0000
0100
0010
0001
1000
0010
0100
0000
0010
0100
0000
0101
0000
0001
0000
,
0100
0000
0010
1000
0001
0010
0001
1000
0000
0001
1000
0000
1100
0000
0100
0000
,
1000
0000
0100
1000
0001
0010
0100
1000
0000
0100
1000
0000
1001
0000
0001
0000
,
1MMM
0000
0000
0000
0000
0000
0000
0000
0000
0000
0000
0000
1000
0100
0010
0001
1000
0001
1000
0100
0010
0001
1000
0001
,
2000
0000
0000
0000
0000
0000
0000
0000
0000
0000
0000
0000
0000
0000
0000
3001
0000
0000
0100
0000
0000
0001
0000
0000
0100
0000
0010
0000
1000
0000
0010
0000
1000
0000
0001
0000
2000
0000
0000
0000
0000
0000
0000
0000
0000
0000
0000
0000
,
3001
0010
0001
1000
0100
1000
0010
0100
0010
1000
0001
1000
,
0001
0010
0001
1000
0100
0010
0001
1000
0001
0100
0001
1000
0010
1000
0001
0010
,
0100
1000
0001
0100
0010
1000
0001
0010
0100
1000
0100
0010
0100
0000
0000
0000
,
0010
0000
0000
0001
0000
0000
1000
0000
0000
0010
0000
0000
1000
0000
0000
0001
0000
0000
0100
0000
0000
0010
0000
0000
1000
0000
0000
0001
0000
0000
0010
0000
0000
0200
0000
0000
0000
0000
0000
0000
0000
0000
1300
0000
0100
0000
0010
0000
,
0001
0000
1000
0000
0001
0000
0100
0000
0010
0000
0100
0000
0001
0000
1000
0000
0100
0000
0010
0000
0001
0000
1000
0000
0010
0000
0000
1000
0000
0000
0001
0000
0000
1000
0000
0000
0200
0000
0000
0000
0000
0000
0000
0000
0000
0310
0000
0000
,
0002
0003
0000
0002
0003
0000
0002
0103
0010
1000
0010
0100
0002
0000
2003
0000
,
3001
0000
0010
0000
0001
0000
1000
0000
0100
0000
1000
0000
0001
0000
0100
0000
0001
0000
1000
0000
0010
0000
1000
0000
0001
0000
0000
0000
0000
0000
0100
0000
0000
0000
0000
0000
0010
0000
0000
1000
0000
0000
0000
0000
0000
0001
0000
0000
,
1000
0000
0000
0100
0000
0000
0010
0000
0001
0000
1000
0000
0001
0000
0000
0100
0000
0000
0010
0000
0000
1000
0000
0000
0001
0000
0000
0100
0000
0000
0001
0000
0000
1000
0000
0000
0100
0000
0000
1000
0000
0000
0001
0000
0000
0100
0000
0000
,
0010
0000
0000
0100
0000
0000
0001
0000
0000
0100
0000
0000
0010
0000
0000
1000
0000
0000
0100
0000
0000
0010
0000
0000
0001
0000
1000
0000
0100
0000
0010
0000
0001
0000
1000
0000
0001
0000
0000
0100
0000
0000
0000
0000
0000
0001
0000
0000
,
0100
0010
1000
0100
1000
0001
0100
0001
1000
0010
0100
0002
0000
1003
0100
0010
,
0100
0000
0000
1000
0000
0000
0001
0000
0000
0010
0000
0000
0100
0000
0000
1000
0000
0000
0001
0000
0010
0000
0100
0000
2000
0000
0000
0000
0000
0000
0000
0000
0000
0000
0000
0000
3020
0000
0000
0000
0000
0000
0000
0000
0000
0000
0000
0000
,
1030
0010
0100
0001
1000
0010
0100
0001
1000
0010
0100
0001
1000
0001
0010
0100
1000
0100
0010
0001
1000
0001
1000
0010
,
0100
0001
1000
0020
0000
0130
0010
1000
0001
1000
0001
0010
0200
0000
2300
0000
,
3001
0100
0010
1000
0010
0100
0001
1000
0001
1000
0100
0010
0100
0010
0001
1000
0001
1000
0010
0100
0010
0100
0001
1000
,
0002
0000
0003
2000
0000
0000
3002
0000
0000
1003
0100
0010
0001
0010
0100
1000
,
0002
0000
0000
0000
0000
0000
0000
0000
0000
0000
0000
0000
1003
0000
0000
0100
0000
0000
0010
0000
0000
0002
0000
0000
0000
0000
0000
0003
0000
0000
1000
0000
0100
0000
1000
0000
0001
0000
0010
0000
0001
0000
1000
0000
0010
0000
1000
0000
,
0001
0010
0100
1000
0001
1000
0100
0010
0001
1000
0001
1000
0020
0000
0000
0130
0010
1000
0002
0000
0000
0203
0000
0000
,
0301
0000
0000
0010
0000
0000
0100
0000
0000
2000
0000
0000
0000
0000
0000
3001
0000
0000
0100
0000
0000
0010
0000
0000
1000
0000
0000
0100
0000
0000
0010
0000
0000
0001
0000
0000
1000
0000
0100
0000
0010
0000
0001
0000
1000
0000
0001
0000
,
0100
0010
1000
0010
0100
0010
1000
0000
0001
0100
0001
0100
0020
0000
2030
0000
,
3001
0010
0001
0010
0100
1000
0100
1000
0001
0100
0010
0100
0001
0010
0100
1000
,
0002
0000
0000
1003
0010
1000
0001
0100
0010
1000
0001
1000
0100
0010
0001
1000
0000
0000
0020
0000
0000
0230
0000
0000
,
0301
0000
0000
1000
0000
0000
0001
0000
0000
0100
0000
0000
0001
0000
0000
1000
0000
0000
0001
0000
0000
0010
0000
0000
0001
0000
0000
0000
0000
0000
1000
0000
0000
0100
0000
0000
0010
0000
0000
0001
0000
0000
1000
0000
0001
0000
1000
0000
,
0010
0100
0001
1000
0001
1000
0010
0100
0001
1000
0100
1000
0001
0010
0001
1000
0010
0100
0001
0100
0010
1000
0001
1000
,
0200
0000
0000
0000
0000
0000
1300
0000
0001
0000
1000
0000
0001
0000
0000
0000
0000
0000
0010
0000
0000
0000
0000
0000
0100
0000
0000
1000
0000
0000
0001
0000
0000
0000
0000
0000
0100
0000
0000
0000
0000
0000
0010
0000
0000
0000
0000
0000
,
1000
0000
0001
0010
0000
0100
1000
0000
0001
0010
0100
0000
1000
0000
0001
0000
,
0100
0000
0010
1000
0000
0001
0100
0000
0010
1000
0001
0000
0100
0000
0010
0000
,
1000
0100
0010
0001
0010
0100
1000
0001
1000
0001
0100
0010
0100
0010
1000
0001
,
1000
0000
0001
0010
0000
0100
1000
0000
0001
0010
0100
0000
1000
0000
0001
0000
,
1000
0000
0010
0100
0000
0001
1000
0000
0010
0100
0001
0000
1000
0000
0010
0000
,
0100
0000
0001
1000
0000
0100
0010
0000
0001
1000
0100
0000
0010
0000
0001
0000
,
1000
0010
0100
0001
0100
0010
1000
0001
1000
0001
0010
0100
0010
0100
1000
0001
;
