#TITLE:Biaxident;
#SUBTITLE:Liquid Tension Experiment 2 (2000);
#ARTIST:Liquid Tension Experiment;
#TITLETRANSLIT:;
#SUBTITLETRANSLIT:;
#ARTISTTRANSLIT:;
#CREDIT:;
#BANNER:biaxident-bn.png;
#BACKGROUND:biaxident.png;
#LYRICSPATH:;
#CDTITLE:!kil.png;
#MUSIC:biaxident.mp3;
#OFFSET:-0.073;
#SAMPLESTART:57.058;
#SAMPLELENGTH:26.760;
#SELECTABLE:YES;
#BPMS:0.000=159.000,16.000=187.740,48.000=185.020,183.500=190.260,184.000=185.840,205.500=187.660,206.000=185.940,209.500=209.520,209.750=205.080,210.500=189.880,221.500=188.000;
#STOPS:18.000=0.005
,19.000=0.005
,20.000=0.005
,21.000=0.005
,22.000=0.005
,23.000=0.005
,24.000=0.005
,25.000=0.005
,26.000=0.010
,27.000=0.005
,28.000=0.010
,29.000=0.015
,30.000=0.015
,31.000=0.010
,32.000=0.010
,33.000=0.010
,34.000=0.015
,35.000=0.010
,36.000=0.015
,37.000=0.015
,38.000=0.015
,39.000=0.015
,40.000=0.010
,41.000=0.015
,42.000=0.005
,42.500=0.005
,44.500=0.005
,45.500=0.005
,46.000=0.005
,47.500=0.005
,48.500=0.005
,49.000=0.005
,50.000=0.005
,51.000=0.005
,51.500=0.005
,52.500=0.005
,53.000=0.005
,54.000=0.005
,54.500=0.005
,55.000=0.005
,56.000=0.005
,56.500=0.005
,57.000=0.005
,58.000=0.005
,58.500=0.005
,59.000=0.005
,60.000=0.005
,60.500=0.005
,61.000=0.005
,64.000=0.005
,64.500=0.005
,65.000=0.005
,65.500=0.005
,66.000=0.005
,66.500=0.005
,68.000=0.005
,69.500=0.005
,70.500=0.005
,71.500=0.005
,72.000=0.005
,72.500=0.005
,73.000=0.005
,73.500=0.005
,74.000=0.005
,74.500=0.005
,75.000=0.005
,76.000=0.005
,77.500=0.005
,78.500=0.005
,80.000=0.005
,83.500=0.005
,84.000=0.005
,85.000=0.005
,85.500=0.005
,88.000=0.005
,88.500=0.005
,89.500=0.005
,90.500=0.005
,91.000=0.005
,92.000=0.005
,93.500=0.005
,94.500=0.005
,95.000=0.005
,95.500=0.005
,96.500=0.005
,97.000=0.005
,97.500=0.005
,99.000=0.005
,99.500=0.005
,100.000=0.005
,101.000=0.005
,101.500=0.005
,102.000=0.010
,102.500=0.005
,103.000=0.005
,104.000=0.005
,104.500=0.005
,105.000=0.005
,105.500=0.005
,106.000=0.005
,107.500=0.005
,108.500=0.005
,109.500=0.005
,110.500=0.005
,111.000=0.005
,112.000=0.005
,113.000=0.005
,114.500=0.005
,115.500=0.005
,116.500=0.005
,117.000=0.005
,117.500=0.005
,118.500=0.005
,119.500=0.005
,120.500=0.005
,121.500=0.005
,122.500=0.005
,123.500=0.005
,124.500=0.005
,125.500=0.005
,126.500=0.005
,127.500=0.005
,128.500=0.005
,129.500=0.005
,130.500=0.005
,131.500=0.005
,132.000=0.005
,132.500=0.005
,133.000=0.005
,133.500=0.005
,134.500=0.005
,135.500=0.005
,137.000=0.005
,138.000=0.005
,141.500=0.005
,142.500=0.005
,143.000=0.005
,143.500=0.005
,144.000=0.005
,144.500=0.005
,146.000=0.005
,147.500=0.005
,148.000=0.005
,148.500=0.005
,149.000=0.005
,149.500=0.005
,150.000=0.005
,152.000=0.005
,152.500=0.005
,153.000=0.005
,154.000=0.005
,154.500=0.005
,155.500=0.005
,156.000=0.005
,157.500=0.005
,158.500=0.005
,159.500=0.005
,160.500=0.005
,161.500=0.005
,162.500=0.005
,163.500=0.005
,168.000=0.005
,168.500=0.005
,169.000=0.005
,169.500=0.005
,170.000=0.005
,171.000=0.005
,171.500=0.005
,173.000=0.005
,173.500=0.005
,174.000=0.005
,175.000=0.005
,175.500=0.005
,176.000=0.005
,177.000=0.005
,178.000=0.005
,180.000=0.005
,182.000=0.005
,182.500=0.005
,183.000=0.005
,185.000=0.005
,185.500=0.005
,186.000=0.005
,186.500=0.005
,187.000=0.005
,187.500=0.005
,188.000=0.005
,188.500=0.005
,189.000=0.005
,189.500=0.005
,190.000=0.010
,190.500=0.005
,191.000=0.005
,192.000=0.005
,193.500=0.005
,194.000=0.005
,195.000=0.005
,198.500=0.005
,199.500=0.005
,200.500=0.010
,201.500=0.010
,203.500=0.005
,204.000=0.005
,204.500=0.005
,205.000=0.005
,206.000=0.005
,207.000=0.005
,216.500=0.005
,217.000=0.005
,217.500=0.005
,218.000=0.005
,218.500=0.005
,219.500=0.005
,220.000=0.005
,220.500=0.005
,221.000=0.005
,221.500=0.010
,222.000=0.005
,222.500=0.005
,223.000=0.005
,223.500=0.005
,224.000=0.010
,224.500=0.005
,225.000=0.010
,225.500=0.005
,226.000=0.005
,226.500=0.010
,227.000=0.010
,227.500=0.005
,228.000=0.010
,228.500=0.005
,229.000=0.010
,229.500=0.005
,230.000=0.010
,230.500=0.005
,231.000=0.010
,231.500=0.005
,232.000=0.010
,232.500=0.005
,233.000=0.005
,233.500=0.010
,234.000=0.005
,234.500=0.010
,235.000=0.005
,236.500=0.005
,237.500=0.005
,238.000=0.010
,239.000=0.005
,239.500=0.010
,240.000=0.005
,240.500=0.010
,241.000=0.005
,241.500=0.005
,242.000=0.005
,242.500=0.005
,243.500=0.010
,244.000=0.005
,245.000=0.005
,245.500=0.005
,246.500=0.010
,247.500=0.010
,248.000=0.010
,248.500=0.010
,249.000=0.010
,249.500=0.005
,250.500=0.005
,251.000=0.005
,251.500=0.005
,252.000=0.005
,252.500=0.005
,255.500=0.005
,256.500=0.005
,257.000=0.005
,257.500=0.005
,258.000=0.005
,258.500=0.005
,259.000=0.005
,260.000=0.005
,261.000=0.010
,261.500=0.010
,262.000=0.005
,262.500=0.010
,268.000=0.005
,268.500=0.015
,269.000=0.015
,269.500=0.010
,270.000=0.015
,270.500=0.015
,271.000=0.005
,271.500=0.005
,272.000=0.005
,272.500=0.010
,273.000=0.005
,273.500=0.010
,274.000=0.005
,274.500=0.005
,275.000=0.005
,275.500=0.010
,276.000=0.005
,276.500=0.005
,277.000=0.010
,277.500=0.005
,278.000=0.005
,278.500=0.005
,279.000=0.010
,279.500=0.005
,280.000=0.005
,280.500=0.005
,281.000=0.005
,281.500=0.005
,282.000=0.005
,282.500=0.005
,283.000=0.005
,283.500=0.005
,284.000=0.005
,284.500=0.005
,285.000=0.005
,285.500=0.005
,286.000=0.005
,286.500=0.005
,287.000=0.005
,288.500=0.005
,289.000=0.005
,289.500=0.005
,290.000=0.005
,290.500=0.005
,291.000=0.005
,291.500=0.005
,292.000=0.005
,292.500=0.005
,293.000=0.005
,293.500=0.005
,295.500=0.005
,296.000=0.005
,296.500=0.015
,297.000=0.010
,297.500=0.015
,298.000=0.010
,298.500=0.010
,300.000=0.010
,301.000=0.005
,301.500=0.005
,302.000=0.010
,302.500=0.010
,303.000=0.010
,303.500=0.010
,304.000=0.005
,304.500=0.005
,305.000=0.005
,305.500=0.010
,306.000=0.005
,306.500=0.010
,307.500=0.005
,308.500=0.005
,309.000=0.010
,309.500=0.010
,310.000=0.005
,310.500=0.005
,311.000=0.005
,311.500=0.005
,312.000=0.005
,312.500=0.005
,313.000=0.005
,313.500=0.005
,314.000=0.005
,315.000=0.005
,315.500=0.005
,316.000=0.005
,316.500=0.005
,317.000=0.010
,317.500=0.005
,318.000=0.005
,318.500=0.005
,319.000=0.005
,319.500=0.005
,320.000=0.005
,320.500=0.005
,321.000=0.005
,321.500=0.005
,322.000=0.005
,322.500=0.005
,323.000=0.005
,323.500=0.005
,324.000=0.010
,324.500=0.005
,325.000=0.005
,325.500=0.005
,326.000=0.005
,327.000=0.005
,327.500=0.005
,329.000=0.005
,329.500=0.005
,330.000=0.005
,330.500=0.005
,331.000=0.005
,337.000=0.020
,337.500=0.020
,338.000=0.020
,338.500=0.025
,341.000=0.005
,343.500=0.005
,345.000=0.010
,345.500=0.020
,346.000=0.015
,346.500=0.005
,347.000=0.005
,347.500=0.005
,350.000=0.005
,351.000=0.005
,351.500=0.015
,352.000=0.010
,352.500=0.005
,353.000=0.005
,353.500=0.005
,354.000=0.005
,354.500=0.005
,355.500=0.010
,356.000=0.010
,356.500=0.005
,357.000=0.005
,357.500=0.005
,358.000=0.005
,358.500=0.010
,359.000=0.005
,359.500=0.005
,360.000=0.010
,360.500=0.010
,361.000=0.010
,361.500=0.010
,362.000=0.005
,362.500=0.005
,363.000=0.010
,363.500=0.005
,364.000=0.005
,364.500=0.005
,365.000=0.010
,365.500=0.005
,367.500=0.005
,368.000=0.010
,369.000=0.010
,369.500=0.005
,370.000=0.005
,370.500=0.005
,371.500=0.005
,372.500=0.005
,373.000=0.005
,375.000=0.010
,375.500=0.005
,376.000=0.010
,376.500=0.010
,377.000=0.005
,377.500=0.010
,378.000=0.005
,378.500=0.010
,379.000=0.005
,379.500=0.010
,380.000=0.005
,380.500=0.005
,381.500=0.005
,382.500=0.005
,383.500=0.005
,384.000=0.005
,384.500=0.005
,385.000=0.005
,385.500=0.005
,386.000=0.010
,386.500=0.010
,387.000=0.010
,387.750=0.005
,389.000=0.010
,389.500=0.005
,390.000=0.005
,391.000=0.005
,391.500=0.005
,392.000=0.005
,392.500=0.010
,394.000=0.010
,395.500=0.010
,396.000=0.005
,397.000=0.005
,398.000=0.005
,398.500=0.005
,399.000=0.005
,399.500=0.005
,400.000=0.010
,400.500=0.005
,401.000=0.010
,401.500=0.005
,402.000=0.010
,402.500=0.010
,403.000=0.010
,404.000=0.005
,404.500=0.010
,405.000=0.005
,405.500=0.005
,406.500=0.005
,407.000=0.005
,408.000=0.005
,408.500=0.005
,409.500=0.005
,410.000=0.005
,411.000=0.005
,412.000=0.010
,412.500=0.005
,413.000=0.005
,413.500=0.005
,414.000=0.005
,414.500=0.005
,415.000=0.005
,415.500=0.005
,416.000=0.005
,416.500=0.005
,417.000=0.005
,417.500=0.010
,418.000=0.005
,418.500=0.005
,419.000=0.005
,419.500=0.010
,420.000=0.005
,420.500=0.005
,421.000=0.005
,421.500=0.005
,422.000=0.005
,422.500=0.005
,423.000=0.005
,423.500=0.005
,424.000=0.005
,424.500=0.005
,425.000=0.005
,425.500=0.005
,426.000=0.005
,426.500=0.005
,427.000=0.005
,427.500=0.005
,428.000=0.005
,428.500=0.005
,429.000=0.005
,429.500=0.005
,430.000=0.005
,431.000=0.010
,431.500=0.010
,432.000=0.005
,432.500=0.005
,433.000=0.005
,433.500=0.005
,434.000=0.005
,435.000=0.005
,435.500=0.005
,436.000=0.010
,436.500=0.010
,437.000=0.005
,437.500=0.005
,438.000=0.005
,438.500=0.005
;
#BGCHANGES:;
// cache tags:
#FIRSTBEAT:16.000;
#LASTBEAT:438.438;
#SONGFILENAME:Songs/Astronomic Metal Collection 2/(Kil) Biaxident/biaxident.sm;
#HASMUSIC:1;
#HASBANNER:1;
#MUSICLENGTH:148.153;
// end cache tags

//---------------dance-single - ----------------
#NOTES:
     dance-single:
     :
     Hard:
     12:
     1.000,1.000,1.000,0.560,0.523,824.000,370.000,83.000,0.000,6.000:
0000
0000
0000
0000
,
0000
0000
0000
0000
,
0000
0000
0000
0000
,
0000
0000
0000
0000
,
1100
0000
0000
1000
0011
0000
0101
0000
,
0000
0000
0000
0000
0000
0000
0000
0000
0000
0000
0100
0000
1000
0000
0000
0100
0000
0000
0010
0000
0000
1000
0000
0000
0001
0000
0000
0000
0000
0000
0110
0000
0000
0000
0000
0000
1100
0000
0000
0000
0000
0000
1001
0000
0000
0000
0000
0000
,
0020
0130
0000
1001
0110
0000
0011
0000
,
0000
0001
0010
0100
1000
0100
0010
0001
,
1100
0000
0000
1000
0011
1000
0110
0000
,
1001
0000
0100
1010
0000
0010
0011
0000
,
1001
0000
0000
1100
0000
0000
1010
0000
,
1001
0001
0010
0010
0001
0001
0010
0010
,
1100
0000
0000
0000
0000
0000
0000
0000
0010
0000
0000
0000
0000
0000
0000
0000
0100
0000
0000
0000
0000
0000
0000
0000
1001
0000
0000
0000
0000
0000
0000
0000
0010
0000
0000
0000
0000
0000
0000
0000
1100
0000
0000
0000
0000
0000
0000
0000
0010
0000
0000
0000
0000
0000
0000
0200
0002
0000
0000
0000
0000
0000
0000
0000
,
0000
0000
0000
0000
0000
0000
0000
0000
0000
0000
0000
0000
0000
0000
0000
0000
0000
0000
0000
0000
0000
0000
0000
0000
0000
0000
0000
0000
0000
0000
0300
0000
0000
0003
0000
0000
0000
0000
0000
0000
0000
0000
0000
0000
0000
0000
0000
0000
2010
0000
0000
0000
0000
0000
0000
0000
0000
0000
0000
0000
0000
0000
0000
0000
0000
0000
0000
0000
0000
0000
0000
0000
0000
0000
0000
0000
0000
0000
0000
0000
3000
0000
0000
0000
0000
0000
0000
0000
0000
0000
0000
0000
0000
0000
0000
0000
0011
0000
0000
0000
0000
0000
0000
0000
0000
0000
0000
0000
0000
0000
0000
0000
0000
0000
0000
0000
0000
0000
0000
0000
0110
0000
0000
0000
0000
0000
0000
0000
0000
0000
0000
0000
0000
0000
0000
0000
0000
0000
0000
0000
0000
0000
0000
0000
0000
0000
0000
0000
0000
0000
0000
0000
0000
0000
0000
0000
0000
0000
0000
0000
0000
0000
0000
0000
0000
0000
0000
0000
0000
0000
0000
0000
0000
0000
0000
0000
0000
0000
0000
0000
0000
0000
0000
0000
0000
0000
0000
0000
0000
0000
0000
0000
,
1001
0001
0100
1001
0010
0100
1100
0010
,
0101
0000
0000
0000
0000
0000
0000
0000
0010
0000
0000
0000
0000
0000
0000
0000
1100
0000
0000
0000
0000
0000
0000
0000
0010
0000
0000
0000
0000
0000
0000
0000
0200
0002
0000
0000
0000
0000
0000
0000
0000
0000
0000
0000
0000
0000
0000
0000
0000
0300
0003
0000
0000
0000
0000
0000
2000
0000
0000
0000
0000
0000
0000
0000
,
0000
0000
0000
0000
0000
3000
0000
0000
0000
0000
0000
0000
0000
0000
0000
0000
0101
0000
0000
0000
0000
0000
0000
0000
0000
0000
0000
0000
0000
0000
0000
0000
0000
0000
0000
0000
0000
0000
0000
0000
0110
0000
0000
0000
0000
0000
0000
0000
1010
0000
0000
0000
0000
0000
0000
0000
0110
0000
0000
0000
0000
0000
0000
0000
,
0011
0110
1100
1001
0011
1000
0100
1001
,
0010
0000
0000
0000
0000
0000
0000
0000
0000
0000
0000
0000
0000
0000
0000
0000
0000
0000
0000
0000
0000
0000
0000
0000
1100
0000
0000
0000
0000
0000
0000
0000
0000
0000
0000
0000
0000
0000
0000
0000
0000
0000
0000
0000
0000
0000
0000
0000
0010
0000
0000
0000
0000
0000
0000
0000
0000
0000
0000
0000
0000
0000
0000
0000
0000
0000
0000
0000
0000
0200
0000
0000
0002
0000
0000
0000
0000
0000
0000
0000
0000
0000
0000
0000
0000
0000
0000
0000
0000
0000
0000
0000
0000
0000
0000
0000
0000
0000
0000
0000
0000
0000
0000
0000
0000
0000
0000
0000
0000
0000
0000
0000
0000
0000
0000
0000
0000
0000
0000
0000
0000
0000
0000
0000
0000
0000
0300
0000
0000
0003
0000
0000
0000
0000
0000
0000
0000
0000
0000
0000
0000
0000
0000
0000
2010
0000
0000
0000
0000
0000
0000
0000
0000
0000
0000
0000
0000
0000
0000
0000
0000
0000
0000
0000
0000
0000
0000
0000
0000
0000
0000
0000
0000
0000
0000
0000
3000
0000
0000
0000
0000
0000
0000
0000
0000
0000
0000
0000
0000
0000
0000
0000
,
0011
0110
0000
0000
0011
1100
0110
1001
,
0010
0000
0000
0000
0000
0000
0000
0000
0100
0000
0000
0000
0000
0000
0000
0000
1100
0000
0000
0000
0000
0000
0000
0000
0010
0000
0000
0000
0000
0000
0000
0000
0101
0000
0000
0000
0000
0000
0000
0000
0010
0000
0000
0000
0000
0000
0000
0000
1100
0000
0000
0000
0000
0000
0000
0000
0010
0000
0000
0000
0000
0000
0000
0200
,
0002
0000
0000
0000
0000
0000
0000
0000
0000
0000
0000
0000
0000
0000
0000
0000
0000
0000
0000
0000
0000
0000
0000
0000
0000
0000
0000
0000
0000
0000
0000
0000
0000
0000
0000
0000
0000
0000
0000
0000
0000
0000
0000
0000
0000
0000
0000
0000
0000
0000
0000
0000
0000
0000
0000
0000
0000
0300
0000
0000
0003
0000
0000
0000
0000
0000
0000
0000
0000
0000
0000
0000
2010
0000
0000
0000
0000
0000
0000
0000
0000
0000
0000
0000
0000
0000
0000
0000
0000
0000
0000
0000
0000
0000
0000
0000
0000
0000
0000
0000
0000
0000
0000
0000
3000
0000
0000
0000
0000
0000
0000
0000
0000
0000
0000
0000
0000
0000
0000
0000
0011
0000
0000
0000
0000
0000
0000
0000
0000
0000
0000
0000
0000
0000
0000
0000
0000
0000
0000
0000
0000
0000
0000
0000
0201
0000
0000
0000
0000
0000
0000
0000
0000
0000
0000
0000
0000
0000
0000
0000
0000
0000
0000
0000
0000
0000
0000
0000
0000
0000
0000
0000
0000
0000
0000
0000
0000
0000
0000
0000
0000
0000
0000
0000
0000
0000
0000
0000
0000
0000
0000
0000
,
0000
0300
0000
0000
0001
0000
0000
0000
1100
0000
0000
0000
0000
0000
0000
0000
1010
0000
0000
0000
0110
0000
0000
0000
0000
0000
0000
0000
0001
0000
0000
0000
,
1010
0000
0101
0011
0000
1001
1100
0101
,
0010
0000
0011
0100
1000
0000
0110
0000
0001
0000
0100
0000
0010
0000
1000
0000
,
0101
1010
0110
0011
0120
0000
0130
0011
,
0000
0000
0000
0000
0000
0000
0000
0000
0000
0000
0000
0000
0000
0000
0000
0000
0000
0000
0000
0000
0000
0000
0000
0000
0100
0000
0000
0000
0000
0000
0000
0000
0000
0000
0000
0000
0000
0000
0000
0000
0000
0000
0000
0000
0000
0000
0000
0000
0000
0000
0000
0000
0000
0000
0000
0000
0000
0000
0000
0000
0000
0000
0000
0000
0000
0000
0000
0000
0000
0000
0000
0000
1000
0000
0000
0000
0000
0000
0000
0000
0000
0000
0000
0000
0000
0000
0000
0000
0000
0000
0000
0000
0000
0000
0000
0000
0100
0000
0000
0000
0000
0000
0000
0000
0000
0000
0000
0000
0000
0000
0000
0000
0000
0000
0000
0000
0000
0000
0000
0000
1010
0000
0000
0000
0000
0000
0000
0000
0000
0000
0000
0000
0000
0000
0000
0000
0000
0000
0000
0000
0000
0000
0000
0000
0001
0000
0000
0000
0000
0000
0000
0000
0000
0000
0000
0000
0000
0000
0000
0000
0000
0000
0000
0000
0000
0010
0000
0000
0000
0000
0000
0000
0000
0000
0000
0000
0100
0000
0000
0000
0000
0000
0000
0000
1000
0000
0000
0000
0000
0000
0000
0000
,
0100
1000
0001
1100
0010
0100
0010
0001
,
1000
0000
0000
0000
0000
0000
0000
0000
0000
0000
0000
0000
0000
0000
0000
0000
0000
0000
0000
0000
0000
0000
0000
0000
0010
0000
0000
0000
0000
0000
0000
0000
0000
0000
0000
0000
0000
0000
0000
0000
0000
0000
0000
0000
0000
0000
0000
0000
0001
0000
0000
0000
0000
0000
0000
0000
0010
0000
0000
0000
0000
0000
0000
0000
0000
0000
0100
0000
0000
0000
0000
0000
0000
0000
0000
0000
0000
0000
0000
0000
0000
0000
0000
0000
0000
0000
0000
0000
0000
0000
0000
0000
0000
0000
0000
0000
1000
0000
0000
0000
0000
0000
0000
0000
0000
0000
0000
0000
0000
0000
0000
0000
0000
0000
0000
0000
0000
0000
0000
0000
0100
0000
0000
0000
0000
0000
0000
0000
0000
0000
0000
0000
0000
0000
0000
0000
0000
0000
0000
0000
0000
0000
0000
0000
1000
0000
0000
0000
0000
0000
0000
0000
0000
0000
0000
0000
0000
0000
0000
0000
0000
0000
0000
0000
0000
0000
0000
0000
0021
0000
0000
0000
0000
0000
0000
0000
0000
0000
0000
0000
0000
0000
0000
0000
0000
0000
0000
0000
0000
0000
0000
0000
,
0000
0000
0030
1100
0110
0011
0001
0010
,
1000
0100
1010
0101
0110
1010
0001
0010
,
0102
0000
0000
0003
0000
0000
0000
0000
0000
0000
0000
0000
0000
0000
0000
0000
0000
0000
0000
0000
0000
0000
0000
0000
2000
0000
0000
0000
0000
0000
0000
0000
0000
0000
0000
0000
0000
0000
0000
0000
0000
0000
0000
0000
0000
0000
0000
0000
0000
0000
0000
0000
0000
0000
0000
0000
0000
3000
0000
0000
0000
0000
0000
0000
0000
0000
0000
0000
0000
0000
0000
0000
0010
0000
0000
0000
0000
0000
0000
0000
0000
0000
0000
0000
0000
0000
0000
0000
0000
0000
0000
0000
0000
0000
0000
0000
0001
0000
0000
0000
0000
0000
0000
0000
0000
0000
0000
0000
0000
0000
0000
0000
0000
0000
0000
0000
0100
0000
0000
0000
0001
0000
0000
0000
0000
0000
0000
0000
0000
0000
0000
0000
0000
0000
0000
0000
0000
0000
0000
0000
1000
0000
0000
0000
0010
0000
0000
0000
0000
0000
0000
0000
0000
0000
0000
0000
0000
0000
0000
0000
0000
0000
0000
0000
0000
0000
0000
0000
0200
0000
0000
0000
0000
0000
0000
0000
0000
0000
0000
0000
0000
0000
0000
0000
0000
0000
0000
0000
0000
0000
0000
0000
,
0000
0000
0310
0011
0100
1100
0100
1000
,
0010
0001
0100
0011
1000
0010
0100
0001
,
1000
0000
0010
0000
0010
0001
0010
0000
0100
0000
1000
0000
0100
0000
0020
0000
,
0000
0001
0000
0031
0000
0000
0110
1010
,
0101
0110
0011
1001
1010
0101
0011
1100
,
1001
0000
1100
0000
0021
0000
0000
0000
0001
0030
0100
0000
1000
0000
0200
0000
,
0000
0000
0000
0000
0000
0000
0000
0000
0000
0000
0000
0000
0000
0000
0000
0000
0000
0000
0000
0000
0000
0000
0000
0000
0000
0000
0000
0000
0000
0000
0000
0000
0000
0000
0000
0000
0300
0000
0000
0000
0000
0000
0000
0000
0000
0000
0000
0000
0100
0000
0000
0000
0000
0000
0000
0000
0000
0000
0000
0000
0000
0000
0000
0000
0000
0000
0000
0000
0000
0001
0000
0000
0000
0000
0000
0000
0000
0000
0000
0000
0000
0000
0000
0000
0000
0000
0000
0000
0000
0000
0000
0000
0000
0000
0000
0000
0100
0000
0000
0000
0000
0000
0000
0000
0000
0000
0000
0000
0000
0000
0000
0000
0000
0000
0000
0000
0000
0000
0000
0000
1000
0000
0000
0000
0000
0000
0000
0000
0000
0000
0000
0000
0000
0000
0000
0000
0000
0000
0000
0000
0000
0010
0000
0000
0000
0000
0000
0000
0000
0000
0000
0000
0000
0000
0000
0000
0000
0000
0000
0000
0000
0000
0000
0000
0100
0000
0000
0000
0000
0000
0000
0000
0000
0000
0000
0000
0000
0000
0000
0000
0000
0000
0000
0000
0000
0000
0000
0000
0000
0000
0000
0000
,
1000
0000
0000
0000
0000
0000
0001
0000
0000
0000
0000
0020
0000
0000
0000
0000
0030
0000
0100
0000
0000
0000
0000
0000
0001
0000
0010
0000
0001
0000
0100
0000
0000
0000
0000
0000
1010
0000
0000
0001
0000
0000
0010
0000
0000
0000
0000
0000
,
1001
0000
0000
0000
0000
0000
0000
0000
0000
0000
0000
0000
0000
0000
0000
0000
0000
0000
0000
0000
0000
0000
0000
0000
0110
0000
0000
0000
0000
0000
0000
0000
0000
0000
0000
0000
0000
0000
0000
0000
0000
0000
0000
0000
0000
0000
0000
0000
1000
0000
0000
0000
0000
0000
0000
0000
0000
0000
0000
0000
0000
0000
0000
0000
0000
0000
0000
0000
0000
0000
0000
0000
0010
0000
0000
0000
0000
0000
0000
0000
0000
0000
0000
0000
0000
0000
0000
0000
0000
0000
0000
0000
0000
0000
0000
0000
0100
0000
0000
0000
0000
0000
0000
0000
0000
0000
0000
0000
0000
0000
0000
0000
0000
0000
0000
0000
0000
0000
0000
0000
1000
0000
0000
0000
0000
0000
0000
0000
0000
0000
0000
0000
0000
0000
0000
0000
0000
0000
0000
0000
0000
0000
0000
0000
0001
0000
0000
0000
0000
0000
0000
0000
0000
0000
0000
0000
0000
0000
0000
0000
0000
0000
0000
0000
0000
0010
0000
0000
0000
0000
0000
0000
0000
0000
0000
0000
0000
0000
0000
0000
0000
0000
0000
0000
0000
0000
0000
0000
1000
0000
0000
0000
,
0100
0000
0020
0000
0000
0030
0100
0000
0000
0000
0000
0000
0010
1000
0010
0100
,
0001
0000
0000
0000
0000
0000
0001
0000
0000
0000
0000
0000
0000
0100
0000
0000
0000
0000
1001
0000
0000
0000
0000
0000
1100
0000
0000
0000
0000
0000
0100
0000
0000
0000
0000
0000
0010
0000
0000
0000
0000
0000
1000
0000
0000
0000
0000
0000
,
0001
0200
0000
0000
0000
0000
0300
0021
,
0000
0000
0000
0000
0000
0000
0000
0000
0000
0000
0000
0000
0000
0000
0000
0000
0000
0000
0000
0000
0000
0000
0000
0000
1000
0000
0000
0000
0030
0000
0000
0000
0002
0003
0000
0000
0000
0000
0000
0000
0010
0000
0000
0000
0000
0000
0000
0000
0102
0003
0000
0000
0000
0000
0000
0000
0010
0000
0000
0000
0000
0000
0000
0000
,
0100
0000
0000
0000
0000
0000
1000
0000
0000
0000
0000
0000
0100
0000
0000
0000
0000
0000
0010
0000
0000
0000
0000
0000
1000
0000
0001
0000
0010
0000
0100
0000
0000
0000
0000
0000
1001
0000
0000
0010
0000
0000
0001
0000
0000
0000
0000
0000
,
0110
0000
0000
0000
0000
0000
1001
0000
0000
0000
0000
0000
1010
0000
0000
0000
0000
0000
0102
0000
0000
0000
0000
0000
0000
0000
0000
0000
0000
0020
0003
0000
0000
0000
0000
0000
0000
0000
0000
0030
0000
0000
0101
0000
0000
0000
0000
0000
,
1000
0100
0010
1000
0001
0100
0010
1000
,
0002
0000
0000
0003
0001
0010
1100
0000
0000
0000
0001
0000
0000
0000
0001
0000
,
0000
0000
0110
1010
0101
0110
0011
1001
,
1010
0000
0101
0000
0011
0000
1010
0000
0110
0000
1001
0000
0000
0000
1010
0110
,
0101
0000
0000
0000
0000
0000
0000
0000
1100
0000
0000
0000
0000
0000
0000
0000
1001
0000
0000
0000
0000
0000
0000
0000
0011
0000
0000
0000
0000
0000
0000
0000
1001
0000
0000
0000
0000
1010
0000
0000
0000
0000
1100
0000
0000
0000
0000
0000
0101
0000
0000
0000
0000
0000
0000
0000
1010
0000
0000
0000
0000
0000
0000
0000
,
1001
0000
0000
0000
0000
0000
0000
0000
0000
0000
0000
0000
0000
0000
0000
0000
1010
0000
0000
0000
0000
0000
0000
0000
0000
0000
0000
0000
0000
0000
0000
0000
1100
0000
0000
0000
0000
0000
0000
0000
0000
0000
0000
0000
0000
0000
0000
0000
1001
0000
0000
0000
0000
0000
0000
0000
0000
0000
0000
0000
0000
0000
0000
0101
0000
0000
0000
0000
0000
0000
0000
0000
0000
0000
0000
0000
0000
0000
0011
0000
0000
0000
0000
0000
0000
0000
0000
0000
0000
0000
0000
0000
0000
1100
0000
0000
0000
0000
0000
0000
0000
0000
0000
0000
0000
0000
0000
0000
0000
0000
0000
0000
0000
0000
0000
0000
0000
0000
0000
0000
1101
0000
0000
0000
0000
0000
0000
0000
0000
0000
0000
0000
0000
0000
0000
0000
0000
0000
0000
0000
0000
0000
0000
0000
1010
0000
0000
0000
0000
0000
0000
0000
0000
0000
0000
0000
0000
0000
0000
0000
0000
0000
0000
0000
0000
0000
0000
0000
0110
0000
0000
0000
0000
0000
0000
0000
0000
0000
0000
0000
0000
0000
0000
0000
0000
0000
0000
0000
0000
0000
0000
0000
,
1001
0000
0000
0101
0000
0000
1100
0000
0000
0001
1000
0001
1000
0001
1000
0001
1000
0001
1000
0001
1000
0001
1000
0000
,
0100
0000
1001
0000
0010
0100
1000
0001
0010
0100
0001
1000
0001
0100
0010
1000
,
0100
0010
0100
1000
0001
1000
0100
0010
0100
0001
1100
0000
1000
0000
1010
0000
,
0110
0000
0000
0000
0000
0000
0000
0000
1000
0000
0000
0000
0000
0000
0000
0000
0110
0000
0000
0000
0000
0000
0000
0000
0101
0000
0000
0000
0000
0000
0000
0000
0001
0010
0000
0000
0000
0000
0000
0000
0100
0000
0000
0000
0010
0000
0000
0000
0100
0000
0000
0000
1000
0000
0000
0000
0101
0000
0000
0000
0000
0000
0000
0000
,
1010
0000
0100
0000
1000
0100
0010
0001
1000
0100
0001
1000
0010
0100
0011
0000
,
1000
0000
0000
0000
0100
0000
0000
0000
0010
0000
0000
0000
0001
0000
0000
0000
0010
0000
0000
0000
0001
0000
0000
0000
1000
0000
0000
0000
0000
0000
0000
0000
0000
0000
0000
0000
0000
0000
0000
0000
1100
0000
0000
0000
0000
0000
0000
0000
0000
0001
0000
0000
0000
0000
0000
0000
0010
0000
0000
0000
0000
0000
0000
0000
,
0001
0000
0100
0000
0010
0000
1001
0000
0010
0100
1000
0001
0100
1000
0100
0001
,
0100
1000
0010
0000
0000
0000
0001
0000
0110
0000
1000
0000
1010
0000
1100
0000
,
0010
0000
1000
0000
0101
0000
0000
0000
0011
0000
0000
0000
1100
0000
0000
0000
0101
0000
0000
0000
0010
0000
0000
0000
0010
1000
0000
0000
0001
0100
0000
0000
,
1000
0000
0000
0000
0000
0000
0010
0000
0000
0000
0000
0000
0000
0000
0000
0000
0000
0000
0000
0000
0000
0000
0000
0000
0100
0000
0000
0000
0000
0000
0001
0000
0000
0000
0000
0000
0000
0000
0000
0000
0000
0000
0000
0000
0000
0000
0000
0000
0010
0000
0000
0000
0000
0000
1000
0000
0000
0000
0000
0000
0000
0000
0000
0000
0000
0000
0000
0000
0000
0000
0000
0000
0001
0000
0000
0000
0000
0000
0100
0000
0000
0000
0000
0000
0000
0000
0000
0000
0000
0000
0000
0000
0000
0000
0000
0000
0000
0000
0000
0000
1001
0000
0000
0000
0000
0000
0000
0000
0000
0000
0000
0000
0000
0000
0000
0000
0000
0000
0000
0000
0000
0000
0000
0011
0000
0000
0000
0000
0000
0000
0000
0000
0000
0000
0000
0000
0000
0000
0000
0000
0000
0000
0000
0000
0110
0000
0000
0000
0000
0000
0000
0000
0000
0000
0000
0000
0000
0000
0000
0000
0000
0000
0000
0000
0000
0000
0000
0000
0001
0000
0000
0000
0000
0000
0000
0000
0000
0000
0000
0000
0000
0000
0000
0000
0000
0000
0000
0000
0000
0000
0000
0000
,
1100
0000
0000
0000
1000
0100
0100
0010
0010
0001
0001
0001
0001
0010
0100
0000
,
1100
1010
0101
0110
,
0101
1100
0000
0000
1100
0000
0110
0000
,
0011
1010
1001
0011
,
0110
1001
0000
0011
0101
0000
0000
1100
,
0011
0000
0011
0000
1000
0101
0010
0001
,
0100
0010
1000
0010
0000
0100
1010
0101
,
1001
0000
0000
0000
0000
0000
0000
0000
0010
0000
0000
0000
0000
0100
0000
0000
0000
0000
0010
0000
0000
0000
0100
0000
0000
0000
0010
0000
0000
0100
0000
0000
0010
0000
0000
0000
0100
0000
0000
0010
0000
0000
0100
0000
0000
0010
0000
0000
0100
0000
0000
0000
0010
0000
0000
0000
1001
0000
0000
0000
0000
0000
0000
0000
,
0000
0000
0101
0000
0011
0000
0000
0000
1010
0000
0011
0000
0001
0100
0001
0010
,
0100
1000
0001
1000
0100
0010
0001
0100
0001
0010
0100
1000
0010
1000
0010
0100
,
0010
1000
0100
0010
0100
1000
0001
0010
0100
1000
0010
0100
1000
0001
0110
0000
,
0000
0000
0000
0000
0000
0000
0000
0000
0011
0000
0000
0000
0000
0000
0000
0000
1100
0000
0000
0000
0000
0000
0000
0000
0100
0010
0001
0000
0000
0000
0000
0000
0000
0000
0000
0000
0000
0000
0000
0000
1010
0000
0000
0000
0000
0000
0000
0000
0000
0000
0000
0000
0000
0000
0000
0000
1000
0000
0000
0000
0000
0000
0000
0000
,
0101
0000
0000
0000
1010
0100
0010
0001
0010
0100
1000
0010
0100
0010
0001
0010
,
0100
0000
0000
0000
0000
0000
0000
0000
0000
0000
0000
0000
1000
0000
0000
0000
0000
0000
0000
0000
0000
0000
0000
0000
0001
0000
0000
0000
0000
0000
0000
0000
0000
0000
0000
0000
0010
0000
0000
0000
0000
0000
0000
0000
0000
0000
0000
0000
0100
0000
0000
0000
0000
0000
0000
0000
0000
0000
0000
0000
1000
0000
0000
0000
0000
0000
0000
0000
0000
0000
0000
0000
0001
0000
0000
0000
0000
0000
0000
0000
0000
0000
0000
0000
0010
0000
0000
0000
0000
0000
0000
0000
0000
0100
0000
0000
0000
0000
0000
0000
0000
0000
0000
0000
0000
1000
0000
0000
0000
0000
0000
0000
0000
0000
0001
0000
0000
0000
0000
0000
0000
0000
0000
0010
0000
0000
0000
0000
0000
0000
0000
0000
0100
0000
0000
0000
0000
0000
1000
0000
0000
0000
0000
0000
0001
0000
0000
0000
0000
0000
0000
0000
0010
0000
0000
0000
0000
0000
0000
0000
0100
0000
0000
0000
1000
0000
0000
0000
0001
0000
0000
0000
0000
0000
0000
0000
0010
0000
0000
0000
0000
0000
0000
0000
0100
0000
0000
0000
0000
0000
0000
0000
,
1000
0000
0001
0000
0010
0000
0000
0000
0000
0000
0000
0000
0000
0000
0000
0000
0000
0000
0000
0000
0000
0000
0000
0000
0001
0000
0000
0010
0000
0000
0100
0000
0000
0010
0000
0000
0100
0000
0000
0001
0000
0000
1000
0000
0000
0100
0000
0000
,
0010
0100
1000
0001
1000
0100
0011
0000
0000
0000
0110
0000
1001
0000
0100
0000
,
0021
0000
0000
0030
1100
0000
0000
0000
1010
0000
0000
0000
0101
0000
0000
0000
,
0110
0000
0101
1100
0000
0000
1100
0000
,
0110
0011
1010
1001
,
0011
0000
0110
1001
0000
0011
0101
0000
,
0000
0000
0000
0000
0000
0000
0000
0000
0100
0010
0000
0000
0000
0000
0000
0000
0000
0000
0000
0000
0000
0000
0000
0000
0011
0000
0000
0000
0000
0000
0000
0000
1010
0000
0000
0000
0000
0000
0000
0000
0000
0000
0000
0000
0000
0000
0000
0000
0000
0000
0000
0000
0000
0000
0000
0000
0101
0000
0000
0000
0000
0000
0000
0000
,
0000
0000
0000
0000
0010
0000
0000
0000
1000
0000
0000
0000
0000
0000
0000
0000
0000
0000
0000
0000
0011
0000
0000
0000
2002
0000
0000
0000
0000
3003
0000
0000
,
0100
0011
1000
0110
1000
0011
1000
0110
,
1000
0000
0011
0000
2020
0000
0000
3030
0100
0000
1001
0000
0100
0000
0011
0000
,
0100
0000
1001
0000
0100
0000
0011
0000
0100
0000
1001
0000
0220
0000
0000
0330
,
1000
0101
0010
1100
0010
0101
1000
0101
,
0010
0000
1100
0000
0022
0000
0000
0033
0100
0000
1001
0000
0100
0000
0011
0000
,
0100
0000
0000
0000
0000
0000
0000
0000
1001
0000
0000
0000
0000
0000
0000
0000
0100
0000
0000
0000
0000
0000
0000
0000
0011
0000
0000
0000
0000
0000
0000
0000
0120
0030
0000
0000
0000
0000
0000
0000
0011
0000
0000
0000
0000
0000
0000
0000
2002
0000
0000
0000
0000
0000
0000
0000
0000
0000
3003
0000
0000
0000
0000
0000
,
0100
0011
1000
0110
1000
0011
1000
0110
,
1020
0030
0000
0000
0000
0000
0000
0000
0011
0000
0000
0000
0000
0000
0000
0000
2020
0000
0000
0000
0000
0000
0000
0000
0000
0000
0000
0000
3030
0000
0000
0000
0100
0000
0000
0000
0000
0000
0000
0000
1001
0000
0000
0000
0000
0000
0000
0000
0100
0000
0000
0000
0000
0000
0000
0000
0011
0000
0000
0000
0000
0000
0000
0000
,
0120
0030
0000
0000
0000
0000
0000
0000
1001
0000
0000
0000
0000
0000
0000
0000
0120
0030
0000
0000
0000
0000
0000
0000
0011
0000
0000
0000
0000
0000
0000
0000
0120
0030
0000
0000
0000
0000
0000
0000
1001
0000
0000
0000
0000
0000
0000
0000
0220
0000
0000
0000
0000
0000
0000
0000
0000
0000
0000
0000
0330
0000
0000
0000
,
1000
0101
0010
1100
0010
0101
1000
0101
,
1020
0030
0000
0000
0000
0000
0000
0000
1100
0000
0000
0000
0000
0000
0000
0000
0022
0000
0000
0000
0000
0000
0000
0000
0000
0000
0000
0000
0033
0000
0000
0000
0100
0000
0000
0000
0000
0000
0000
0000
1001
0000
0000
0000
0000
0000
0000
0000
0100
0000
0000
0000
0000
0000
0000
0000
0011
0000
0000
0000
0000
0000
0000
0000
,
0100
0000
0000
0000
0000
0000
0000
0000
0000
0000
0000
0000
0000
0000
0000
0000
0000
0000
0000
0000
0000
0000
0000
0000
0011
0000
0000
0000
0000
0000
0000
0000
0000
0000
0000
0000
0000
0000
0000
0000
0000
0000
0000
0000
0000
0000
0000
0000
1000
0000
0000
0000
0000
0000
0000
0000
0000
0000
0000
0000
0000
0000
0000
0000
0000
0000
0000
0000
0000
0000
0000
0000
0001
0000
0000
0000
0000
0000
0000
0000
0010
0000
0000
0000
0000
0000
0000
0000
0100
0000
0000
0000
0000
0000
0000
0000
1000
0000
0000
0000
0000
0000
0000
0000
0000
0000
0000
0000
0000
0000
0000
0000
0000
0000
0000
0000
0000
0000
0000
0000
0011
0000
0000
0000
0000
0000
0000
0000
0000
0000
0000
0000
0000
0000
0000
0000
0000
0000
0000
0000
0000
0000
0000
0000
2220
0000
0000
3330
0000
0000
0000
0000
0000
0000
0000
0000
0000
0000
0000
0000
0000
0000
0000
0000
0000
0000
0000
0000
0000
0000
0000
0000
0000
0000
0000
0000
0000
0000
0000
0000
0000
0000
0000
0000
0000
0000
0000
0000
0000
0000
0000
0000
,
0222
0000
0000
0000
0000
0000
0000
0000
0000
0000
0000
0333
0000
0000
0000
0000
1000
0000
0000
0000
0000
0000
0000
0000
0011
0000
0000
0000
0000
0000
0000
0000
0011
0000
0000
0000
0000
0000
0000
0000
0110
0000
0000
0000
0000
0000
0000
0000
0011
0000
0000
0000
0000
0000
0000
0000
0011
0000
0000
0000
0000
0000
0000
0000
,
0011
0000
0000
0000
0000
0000
0000
0000
0000
0000
0000
0000
0000
0000
0000
0000
0000
0000
0000
0000
0000
0000
0000
0000
0110
0000
0000
0000
0000
0000
0000
0000
0000
0000
0000
0000
0000
0000
0000
0000
0000
0000
0000
0000
0000
0000
0000
0000
0011
0000
0000
0000
0000
0000
0000
0000
0000
0000
0000
0000
0000
0000
0000
0000
0000
0000
0000
0000
0000
0000
0000
0000
0011
0000
0000
0000
0000
0000
0000
0000
0000
0000
0000
0000
0000
0000
0000
0000
0000
0000
0000
0000
0000
0000
0000
0000
2002
0000
0000
0000
0000
0000
0000
0000
0000
0000
0000
0000
0000
0000
0000
0000
0000
0000
3003
0000
0000
0000
0000
0000
0000
0000
0000
0000
0000
0000
0000
0000
2002
0000
0000
0000
0000
0000
0000
0000
0000
0000
0000
0000
0000
0000
0000
0000
0000
0000
0000
0000
3003
0000
0000
0000
0000
0000
0000
0000
0000
0000
0000
0000
0000
0000
0000
0000
0000
0000
0000
0000
0110
0000
0000
0000
0000
0000
0000
0000
0000
0000
0000
0000
0000
0000
0000
0000
0000
0000
0000
0000
0000
0000
0000
0000
,
0110
1100
0110
0110
0110
1100
0110
0110
,
0202
0000
0000
0000
0000
0303
1010
0000
0000
0101
0000
0000
0101
0000
0000
1010
0000
0000
0101
0000
0000
0101
0000
0000
,
0101
0000
1010
0000
0101
0000
0101
0000
2002
0000
0000
3003
1010
0000
1001
0000
,
0101
1010
1001
0101
1010
1001
0101
0101
,
0202
0000
0000
0303
1100
0000
0101
0000
0101
0000
1100
0000
0101
0000
0101
0000
,
0101
0000
0000
1100
0000
0000
0101
0000
0000
0101
0000
0000
0022
0000
0000
0000
0000
0033
1100
0000
0000
1001
0000
0000
,
1001
1100
1001
1001
1001
1100
1001
1001
,
0220
0000
0000
0000
0000
0330
1001
0000
0000
1100
0000
0000
0110
0000
0000
0011
0000
0000
1001
0000
0000
1100
0000
0000
,
0110
0000
0000
0011
0000
0000
1100
0000
0000
0110
0000
0000
2022
0000
0000
0000
0000
3033
0100
0000
0000
1001
0000
0000
,
0101
1010
0110
0101
1001
1010
0110
0101
,
2220
3330
0000
0000
0000
0000
0000
0000
0000
0000
0000
0000
0000
0000
0000
0000
2022
0000
0000
0000
0000
0000
0000
0000
3003
0000
0000
0000
0000
0000
0000
0000
0000
0000
0000
0000
0000
0000
0000
0030
0000
0000
0000
0000
0000
0000
0000
0000
0000
0000
0000
0000
0000
0000
0000
0000
0000
0000
0000
0000
0000
0000
0000
0000
;

//---------------dance-solo - Copied from----------------
#NOTES:
     dance-solo:
     Copied from:
     Hard:
     12:
     1.000,1.000,1.000,0.560,0.523,824.000,370.000,83.000,0.000,6.000:
000000
000000
000000
000000
,
000000
000000
000000
000000
,
000000
000000
000000
000000
,
000000
000000
000000
000000
,
100100
000000
000000
001000
010010
000000
001001
000000
,
000000
000000
000000
000000
000000
000000
000000
000000
000000
000000
000100
000000
001000
000000
000000
000010
000000
000000
000001
000000
000000
000010
000000
000000
000100
000000
000000
000000
000000
000000
001010
000000
000000
000000
000000
000000
010100
000000
000000
000000
000000
000000
100010
000000
000000
000000
000000
000000
,
000200
100300
000000
010100
010010
000000
000101
000000
,
000000
000010
000001
000010
000100
001000
010000
100000
,
010100
000000
000000
001000
000110
001000
010010
000000
,
001001
000000
010000
001100
000000
001000
000110
000000
,
001001
000000
000000
001010
000000
000000
010100
000000
,
100010
000010
000010
000010
000010
000010
000010
000010
,
100001
000000
000000
000000
000000
000000
000000
000000
000100
000000
000000
000000
000000
000000
000000
000000
001000
000000
000000
000000
000000
000000
000000
000000
100100
000000
000000
000000
000000
000000
000000
000000
000010
000000
000000
000000
000000
000000
000000
000000
100100
000000
000000
000000
000000
000000
000000
000000
001000
000000
000000
000000
000000
000000
000000
000020
002000
000000
000000
000000
000000
000000
000000
000000
,
000000
000000
000000
000000
000000
000000
000000
000000
000000
000000
000000
000030
003000
000000
000000
000000
020100
000000
000000
000000
000000
000000
000000
000000
000000
000000
000000
000000
030000
000000
000000
000000
001100
000000
000000
000000
000000
000000
000000
000000
001001
000000
000000
000000
000000
000000
000000
000000
000000
000000
000000
000000
000000
000000
000000
000000
000000
000000
000000
000000
000000
000000
000000
000000
,
100100
000100
000010
010100
000001
000010
100100
000010
,
001001
000000
000000
000000
000000
000000
000000
000000
000100
000000
000000
000000
000000
000000
000000
000000
010001
000000
000000
000000
000000
000000
000000
000000
000010
000000
000000
000000
000000
000000
000000
000000
002000
000002
000000
000000
000000
000000
000000
000000
000000
000000
000000
000000
000000
000000
000000
000000
000000
003000
000003
000000
000000
000000
000000
000000
000200
000000
000000
000000
000000
000000
000000
000000
,
000000
000000
000000
000300
000000
000000
000000
000000
000110
000000
000000
000000
000000
000000
000000
000000
000000
000000
000000
000000
010100
000000
000000
000000
011000
000000
000000
000000
001010
000000
000000
000000
,
000011
001010
001100
110000
000101
001000
000010
001001
,
100000
000000
000000
000000
000000
000000
000000
000000
011000
000000
000000
000000
000000
000000
000000
000000
000100
000000
000000
000000
000000
000000
000000
020000
000002
000000
000000
000000
000000
000000
000000
000000
000000
000000
000000
000000
000000
000000
000000
000000
000000
000000
030000
000000
000003
000000
000000
000000
001020
000000
000000
000000
000000
000000
000000
000000
000000
000000
000000
000000
000030
000000
000000
000000
,
010100
001010
000000
000000
001100
101000
000101
011000
,
000010
000000
000000
000000
000000
000000
000000
000000
000100
000000
000000
000000
000000
000000
000000
000000
001100
000000
000000
000000
000000
000000
000000
000000
001000
000000
000000
000000
000000
000000
000000
000000
010001
000000
000000
000000
000000
000000
000000
000000
000100
000000
000000
000000
000000
000000
000000
000000
010010
000000
000000
000000
000000
000000
000000
000000
001000
000000
000000
000000
000000
000000
000000
020000
,
000002
000000
000000
000000
000000
000000
000000
000000
000000
000000
000000
000000
000000
000000
000000
000000
000000
000000
000000
030000
000003
000000
000000
000000
001200
000000
000000
000000
000000
000000
000000
000000
000300
000000
000000
000000
000000
000000
000000
000000
110000
000000
000000
000000
000000
000000
000000
000000
000120
000000
000000
000000
000000
000000
000000
000000
000000
000000
000000
000000
000000
000000
000000
000000
,
000030
000100
101000
000000
001100
001010
000000
000100
,
000110
000000
010100
000101
000000
000110
110000
000101
,
000010
000000
000101
001000
010000
000000
101000
000000
000010
000000
010000
000000
000100
000000
001000
000000
,
011000
101000
011000
000101
001020
000000
010030
000101
,
000000
000000
000000
000000
000000
000000
000000
000000
000000
000000
000000
000000
000000
000000
000000
000000
000000
000000
000000
000000
000000
000000
000000
000000
000100
000000
000000
000000
000000
000000
000000
000000
000000
000000
000000
000000
000000
000000
000000
000000
000000
000000
000000
000000
000000
000000
000000
000000
000000
000000
000000
000000
000000
000000
000000
000000
000000
000000
000000
000000
000000
000000
000000
000000
000000
000000
000000
000000
000000
000000
000000
000000
001000
000000
000000
000000
000000
000000
000000
000000
000000
000000
000000
000000
000000
000000
000000
000000
000000
000000
000000
000000
000000
000000
000000
000000
010000
000000
000000
000000
000000
000000
000000
000000
000000
000000
000000
000000
000000
000000
000000
000000
000000
000000
000000
000000
000000
000000
000000
000000
110000
000000
000000
000000
000000
000000
000000
000000
000000
000000
000000
000000
000000
000000
000000
000000
000000
000000
000000
000000
000000
000000
000000
000000
001000
000000
000000
000000
000000
000000
000000
000000
000000
000000
000000
000000
000000
000000
000000
000000
000000
000000
000000
000000
000000
000001
000000
000000
000000
000000
000000
000000
000000
000000
000000
000000
000010
000000
000000
000000
000000
000000
000000
000000
000100
000000
000000
000000
000000
000000
000000
000000
,
001000
000010
001000
110000
000100
001000
000100
000001
,
000010
000000
000000
000000
000000
000000
000000
000000
000000
000000
000000
000000
000000
000000
000000
000000
000000
000000
000000
000000
000000
000000
000000
000000
001000
000000
000000
000000
000000
000000
000000
000000
000000
000000
000000
000000
000000
000000
000000
000000
000000
000000
000000
000000
000000
000000
000000
000000
000010
000000
000000
000000
000000
000000
000000
000000
000100
000000
000000
000000
000000
000000
000000
000000
000000
000000
001000
000000
000000
000000
000000
000000
000000
000000
000000
000000
000000
000000
000000
000000
000000
000000
000000
000000
000000
000000
000000
000000
000000
000000
000000
000000
000000
000000
000000
000000
010000
000000
000000
000000
000000
000000
000000
000000
000000
000000
000000
000000
000000
000000
000000
000000
000000
000000
000000
000000
000000
000000
000000
000000
100000
000000
000000
000000
000000
000000
000000
000000
000000
000000
000000
000000
000000
000000
000000
000000
000000
000000
000000
000000
000000
000000
000000
000000
010000
000000
000000
000000
000000
000000
000000
000000
000000
000000
000000
000000
000000
000000
000000
000000
000000
000000
000000
000000
000000
000000
000000
000000
000120
000000
000000
000000
000000
000000
000000
000000
000000
000000
000000
000000
000000
000000
000000
000000
000000
000000
000000
000000
000000
000000
000000
000000
,
000000
000000
000030
101000
001100
000110
000001
000010
,
000100
001000
110000
001010
001001
010010
000100
001000
,
001200
000000
000000
000300
000000
000000
000000
000000
000000
000000
000000
000000
000000
000000
000000
000000
000000
000000
000000
000000
000000
000000
000000
000000
020000
000000
000000
000000
000000
000000
000000
000000
000000
000000
000000
000000
000000
000000
000000
000000
000000
000000
000000
000000
000000
000000
000000
000000
000000
000000
000000
000000
000000
000000
000000
000000
000000
000000
000000
000000
030000
000000
000000
000000
000000
000000
000000
000000
000000
000000
000000
000000
000100
000000
000000
000000
000000
000000
000000
000000
000000
000000
000000
000000
000000
000000
000000
000000
000000
000000
000000
000000
000000
000000
000000
000000
000010
000000
000000
000000
000000
000000
000000
000000
000000
000000
000000
000000
000000
000000
000000
000000
000000
000000
000000
000000
001000
000000
000000
000000
000001
000000
000000
000000
000000
000000
000000
000000
000000
000000
000000
000000
000000
000000
000000
000000
000000
000000
000000
000000
010000
000000
000000
000000
000010
000000
000000
000000
000000
000000
000000
000000
000000
000000
000000
000000
000000
000000
000000
000000
000000
000000
000000
000000
000000
000000
000000
000000
000200
000000
000000
000000
000000
000000
000000
000000
000000
000000
000000
000000
000000
000000
000000
000000
000000
000000
000000
000000
000000
000000
000000
000000
,
000000
000000
001300
010010
000001
100100
001000
010000
,
001000
000010
000001
000110
010000
000100
100000
000010
,
001000
000000
000100
000000
000010
000001
000100
000000
001000
000000
010000
000000
100000
000000
200000
000000
,
000000
000010
000000
300010
000000
000000
001100
110000
,
001100
001010
000101
010010
101000
001100
001001
001100
,
010010
000000
100100
000000
002100
000000
000000
000000
000010
003000
000100
000000
010000
000000
000200
000000
,
000000
000000
000000
000000
000000
000000
000000
000000
000000
000000
000000
000000
000000
000000
000000
000000
000000
000000
000000
000000
000000
000000
000000
000000
000000
000000
000000
000000
000000
000000
000000
000000
000000
000000
000000
000000
000300
000000
000000
000000
000000
000000
000000
000000
000000
000000
000000
000000
000010
000000
000000
000000
000000
000000
000000
000000
000000
000000
000000
000000
000000
000000
000000
000000
000000
000000
000000
000000
000000
000100
000000
000000
000000
000000
000000
000000
000000
000000
000000
000000
000000
000000
000000
000000
000000
000000
000000
000000
000000
000000
000000
000000
000000
000000
000000
000000
001000
000000
000000
000000
000000
000000
000000
000000
000000
000000
000000
000000
000000
000000
000000
000000
000000
000000
000000
000000
000000
000000
000000
000000
000100
000000
000000
000000
000000
000000
000000
000000
000000
000000
000000
000000
000000
000000
000000
000000
000000
000000
000000
000000
000000
000010
000000
000000
000000
000000
000000
000000
000000
000000
000000
000000
000000
000000
000000
000000
000000
000000
000000
000000
000000
000000
000000
000000
000001
000000
000000
000000
000000
000000
000000
000000
000000
000000
000000
000000
000000
000000
000000
000000
000000
000000
000000
000000
000000
000000
000000
000000
000000
000000
000000
000000
,
000010
000000
000000
000000
000000
000000
000100
000000
000000
000000
000000
002000
000000
000000
000000
000000
003000
000000
000100
000000
000000
000000
000000
000000
010000
000000
001000
000000
000100
000000
000010
000000
000000
000000
000000
000000
100001
000000
000000
001000
000000
000000
000100
000000
000000
000000
000000
000000
,
000011
000000
000000
000000
000000
000000
000000
000000
000000
000000
000000
000000
000000
000000
000000
000000
000000
000000
000000
000000
000000
000000
000000
000000
011000
000000
000000
000000
000000
000000
000000
000000
000000
000000
000000
000000
000000
000000
000000
000000
000000
000000
000000
000000
000000
000000
000000
000000
000100
000000
000000
000000
000000
000000
000000
000000
000000
000000
000000
000000
000000
000000
000000
000000
000000
000000
000000
000000
000000
000000
000000
000000
000010
000000
000000
000000
000000
000000
000000
000000
000000
000000
000000
000000
000000
000000
000000
000000
000000
000000
000000
000000
000000
000000
000000
000000
010000
000000
000000
000000
000000
000000
000000
000000
000000
000000
000000
000000
000000
000000
000000
000000
000000
000000
000000
000000
000000
000000
000000
000000
100000
000000
000000
000000
000000
000000
000000
000000
000000
000000
000000
000000
000000
000000
000000
000000
000000
000000
000000
000000
000000
000000
000000
000000
000010
000000
000000
000000
000000
000000
000000
000000
000000
000000
000000
000000
000000
000000
000000
000000
000000
000000
000000
000000
000000
000100
000000
000000
000000
000000
000000
000000
000000
000000
000000
000000
000000
000000
000000
000000
000000
000000
000000
000000
000000
000000
000000
000000
001000
000000
000000
000000
,
010000
000000
200000
000000
000000
300000
000010
000000
000000
000000
000000
000000
000100
010000
000100
001000
,
000100
000000
000000
000000
000000
000000
000010
000000
000000
000000
000000
000000
000000
000001
000000
000000
000000
000000
100010
000000
000000
000000
000000
000000
101000
000000
000000
000000
000000
000000
010000
000000
000000
000000
000000
000000
001000
000000
000000
000000
000000
000000
000100
000000
000000
000000
000000
000000
,
000010
000200
000000
000000
000000
000000
000300
001002
,
000000
000000
000000
000000
000000
000000
000000
000000
000000
000000
000000
000000
000000
000000
000000
000000
000000
000000
000000
000000
000000
000000
000000
000000
010003
000000
000000
000000
000000
000000
000000
000000
002000
003000
000000
000000
000000
000000
000000
000000
000001
000000
000000
000000
000000
000000
000000
000000
001200
000300
000000
000000
000000
000000
000000
000000
000010
000000
000000
000000
000000
000000
000000
000000
,
000100
000000
000000
000000
000000
000000
010000
000000
000000
000000
000000
000000
100000
000000
000000
000000
000000
000000
001000
000000
000000
000000
000000
000000
000100
000000
000010
000000
000100
000000
001000
000000
000000
000000
000000
000000
001100
000000
000000
000010
000000
000000
000100
000000
000000
000000
000000
000000
,
000101
000000
000000
000000
000000
000000
101000
000000
000000
000000
000000
000000
110000
000000
000000
000000
000000
000000
001200
000000
000000
000000
000000
000000
000000
000000
000000
000000
000000
000020
000300
000000
000000
000000
000000
000000
000000
000000
000000
000030
000000
000000
000101
000000
000000
000000
000000
000000
,
001000
000100
000010
000001
100000
010000
001000
010000
,
000002
000000
000000
000003
000010
000100
011000
000000
000000
000000
100000
000000
000000
000000
100000
000000
,
000000
000000
001100
110000
001100
001010
000011
011000
,
001001
000000
010100
000000
010001
000000
010100
000000
000110
000000
100100
000000
000000
000000
110000
001100
,
000011
000000
000000
000000
000000
000000
000000
000000
001100
000000
000000
000000
000000
000000
000000
000000
101000
000000
000000
000000
000000
000000
000000
000000
000101
000000
000000
000000
000000
000000
000000
000000
001010
000000
000000
000000
000000
010100
000000
000000
000000
000000
110000
000000
000000
000000
000000
000000
000101
000000
000000
000000
000000
000000
000000
000000
001100
000000
000000
000000
000000
000000
000000
000000
,
100001
000000
000000
000000
000000
000000
000000
000000
000000
000000
000000
000000
000000
000000
000000
000000
000110
000000
000000
000000
000000
000000
000000
000000
000000
000000
000000
000000
000000
000000
000000
000000
001100
000000
000000
000000
000000
000000
000000
000000
000000
000000
000000
000000
000000
000000
000000
000000
101000
000000
000000
000000
000000
000000
000000
000000
000000
000000
000000
000000
000000
000000
000000
110000
000000
000000
000000
000000
000000
000000
000000
000000
000000
000000
000000
000000
000000
000000
000110
000000
000000
000000
000000
000000
000000
000000
000000
000000
000000
000000
000000
000000
000000
010010
000000
000000
000000
000000
000000
000000
000000
000000
000000
000000
000000
000000
000000
000000
000000
000000
000000
000000
000000
000000
000000
000000
000000
000000
000000
000000
001110
000000
000000
000000
000000
000000
000000
000000
000000
000000
000000
000000
000000
000000
000000
000000
000000
000000
000000
000000
000000
000000
000000
000000
110000
000000
000000
000000
000000
000000
000000
000000
000000
000000
000000
000000
000000
000000
000000
000000
000000
000000
000000
000000
000000
000000
000000
000000
000110
000000
000000
000000
000000
000000
000000
000000
000000
000000
000000
000000
000000
000000
000000
000000
000000
000000
000000
000000
000000
000000
000000
000000
,
000101
000000
000000
011000
000000
000000
010010
000000
000000
000001
100000
000001
100000
000001
100000
000001
100000
000001
100000
000001
100000
000001
100000
000000
,
000100
000000
000110
000000
000010
000100
001000
010000
100000
001000
100000
010000
000001
000010
000100
001000
,
000010
000100
001000
010000
000100
001000
010000
100000
000001
000010
001100
000000
100000
000000
010100
000000
,
000110
000000
000000
000000
000000
000000
000000
000000
010000
000000
000000
000000
000000
000000
000000
000000
010100
000000
000000
000000
000000
000000
000000
000000
001100
000000
000000
000000
000000
000000
000000
000000
000010
000001
000000
000000
000000
000000
000000
000000
000100
000000
000000
000000
001000
000000
000000
000000
010000
000000
000000
000000
100000
000000
000000
000000
010010
000000
000000
000000
000000
000000
000000
000000
,
010100
000000
001000
000000
100000
010000
000100
000001
010000
000100
000001
000010
000100
001000
000101
000000
,
100000
000000
000000
000000
010000
000000
000000
000000
001000
000000
000000
000000
000010
000000
000000
000000
010000
000000
000000
000000
000001
000000
000000
000000
000100
000000
000000
000000
000000
000000
000000
000000
000000
000000
000000
000000
000000
000000
000000
000000
011000
000000
000000
000000
000000
000000
000000
000000
000000
000001
000000
000000
000000
000000
000000
000000
000100
000000
000000
000000
000000
000000
000000
000000
,
000010
000000
000100
000000
001000
000000
010001
000000
000010
000100
001000
010000
000001
000010
000100
001000
,
010000
100000
000100
000000
000000
000000
000010
000000
011000
000000
000100
000000
101000
000000
001100
000000
,
000010
000000
001000
000000
010100
000000
000000
000000
000011
000000
000000
000000
101000
000000
000000
000000
001100
000000
000000
000000
000010
000000
000000
000000
000100
010000
000000
000000
100000
000001
000000
000000
,
001000
000000
000000
000000
000000
000000
000010
000000
000000
000000
000000
000000
000000
000000
000000
000000
000000
000000
000000
000000
000000
000000
000000
000000
000100
000000
000000
000000
000000
000000
010000
000000
000000
000000
000000
000000
000000
000000
000000
000000
000000
000000
000000
000000
000000
000000
000000
000000
000010
000000
000000
000000
000000
000000
001000
000000
000000
000000
000000
000000
000000
000000
000000
000000
000000
000000
000000
000000
000000
000000
000000
000000
000100
000000
000000
000000
000000
000000
010000
000000
000000
000000
000000
000000
000000
000000
000000
000000
000000
000000
000000
000000
000000
000000
000000
000000
000000
000000
000000
000000
001100
000000
000000
000000
000000
000000
000000
000000
000000
000000
000000
000000
000000
000000
000000
000000
000000
000000
000000
000000
000000
000000
000000
001001
000000
000000
000000
000000
000000
000000
000000
000000
000000
000000
000000
000000
000000
000000
000000
000000
000000
000000
000000
000000
010100
000000
000000
000000
000000
000000
000000
000000
000000
000000
000000
000000
000000
000000
000000
000000
000000
000000
000000
000000
000000
000000
000000
000000
000100
000000
000000
000000
000000
000000
000000
000000
000000
000000
000000
000000
000000
000000
000000
000000
000000
000000
000000
000000
000000
000000
000000
000000
,
010010
000000
000000
000000
100000
010000
010000
001000
001000
000100
000100
000100
000100
000010
000001
000000
,
110000
010100
001010
001001
,
010100
010010
000000
000000
110000
000000
101000
000000
,
001010
011000
001100
001001
,
001100
010010
000000
001100
010100
000000
000000
101000
,
000110
000000
000110
000000
100000
010001
000100
000001
,
000100
000010
001000
000100
000000
001000
101000
010010
,
001001
000000
000000
000000
000000
000000
000000
000000
000100
000000
000000
000000
000000
001000
000000
000000
000000
000000
000100
000000
000000
000000
001000
000000
000000
000000
000100
000000
000000
001000
000000
000000
000100
000000
000000
000000
001000
000000
000000
000100
000000
000000
001000
000000
000000
000100
000000
000000
001000
000000
000000
000000
000100
000000
000000
000000
000011
000000
000000
000000
000000
000000
000000
000000
,
000000
000000
000110
000000
000101
000000
000000
000000
000110
000000
101000
000000
000001
000010
000100
000010
,
000001
000010
000100
001000
010000
001000
010000
100000
010000
100000
000001
100000
000001
000010
000100
001000
,
000100
001000
010000
001000
010000
100000
000001
100000
000001
100000
000010
000001
000010
000100
011000
000000
,
000000
000000
000000
000000
000000
000000
000000
000000
000110
000000
000000
000000
000000
000000
000000
000000
011000
000000
000000
000000
000000
000000
000000
000000
001000
000100
000010
000000
000000
000000
000000
000000
000000
000000
000000
000000
000000
000000
000000
000000
001001
000000
000000
000000
000000
000000
000000
000000
000000
000000
000000
000000
000000
000000
000000
000000
001000
000000
000000
000000
000000
000000
000000
000000
,
001010
000000
000000
000000
100010
010000
001000
000100
000010
000001
000100
001000
010000
100000
000010
000100
,
001000
000000
000000
000000
000000
000000
000000
000000
000000
000000
000000
000000
010000
000000
000000
000000
000000
000000
000000
000000
000000
000000
000000
000000
000001
000000
000000
000000
000000
000000
000000
000000
000000
000000
000000
000000
000010
000000
000000
000000
000000
000000
000000
000000
000000
000000
000000
000000
000100
000000
000000
000000
000000
000000
000000
000000
000000
000000
000000
000000
001000
000000
000000
000000
000000
000000
000000
000000
000000
000000
000000
000000
010000
000000
000000
000000
000000
000000
000000
000000
000000
000000
000000
000000
100000
000000
000000
000000
000000
000000
000000
000000
000000
000001
000000
000000
000000
000000
000000
000000
000000
000000
000000
000000
000000
000010
000000
000000
000000
000000
000000
000000
000000
000000
000100
000000
000000
000000
000000
000000
000000
000000
000000
001000
000000
000000
000000
000000
000000
000000
000000
000000
010000
000000
000000
000000
000000
000000
100000
000000
000000
000000
000000
000000
000001
000000
000000
000000
000000
000000
000000
000000
000010
000000
000000
000000
000000
000000
000000
000000
000100
000000
000000
000000
001000
000000
000000
000000
010000
000000
000000
000000
000000
000000
000000
000000
100000
000000
000000
000000
000000
000000
000000
000000
000001
000000
000000
000000
000000
000000
000000
000000
,
000010
000000
000100
000000
001000
000000
000000
000000
000000
000000
000000
000000
000000
000000
000000
000000
000000
000000
000000
000000
000000
000000
000000
000000
000001
000000
000000
000100
000000
000000
001000
000000
000000
010000
000000
000000
001000
000000
000000
000100
000000
000000
000010
000000
000000
000100
000000
000000
,
001000
010000
100000
010000
001000
010000
100010
000000
000000
000000
000101
000000
100100
000000
001000
000000
,
100200
000000
000000
000300
110000
000000
000000
000000
101000
000000
000000
000000
001010
000000
000000
000000
,
001001
000000
001010
011000
000000
000000
110000
000000
,
101000
010010
010100
001100
,
001010
000000
011000
000110
000000
001100
010100
000000
,
000000
000000
000000
000000
000000
000000
000000
000000
000100
001000
000000
000000
000000
000000
000000
000000
000000
000000
000000
000000
000000
000000
000000
000000
001010
000000
000000
000000
000000
000000
000000
000000
011000
000000
000000
000000
000000
000000
000000
000000
000000
000000
000000
000000
000000
000000
000000
000000
000000
000000
000000
000000
000000
000000
000000
000000
000101
000000
000000
000000
000000
000000
000000
000000
,
000000
000000
000000
000000
001000
000000
000000
000000
100000
000000
000000
000000
000000
000000
000000
000000
000000
000000
000000
000000
001100
000000
000000
000000
000202
000000
000000
000000
000000
000303
000000
000000
,
001000
000110
001000
010100
100000
010010
000100
010001
,
000100
000000
101000
000000
020020
000000
000000
030030
000100
000000
001010
000000
010000
000000
000101
000000
,
100000
000000
001010
000000
000100
000000
011000
000000
000010
000000
101000
000000
000220
000000
000000
000330
,
001000
000101
000010
001100
010000
000110
001000
010100
,
001000
000000
100010
000000
020200
000000
000000
030300
001000
000000
010010
000000
000100
000000
001001
000000
,
010000
000000
000000
000000
000000
000000
000000
000000
100100
000000
000000
000000
000000
000000
000000
000000
001000
000000
000000
000000
000000
000000
000000
000000
000101
000000
000000
000000
000000
000000
000000
000000
010020
000030
000000
000000
000000
000000
000000
000000
001100
000000
000000
000000
000000
000000
000000
000000
002200
000000
000000
000000
000000
000000
000000
000000
000000
000000
003300
000000
000000
000000
000000
000000
,
010000
001100
010000
001001
000100
011000
000010
001001
,
120000
030000
000000
000000
000000
000000
000000
000000
000101
000000
000000
000000
000000
000000
000000
000000
202000
000000
000000
000000
000000
000000
000000
000000
000000
000000
000000
000000
303000
000000
000000
000000
000100
000000
000000
000000
000000
000000
000000
000000
001010
000000
000000
000000
000000
000000
000000
000000
010000
000000
000000
000000
000000
000000
000000
000000
001001
000000
000000
000000
000000
000000
000000
000000
,
012000
003000
000000
000000
000000
000000
000000
000000
000110
000000
000000
000000
000000
000000
000000
000000
002010
003000
000000
000000
000000
000000
000000
000000
000101
000000
000000
000000
000000
000000
000000
000000
102000
003000
000000
000000
000000
000000
000000
000000
100100
000000
000000
000000
000000
000000
000000
000000
000022
000000
000000
000000
000000
000000
000000
000000
000000
000000
000000
000000
000033
000000
000000
000000
,
001000
000101
000010
010100
100000
000110
001000
000101
,
102000
003000
000000
000000
000000
000000
000000
000000
100010
000000
000000
000000
000000
000000
000000
000000
002020
000000
000000
000000
000000
000000
000000
000000
000000
000000
000000
000000
003030
000000
000000
000000
010000
000000
000000
000000
000000
000000
000000
000000
100100
000000
000000
000000
000000
000000
000000
000000
000001
000000
000000
000000
000000
000000
000000
000000
100010
000000
000000
000000
000000
000000
000000
000000
,
010000
000000
000000
000000
000000
000000
000000
000000
000000
000000
000000
000000
000000
000000
000000
000000
000000
000000
000000
000000
000000
000000
000000
000000
000101
000000
000000
000000
000000
000000
000000
000000
000000
000000
000000
000000
000000
000000
000000
000000
000000
000000
000000
000000
000000
000000
000000
000000
001000
000000
000000
000000
000000
000000
000000
000000
000000
000000
000000
000000
000000
000000
000000
000000
000000
000000
000000
000000
000000
000000
000000
000000
000010
000000
000000
000000
000000
000000
000000
000000
001000
000000
000000
000000
000000
000000
000000
000000
000100
000000
000000
000000
000000
000000
000000
000000
001000
000000
000000
000000
000000
000000
000000
000000
000000
000000
000000
000000
000000
000000
000000
000000
000000
000000
000000
000000
000000
000000
000000
000000
010100
000000
000000
000000
000000
000000
000000
000000
000000
000000
000000
000000
000000
000000
000000
000000
000000
000000
000000
000000
000000
000000
000000
000000
022200
000000
000000
033300
000000
000000
000000
000000
000000
000000
000000
000000
000000
000000
000000
000000
000000
000000
000000
000000
000000
000000
000000
000000
000000
000000
000000
000000
000000
000000
000000
000000
000000
000000
000000
000000
000000
000000
000000
000000
000000
000000
000000
000000
000000
000000
000000
000000
,
002220
000000
000000
003330
010000
000000
000110
000000
000110
000000
101000
000000
000110
000000
000110
000000
,
000110
000000
000000
000000
000000
000000
000000
000000
000000
000000
000000
000000
000000
000000
000000
000000
000000
000000
000000
000000
000000
000000
000000
000000
101000
000000
000000
000000
000000
000000
000000
000000
000000
000000
000000
000000
000000
000000
000000
000000
000000
000000
000000
000000
000000
000000
000000
000000
000110
000000
000000
000000
000000
000000
000000
000000
000000
000000
000000
000000
000000
000000
000000
000000
000000
000000
000000
000000
000000
000000
000000
000000
000110
000000
000000
000000
000000
000000
000000
000000
000000
000000
000000
000000
000000
000000
000000
000000
000000
000000
000000
000000
000000
000000
000000
000000
000202
000000
000000
000000
000000
000000
000000
000000
000000
000000
000000
000000
000000
000000
000000
000000
000000
000000
000303
000000
000000
000000
000000
000000
000000
000000
000000
000000
000000
000000
000000
000000
000202
000000
000000
000000
000000
000000
000000
000000
000000
000000
000000
000000
000000
000000
000000
000000
000000
000000
000000
000000
000303
000000
000000
000000
000000
000000
000000
000000
000000
000000
000000
000000
000000
000000
000000
000000
000000
000000
000000
000000
001010
000000
000000
000000
000000
000000
000000
000000
000000
000000
000000
000000
000000
000000
000000
000000
000000
000000
000000
000000
000000
000000
000000
000000
,
001010
110000
001010
001010
001010
110000
001010
001010
,
002002
000000
000000
000000
000000
003003
000110
000000
000000
101000
000000
000000
101000
000000
000000
000110
000000
000000
101000
000000
000000
101000
000000
000000
,
101000
000000
000110
000000
101000
000000
101000
000000
020020
000000
000000
030030
100100
000000
001010
000000
,
010001
100100
001010
010001
100100
001010
010001
010001
,
020002
000000
000000
030003
011000
000000
001010
000000
001010
000000
011000
000000
001010
000000
001010
000000
,
001010
000000
011000
000000
001010
000000
001010
000000
000220
000000
000000
000330
110000
000000
000101
000000
,
000101
110000
000101
000101
000101
110000
000101
000101
,
200020
000000
000000
000000
000000
300030
010001
000000
000000
010010
000000
000000
100100
000000
000000
000110
000000
000000
010001
000000
000000
010010
000000
000000
,
100100
000000
000000
000110
000000
000000
010010
000000
000000
010100
000000
000000
200202
000000
000000
000000
000000
300303
001000
000000
000000
000110
000000
000000
,
011000
001010
100001
000110
011000
001010
100001
000110
,
002220
003330
000000
000000
000000
000000
000000
000000
000000
000000
000000
000000
000000
000000
000000
000000
200022
000000
000000
000000
000000
000000
000000
000000
300003
000000
000000
000000
000000
000000
000000
000000
000000
000000
000000
000000
000000
000000
000000
000030
000000
000000
000000
000000
000000
000000
000000
000000
000000
000000
000000
000000
000000
000000
000000
000000
000000
000000
000000
000000
000000
000000
000000
000000
;
