#TITLE:Brush the Dust Away;
#SUBTITLE:Clayman (2000);
#ARTIST:In Flames;
#TITLETRANSLIT:;
#SUBTITLETRANSLIT:;
#ARTISTTRANSLIT:;
#CREDIT:;
#BANNER:brush dust-banner.png;
#BACKGROUND:brush dust-bg.png;
#LYRICSPATH:;
#CDTITLE:melonman67.png;
#MUSIC:In Flames - Brush the Dust Away.mp3;
#OFFSET:1.340;
#SAMPLESTART:38.028;
#SAMPLELENGTH:11.960;
#SELECTABLE:YES;
#BPMS:0.000=164.000,348.000=164.200,396.000=164.000,488.000=164.500,504.000=164.000;
#STOPS:;
#BGCHANGES:;
// cache tags:
#FIRSTBEAT:4.000;
#LASTBEAT:526.000;
#SONGFILENAME:Songs/Astronomic Metal Collection/brush dust (melonman67)/brush dust.sm;
#HASMUSIC:1;
#HASBANNER:1;
#MUSICLENGTH:197.258;
// end cache tags

//---------------dance-single - Blank----------------
#NOTES:
     dance-single:
     Blank:
     Challenge:
     11:
     1.000,1.000,0.973,0.730,1.000,1195.000,192.000,144.000,0.000,0.000:
0000
0000
0000
0000
,
1000
0000
0001
0000
0010
0000
0100
0000
1000
0000
0100
0000
0010
0000
0001
0000
1000
0000
0010
0000
0100
0000
0001
0000
0010
0000
0000
0100
0000
0000
1000
0000
0000
0100
0000
0000
0010
0000
0000
0001
0000
0000
1000
0000
0000
0010
0000
0000
,
0100
0000
0001
0000
0010
0000
0100
0000
0010
0000
0001
0000
1000
0000
0100
0000
0010
0000
0100
0000
1000
0000
0001
0000
0010
0000
0000
0100
0000
0000
1000
0000
0000
0001
0000
0000
1000
0000
0000
0010
0000
0000
0100
0000
0000
0001
0000
0000
,
1000
0100
0100
0110
0010
0011
0001
0101
,
1001
0000
0000
0000
,
1010
0010
0010
0110
0100
0101
0001
0110
,
1100
2002
3003
0202
0000
0000
0000
0303
,
0101
0001
0001
0011
0010
0110
0100
1100
,
1001
0000
0000
0000
0000
0000
1000
0000
0000
0010
0000
0000
0000
0000
0000
0010
0000
0000
0100
0000
0000
0000
0000
0000
0001
0000
0010
0000
0100
0000
1000
0000
0100
0000
0010
0000
0001
0000
0000
0000
0000
0000
0000
0000
0000
0000
0000
0000
,
1001
1000
1000
1010
0010
0110
0100
0101
,
1010
2200
3300
0022
0000
0000
0000
0033
,
0020
0000
0000
0230
0300
0100
1000
0100
,
0010
0000
0000
0020
0000
0000
0000
0000
0000
0032
0000
0000
0000
0000
0000
0013
0001
0010
0100
0000
0000
1000
0000
0000
,
0020
0000
0000
0230
0300
0100
0001
0010
,
0100
2000
0000
3002
0000
0000
0000
0003
,
2020
0000
3030
0220
0330
1010
0110
0101
,
0011
0000
0000
0022
0000
0000
0033
0000
0000
0002
0000
0000
0000
0000
0000
0013
0001
0010
0100
0000
0000
1000
0000
0000
,
2002
0000
3003
2020
3030
1010
1100
1010
,
0110
0202
0303
0022
0000
0000
0000
0033
,
1001
0100
0010
0101
0010
1001
0100
1010
,
0101
0000
0000
0000
,
0011
0100
1000
0101
0010
1100
0001
1010
,
0101
0022
0033
2200
0000
0000
0000
3300
,
1001
0100
0010
0101
0010
1100
0010
1001
,
0100
0010
0001
0010
0100
0010
0001
1000
0010
0100
0001
0010
0100
1000
0100
0010
,
0001
0010
0001
1100
0010
1001
0100
1010
,
0101
0220
0330
2002
0000
0000
0000
3003
,
1000
0001
0010
0100
0010
0001
1000
0010
0100
0001
0010
0100
0010
0001
1000
0010
,
1000
0001
0100
0010
0100
0001
0010
0100
0010
0001
1000
0100
1000
0001
0010
0100
,
1000
0010
0100
0001
0010
0100
1000
0010
0100
0001
0100
0010
0100
0001
1000
0010
,
1000
0100
1000
0010
0100
0001
0010
0100
1000
0010
1000
0010
1000
0010
1000
0010
,
1000
0001
0100
1000
0100
0001
0010
0100
1000
0100
0001
0100
1000
0001
0100
0010
,
0100
0001
0010
1000
0010
0100
1000
0010
0001
0010
0100
1000
0100
0001
0010
0100
,
1000
0001
0010
0001
1000
0100
1000
0010
1000
0001
0100
0001
0010
1000
0010
0001
,
0010
0100
1000
0100
0010
0001
1000
0010
0100
0001
0100
0001
0100
0001
0100
0001
,
0200
0000
0000
0000
0000
0310
1000
0200
,
0000
0000
0310
0000
0001
0000
0001
0000
0100
0000
0010
1000
0100
0000
0010
0000
,
0012
0000
0000
0000
0000
1003
0010
0200
,
0000
0000
0301
0000
0001
0000
1000
0000
0100
0000
0010
0001
1000
0000
0001
0000
,
1002
0000
0000
0000
0000
0000
1000
0000
0000
0003
0000
0000
1001
0000
0000
0010
0001
0010
0100
0000
0000
2001
0000
0000
,
0000
0000
0001
3000
1001
0100
1000
0010
,
0102
0000
0000
0000
0000
0000
1000
0000
0000
0003
0000
0000
1001
0000
0000
0010
1000
0100
1000
0000
0000
2200
0000
0000
,
3300
0220
0330
0022
0033
0001
0010
0100
,
1002
0000
0000
0000
0000
0000
1000
0000
0000
0003
0000
0000
1001
0000
0000
0010
0001
0010
0100
0000
0000
2001
0000
0000
,
0000
0000
0001
3000
1001
0100
1000
0010
,
0102
0000
0000
0000
0000
0000
1000
0000
0000
0003
0000
0000
1001
0000
0000
0010
1000
0100
1000
0000
0000
2200
0000
0000
,
3300
0000
0220
0000
0330
0000
0022
0000
0033
0000
0001
0010
0100
1000
0001
0010
,
0100
1000
0010
0100
0001
0010
0100
1000
0010
0100
0010
1000
0001
0100
0010
0100
,
0001
0010
0100
1000
0010
0100
0001
0010
0100
1000
0100
0010
0100
0010
0001
0010
,
0001
1000
0001
0100
0010
0100
0001
0010
0100
0010
0001
1000
0001
1000
0010
1000
,
0100
1000
0010
0100
0001
0010
1000
0010
0001
1000
0001
0100
0010
0100
0001
1000
,
1001
0010
0100
1000
0010
0100
0010
1000
0001
0100
0010
0100
0001
0010
0100
1000
,
0010
0100
0001
0010
0100
1000
0100
0010
0100
0010
0001
0010
0001
1000
0001
0100
,
0010
0100
0001
0010
0100
0010
0001
1000
0001
1000
0010
1000
0100
1000
0010
0100
,
0001
0000
0000
0011
0000
0000
0110
0000
0000
1100
0000
0000
0101
0000
1010
0000
,
1001
1000
0010
0100
0001
1000
0010
0100
,
0001
0010
0100
1000
0001
0010
1000
0010
,
0001
1000
0010
0100
0001
1000
0010
0100
,
0202
0303
0220
0330
2020
3030
2200
3300
,
1000
0100
0010
0001
1000
0100
0010
0001
,
1000
0001
0100
0010
1000
0001
0100
0010
,
1000
0001
0010
0100
1000
0010
0100
0001
0010
0100
1000
0001
,
0010
0100
1000
0010
0100
0001
0010
0100
0010
0001
1000
0010
,
2000
0000
0000
0000
0000
0000
3002
0000
0000
0000
0000
0000
0013
0000
0000
0001
1000
0010
0100
0000
0000
0002
0000
0000
,
0000
0000
1003
0001
2000
0000
0000
0000
0000
0000
3000
0000
1001
0000
0101
0000
,
1020
0000
1030
0000
0010
1000
0100
2200
,
3300
0000
0000
1000
0000
0000
2002
0000
0000
3003
0000
0000
1000
0000
0000
0000
0001
0000
0010
0000
1000
0000
0010
0000
,
0002
0000
0000
0000
0000
0000
2003
0000
0000
0000
0000
0000
3100
0000
0000
1000
0001
0100
0010
0000
0000
2000
0000
0000
,
0000
0000
3001
1000
0002
0000
0000
0000
0000
0000
0003
0000
1001
0000
1010
0000
,
0201
0000
0001
0300
0100
0001
0010
0022
,
0033
0000
0000
0000
0000
0000
0001
0000
0000
0000
0000
0000
2002
0000
0000
0000
0000
0000
3003
0000
0000
0000
0000
0000
0001
0000
0000
0010
0000
0000
0100
0000
0010
0000
0001
0000
0010
0000
0100
0000
1000
0000
0100
0000
0000
0010
0000
0000
,
0002
0000
0000
0000
0000
0000
2003
0000
0000
0000
0000
0000
3100
0000
0000
1000
0001
0100
0010
0000
0000
2000
0000
0000
,
0000
0000
3001
1000
0002
0000
0000
0000
0000
0000
0003
0000
1001
0000
1010
0000
,
0102
0000
0100
0003
0101
0001
0110
0022
,
0033
0001
2002
0000
0000
0000
0000
3003
,
2001
0000
0000
0000
0000
0000
3002
0000
0000
0000
0000
0000
0013
0000
0000
0001
1000
0010
0100
0000
0000
0002
0000
0000
,
0000
0000
1003
0001
2000
0000
0000
0000
0000
0000
3000
0000
1001
0000
0101
0000
,
1020
0000
1000
0030
1010
1000
0110
2200
,
3300
1000
2002
0000
0000
0000
0000
3003
,
1200
0000
0000
0000
0000
0000
1000
0000
0000
0300
0000
0000
1001
0000
0000
0001
1000
0010
0100
0000
0000
0001
0000
0000
,
1001
0000
1000
0010
0200
0000
0000
0000
0001
0000
0300
0000
0101
0000
0110
0000
,
2010
0000
0100
3000
2100
0001
3010
2020
,
3030
0110
0202
0000
0000
0000
0000
0303
,
0021
0000
0000
0000
0000
0000
0001
0000
0000
0030
0000
0000
1001
0000
0000
1000
0001
0100
0010
0000
0000
1000
0000
0000
,
1001
0000
0001
0100
0020
0000
0000
0000
1000
0000
0030
0000
1010
0000
0110
0000
,
0102
0000
0010
0003
0012
1000
0103
2000
,
0002
0000
3003
0000
0000
0000
0000
0000
1000
0100
1000
0100
0010
0100
0010
0001
,
0020
0000
0000
0000
0030
0001
0000
1000
,
0001
0100
0010
2000
0000
0000
0000
0000
0000
0000
0000
0000
0000
0000
0000
3000
0000
0000
1010
0000
0000
0101
0000
0000
,
0011
0001
0010
0100
0010
0001
1000
0010
,
0100
0001
0010
0200
0000
0000
0000
0000
,
1300
0001
1000
0020
0000
0000
0000
0030
,
0101
0011
0110
2200
0000
3300
1100
0011
,
1000
0001
1000
0010
0100
0001
0100
0010
1000
0001
0010
0100
0010
0001
1000
0100
,
0010
0001
1000
0010
0100
0001
0010
0100
1000
0000
0000
1000
0100
0000
0010
0000
,
0001
1000
0100
0010
0100
0010
0001
0010
0100
0010
0100
1000
,
0001
1000
0010
0100
0010
0100
0001
0100
0010
0100
0010
1000
,
0001
1000
0100
0010
0100
0010
0001
0010
0100
0010
0001
1000
,
0200
0000
0300
0000
,
1200
0000
1000
2300
3100
1000
1100
0010
,
0120
0000
0000
0000
0000
0000
0001
0000
0000
0032
0000
0000
0000
0000
0000
0013
0001
0010
0100
0000
0000
1000
0000
0000
,
1200
0000
1000
2300
3000
1000
1100
0010
,
0110
0000
0010
0000
0001
0000
1000
0000
0100
0010
0001
0010
0100
1000
0100
0010
,
2200
3300
0100
0110
0001
1100
0110
0011
,
0202
0000
0000
0303
0000
0000
0101
0000
0000
0011
0000
0000
0001
0000
0000
0010
0001
0010
0100
0000
0000
1000
0000
0000
,
2200
3300
0100
0110
0001
1100
1010
0110
,
1001
0000
0101
0000
0010
0000
0011
0000
0001
1000
0010
0100
0001
0010
0100
0010
,
0001
1000
1000
0110
1000
1010
0010
0101
,
1001
1000
0010
0100
0001
0010
0100
1000
,
1001
0001
0010
0110
0100
1001
1000
1010
,
0101
2020
3030
2200
0000
0000
0000
3300
,
1001
0001
0001
0110
0001
0101
0100
1010
,
1001
0101
1000
0011
1000
1001
1000
0110
,
1001
1000
0100
0110
0010
1001
0001
0101
,
1010
1100
0100
1001
1000
0010
0100
0001
,
1000
0001
0100
0010
0100
0001
0010
0100
1000
0010
0100
0001
0010
0100
0010
0001
,
0010
0100
1000
0100
0010
0100
1000
0100
0010
0001
0010
0100
0010
0001
1000
0010
,
0100
0010
1000
0010
0100
0001
0100
0010
0100
0001
0010
0001
0010
0100
1000
0100
,
0010
0100
1000
0100
0010
0001
1000
0001
0100
0010
0100
0001
1000
0001
0010
0100
,
1000
0001
0100
0010
0100
0001
0010
0100
1000
0010
0100
0001
0010
0100
0010
0001
,
0010
0100
1000
0100
0010
0100
1000
0100
0010
0001
0010
0100
0010
0001
1000
0010
,
0100
0010
1000
0010
0100
0001
0100
0010
0100
0001
0010
0001
0010
0100
1000
0100
,
0010
0000
0000
0001
0000
0000
1000
0000
0010
0000
0000
0100
0000
0000
0001
0000
,
1000
0100
0001
0100
1000
0010
0001
0010
0100
1000
0100
0001
0010
1000
0010
0100
,
0001
0100
1000
0010
0100
0001
0100
1000
0100
0010
1000
0100
0001
0100
1000
0001
,
0100
1000
0100
0001
0010
1000
0010
0001
1000
0010
0001
0010
1000
0100
0010
0001
,
1000
0010
0001
0010
1000
0100
0001
0100
1000
0001
0010
0100
1000
0100
0010
0001
,
1000
0100
0001
0100
1000
0010
0001
0010
0100
1000
0100
0001
0010
1000
0010
0100
,
0001
0100
1000
0010
0100
0001
0100
1000
0100
0010
1000
0100
0001
0100
1000
0001
,
1000
0001
0100
0010
0100
0010
1000
0001
0010
0100
1000
0010
,
0101
1000
0010
0100
0001
1000
0010
0100
0001
0010
0100
0010
,
2002
0000
3003
0000
;
