#TITLE:Never Give Enough;
#SUBTITLE:;
#ARTIST:Positive Power;
#TITLETRANSLIT:;
#SUBTITLETRANSLIT:;
#ARTISTTRANSLIT:;
#CREDIT:;
#BANNER:Never Give Enough.png;
#BACKGROUND:Never Give Enough BG.png;
#LYRICSPATH:;
#CDTITLE:2kM OneHand.png;
#MUSIC:Never Give Enough.ogg;
#OFFSET:0.200;
#SAMPLESTART:94.500;
#SAMPLELENGTH:12.000;
#SELECTABLE:YES;
#BPMS:0.000=124.080;
#STOPS:;
#BGCHANGES:;
// cache tags:
#FIRSTBEAT:1.000;
#LASTBEAT:262.250;
#SONGFILENAME:Songs/Fabulously Fresh Flock of Fantastic Files F5/(2kM) Never Give Enough/Never Give Enough.sm;
#HASMUSIC:1;
#HASBANNER:1;
#MUSICLENGTH:133.000;
// end cache tags

//---------------dance-single - Copied from----------------
#NOTES:
     dance-single:
     Copied from:
     Hard:
     10:
     0.753,0.838,0.632,0.030,1.000,605.000,84.000,4.000,0.000,8.000:
0000
0000
0000
0000
0001
1000
0001
1000
0010
0100
0010
0100
0001
1000
0001
1000
,
0010
0100
0010
1000
0000
0100
0000
0010
0000
0000
0001
0000
0100
0000
0000
0000
,
0010
1000
0001
0010
0000
0100
0000
1000
0000
0000
0100
0000
1000
0000
0000
0000
,
0001
0010
0100
0010
0000
0001
0000
1000
0000
0000
0010
0000
0100
0000
0000
0000
,
0001
1000
0100
0010
0000
0100
0000
1000
0000
0000
0010
0000
0100
0000
0000
0000
,
0001
0100
1000
0010
0000
0001
0000
1000
0000
0000
0100
0000
0001
0000
0000
0000
,
1000
0100
0001
0010
0000
0001
0000
0010
0000
0000
0100
0000
1000
0000
0000
0000
,
0100
0010
0001
0100
0000
1000
0000
0010
0000
0000
0100
0000
0001
0000
0000
0000
,
1000
0100
0001
0010
0000
1000
0000
0001
0000
0000
0010
0000
1000
0000
0000
0000
,
0001
1000
0010
1000
0000
0010
0000
0100
0000
0000
0010
0000
0010
0100
1000
0010
,
0100
0001
0100
0001
0000
0100
0000
0010
0000
0000
1000
0000
0100
0010
0001
0100
,
0010
0100
0001
0010
0000
0001
0000
0010
0000
0000
0100
0000
1000
0010
0100
0010
,
0100
0001
0010
0001
0000
1000
0000
0010
0000
0000
0100
0000
0001
1000
0100
0010
,
0001
0100
1000
0001
0000
0010
0000
0100
0000
0000
1000
0000
0100
0010
1000
0010
,
0100
0010
0001
1000
0000
0100
0000
0010
0000
0000
0001
0000
0100
1000
0001
0100
,
1000
0010
0100
0001
0000
1000
0000
0010
0000
0000
1000
0000
0001
1000
0100
0010
,
1001
0100
0010
0100
1001
0010
0100
0010
1001
0100
0010
0100
1001
0010
0100
0010
,
1001
0000
0000
0000
1000
0000
0000
0100
0000
0000
0010
0000
0000
0001
0000
0000
,
1000
0000
0000
0000
0001
0000
0000
0010
0000
0000
0100
0000
0000
1000
0000
0000
,
0010
0000
0000
0000
0100
0000
0000
0001
0000
0000
0010
0000
0000
0100
0000
0000
,
1000
0000
0000
0000
0100
0000
0000
0010
0000
0000
0001
0000
0000
0100
0000
0000
,
1001
0000
0000
0000
0100
0000
0100
0001
0000
0001
1000
0000
1000
0010
0000
0010
,
0100
0000
0000
0000
0010
0000
0010
1000
0000
1000
0001
0000
0001
0100
0000
0100
,
0010
0000
0000
0000
1000
0000
1000
0010
0000
0010
0100
0000
0100
0001
0000
0001
,
0010
0000
0000
0000
0010
0000
0010
0100
0000
0100
1000
0000
1000
0001
0000
0001
,
0110
1000
0010
0100
0000
0011
0000
1100
0000
0000
1001
0000
0101
0000
0000
0000
,
1100
0010
0100
0001
0000
1100
0000
0011
0000
0000
1001
0000
1100
0000
0000
0000
,
0011
0100
1000
0010
0000
1001
0000
0110
0000
0000
1001
0000
0110
0000
0000
0000
,
1010
0100
0001
0010
0000
1100
0000
0110
0000
0000
0011
0000
0110
0000
0000
0000
,
1001
0010
0100
0001
0000
0110
0000
0101
0000
0000
0110
0000
1010
0000
0000
0000
,
1100
0010
0100
0001
0000
1010
0000
0101
0000
0000
1100
0000
0011
0000
0000
0000
,
1001
0010
1000
0100
0000
1001
0000
1010
0000
0000
0110
0000
1100
0000
0000
0000
,
1100
0001
1000
0010
0000
1010
0000
0101
0000
0000
1100
0000
1010
0000
0000
0000
,
1001
0000
0000
0000
0000
0000
0000
0000
1100
0000
0000
0110
0000
0000
0011
0000
,
1101
0000
0000
0000
0000
0000
0000
0000
0011
0000
0000
1100
0000
0000
0110
0000
,
1110
0000
0000
0000
0000
0000
0000
0000
1010
0000
0000
0110
0000
0000
1010
0000
,
1011
0000
0000
0000
0000
0000
0000
0000
1001
0000
0000
0101
0000
0000
1100
0000
,
0111
0000
0000
0000
0000
0000
0000
0000
0110
0000
0000
0101
0000
0000
1100
0000
,
1011
0000
0000
0000
0000
0000
0000
0000
0110
0000
0000
0101
0000
0000
0011
0000
,
1101
0000
0000
0000
0000
0000
0000
0000
0101
0000
0000
1010
0000
0000
1010
0000
,
0111
0000
0000
0000
0000
0000
0000
0000
1010
0000
0000
0011
0000
0000
0101
0000
,
1110
1001
0000
0000
,
0000
0002
0000
0000
0000
0000
0003
0000
,
0000
0000
0100
0000
0010
0000
1000
0100
0000
0000
1000
0000
0001
0000
0020
0000
,
0000
0000
0000
0000
0000
0000
0030
0000
0000
0000
0000
0000
0100
0000
1000
0001
,
0000
0000
0000
0000
0100
0000
0000
0010
0000
0000
0100
0000
0000
0000
0000
0000
,
0000
0000
0000
0000
0001
0000
0000
1000
0000
0000
0100
0000
0000
0000
0010
0001
,
0000
0000
0000
0000
0100
0000
0000
0010
0000
0000
1000
0000
0000
0000
0000
0000
,
0000
0000
0000
0000
0010
0000
0000
0100
0000
0100
0001
0000
0100
0000
0010
1000
,
0001
0010
0100
1000
0010
0100
0001
1000
0001
0010
0001
0010
0100
1000
0100
1000
,
0010
0001
1000
0001
0010
0100
0010
1000
0100
0010
0001
1000
0001
0010
0100
1000
,
0010
0100
0001
0010
0100
1000
0010
0100
0001
1000
0001
0010
1000
0100
0010
1000
,
0001
0010
0100
0010
0001
1000
0010
0100
0001
0010
0100
1000
0010
0100
0010
1000
,
0001
0010
1000
0001
0100
0010
0001
1000
0100
0010
0100
1000
0001
1000
0100
0001
,
0010
0001
1000
0001
0010
0100
0010
0001
1000
0010
0100
0010
1000
0001
0010
0100
,
0001
1000
0010
0100
0001
1000
0001
0010
0100
1000
0010
0100
0001
0010
1000
0100
,
0010
0001
1000
0100
0001
0010
0100
1000
0010
0001
0100
0010
1000
0001
0010
0100
,
1001
0100
0001
0010
0100
1000
0010
0100
0001
1000
0100
0010
0100
1000
0001
0100
,
0010
1000
0001
0100
0010
0100
0001
1000
0001
0010
0100
0001
1000
0100
0010
1000
,
0001
0010
0100
1000
0010
0100
1000
0001
0010
1000
0100
0010
0001
1000
0010
0001
,
1000
0100
1000
0001
0010
0100
0001
0010
0100
1000
0010
0100
0001
0010
0100
1000
,
0010
0100
0001
1000
0001
0010
1000
0100
0010
1000
0001
0010
0100
1000
0010
0100
,
0001
1000
0001
0010
0001
0010
0100
1000
0100
1000
0001
1000
0010
0100
0001
1000
,
0010
0100
0010
1000
0001
1000
0100
0010
0100
1000
0001
1000
0001
0010
0100
1000
,
0010
0100
0001
1000
0100
0010
0001
1000
0010
0100
1001
0000
0110
0000
2002
0000
,
0000
0000
0000
0000
0000
0000
0000
0000
0000
3003
0000
0000
0000
0000
0000
0000
;
