#TITLE:Z;
#SUBTITLE:;
#ARTIST:DM Ashura;
#TITLETRANSLIT:;
#SUBTITLETRANSLIT:;
#ARTISTTRANSLIT:;
#CREDIT:;
#BANNER:z.png;
#BACKGROUND:Z-bg.png;
#LYRICSPATH:;
#CDTITLE:cdtitle.png;
#MUSIC:Z.mp3;
#OFFSET:-6.440;
#SAMPLESTART:92.794;
#SAMPLELENGTH:11.740;
#SELECTABLE:YES;
#BPMS:0.000=300.020,256.000=150.010,296.000=300.020;
#STOPS:;
#BGCHANGES:;
// cache tags:
#FIRSTBEAT:0.000;
#LASTBEAT:568.000;
#SONGFILENAME:Songs/IzzySM Keyboard Mega Pack/DMA-Z/Z.sm;
#HASMUSIC:1;
#HASBANNER:1;
#MUSICLENGTH:131.270;
// end cache tags

//---------------dance-single - ----------------
#NOTES:
     dance-single:
     :
     Easy:
     7:
     0.472,0.703,0.267,0.320,0.004,357.000,35.000,42.000,0.000,0.000:
1000
0000
1000
0000
,
1000
0100
0010
0001
,
0001
0000
0001
0000
,
0001
0010
0100
1000
,
1000
0000
1000
0000
,
1000
0010
0100
0001
,
0001
0000
0001
0000
,
0001
0010
0100
1000
,
1000
0000
1001
0000
,
1000
0100
0010
0100
,
0010
0000
1001
0000
,
0001
0010
0100
0010
,
0100
0000
1001
0000
,
1000
0100
0010
0001
,
1000
0000
1000
0000
,
1000
0000
0001
0001
,
1001
0000
0000
1010
,
0000
0000
0001
1000
,
1001
0000
0000
0001
,
0000
0001
0010
0100
,
1000
0000
0000
1010
,
0000
0000
1000
0010
,
1000
0000
0000
0101
,
0000
0000
0001
1000
,
1001
0000
0000
1100
,
0000
0000
1000
0100
,
0010
0000
0000
1001
,
0000
0010
0100
0010
,
0100
0000
0000
1010
,
0000
0000
0001
0010
,
0100
0000
1000
0000
,
0001
0000
1000
0000
0001
1000
0001
0000
,
2002
0000
0000
0000
,
3000
0000
1003
0000
,
0220
0000
0000
0000
,
0300
0000
0130
0000
,
2020
0000
0000
0000
,
3000
0000
1030
0000
,
1002
0000
0000
1000
0000
0000
1000
0000
,
0000
1000
1003
0000
,
0202
0000
0000
0000
,
0300
0000
0103
0000
,
2020
0000
0000
0000
,
3000
0000
1030
0000
,
2002
0000
0000
0000
,
0003
0000
3001
0000
,
0210
0000
0000
0010
0000
0000
0010
0000
,
0000
0010
0310
0000
,
1000
0000
1000
0000
,
1000
0100
1000
0000
,
0100
0000
0100
0000
,
0100
0010
0100
0000
,
0010
0000
0010
0000
,
0010
0001
0010
0000
,
0001
0000
0000
1000
0000
0000
1000
0000
,
0000
0001
1000
0001
,
0001
0000
0000
0001
,
0000
0001
0010
0100
,
1000
0000
0000
1000
,
0000
1000
0010
0100
,
0001
0001
0001
0002
,
0013
0010
0010
0020
,
0130
0200
1000
2300
,
0001
3002
1000
1003
,
2002
0000
0000
0000
,
0000
0000
0000
3003
,
0001
0000
0000
0000
0000
0000
0000
0000
0001
0000
0000
0010
0000
0000
0100
0000
,
0100
0000
0100
0000
,
0100
0000
0000
0100
1000
0000
0100
1000
,
0000
0000
1000
0000
1000
0000
0000
1000
,
2000
0000
0000
0000
0000
0000
0000
0010
,
3020
0000
0000
0000
0000
0000
0000
0100
,
0230
0000
0000
0001
0302
0000
0000
1000
,
1003
0000
0001
0000
1000
0100
0010
0001
,
1000
0010
1000
0000
,
0001
0100
0001
0000
,
1000
0010
1000
0000
,
0001
0100
0001
0000
,
1000
0000
0000
0001
0000
0000
1000
0000
,
0000
0001
0000
0000
1000
0000
0001
0000
,
1000
0100
0010
0001
,
0010
0100
1000
0000
,
0010
0100
0010
0000
,
1000
0100
0010
0000
,
0010
0100
1000
0000
,
0001
0010
0100
0000
,
1000
0010
1010
0000
,
0001
0100
0101
0000
,
1000
1000
0001
0001
,
1000
0000
1000
0000
0001
1000
0001
0000
,
1000
0000
1000
0000
,
1000
0100
0010
0001
,
0001
0000
0001
0000
,
0001
0100
0010
1000
,
1000
0000
1000
0000
,
1000
0001
1000
0001
,
0001
0000
0001
0000
,
0100
0010
0100
0010
,
0100
0000
1001
0000
,
1000
0100
0010
0001
,
1000
0000
1001
0000
,
0100
0010
0100
0010
,
0100
0000
0110
0000
,
1000
0100
0010
0100
,
1000
0000
1001
0000
,
0001
0010
0100
1000
,
0001
0000
0000
0000
,
0001
0001
1001
0000
,
1010
0000
0000
0001
,
0000
1000
0000
0000
0001
0000
0001
0000
,
1000
0000
0001
0000
,
0001
0001
0101
0000
,
0001
0000
0000
0100
0000
0000
0001
0000
,
0000
0100
0000
0000
0001
0000
0001
0000
,
1000
0000
0000
1000
,
0000
0000
1000
1000
,
1010
0000
0000
0001
,
0000
0100
0001
0100
,
0001
0000
0000
0101
,
0000
1000
0001
1000
,
0001
0002
0010
0023
,
0100
0230
1000
2300
,
0002
3000
0000
0200
,
0000
0300
0000
0000
,
0020
0000
0030
2000
,
0003
0001
0001
0000
,
0002
0000
0003
0020
,
0000
0030
0000
0000
,
0001
0000
0000
0001
0000
0000
0002
0000
,
3000
1000
1003
0000
,
2002
0000
0000
0000
,
3000
0000
1003
0000
,
2020
0000
0000
0000
,
0030
0000
3010
0000
,
1000
0010
1000
0000
,
0001
0100
0001
0000
,
1000
1000
0001
0001
,
1000
0000
1000
0000
0001
1000
0001
0000
,
2002
0000
0000
0000
,
0000
0000
0000
0000
,
0000
0000
0000
0000
,
0000
0000
0000
0000
,
3003
0000
0000
0000
;

//---------------dance-single - ----------------
#NOTES:
     dance-single:
     :
     Medium:
     9:
     0.594,0.865,0.168,0.130,0.019,507.000,22.000,17.000,0.000,0.000:
1000
1000
0100
0000
,
0010
0001
0010
0001
,
0100
0100
0010
0000
,
1000
0100
0010
0001
,
0010
0010
0100
0000
,
1000
0010
0100
0001
,
1000
0001
1000
0001
,
1000
0000
0001
0000
1000
0001
1000
0001
,
1000
0100
0010
0000
,
0001
0010
0001
0001
,
0010
0100
1000
0000
,
0010
0100
0010
0010
,
1000
0100
0010
0000
,
0001
0010
0100
0100
,
1000
0001
1000
0001
,
1000
0000
0001
0000
1000
0001
1000
0001
,
1000
1000
0001
0001
,
0100
0100
0010
0100
,
0001
0010
0001
0010
,
0000
0100
0000
0000
0100
0000
1000
0000
,
0001
0001
1000
1000
,
0001
0001
1000
1000
,
1001
0000
0000
0001
0000
0000
1001
0000
,
0000
1000
0000
0000
1010
0000
1000
0000
,
0001
0100
0010
1000
,
0001
0010
0100
1000
,
0001
0001
0100
0100
,
0000
0100
0000
0000
0010
0000
1000
0000
,
0001
0010
0100
1000
,
0001
0010
0100
1000
,
0001
0100
0010
1000
0000
0000
0001
0010
,
0100
1000
0000
0000
0010
0100
0010
0000
,
1000
0010
0100
0001
,
1000
0000
0001
0100
0001
0000
0000
0001
,
0010
0100
1000
0001
,
0100
0000
0010
0100
0001
0000
0000
0000
,
1000
0100
0010
0001
,
1000
0000
0010
0100
0010
0000
0000
0000
,
1000
0010
0100
0001
0000
0000
1000
0010
,
0100
0001
0000
0000
1001
0000
0000
0000
,
0001
0100
0010
1000
,
0100
0000
0010
0001
0010
0000
0000
0100
,
1000
0010
0100
0001
,
0010
0000
0100
1000
0100
0000
0000
0010
,
0001
0100
0010
1000
,
0001
0000
0010
0100
1000
0000
0000
0000
,
0001
0010
0100
1000
0000
0000
0001
0010
,
0100
1000
0000
0000
1001
0000
0000
0000
,
1000
0010
0100
0001
,
1000
0010
0100
0000
,
0001
0010
0100
1000
,
0001
0010
0100
0000
,
1000
0010
0100
0001
,
1000
0010
0100
0000
,
0001
0010
0100
1000
,
0001
0010
0100
0000
,
1000
0000
0100
0000
0010
0001
1000
0000
,
0010
0100
0001
0000
,
1000
0000
0010
0000
0100
0001
1000
0000
,
0100
0010
0001
0000
,
1000
0000
1000
0000
0010
0100
0001
0000
,
0010
0001
0001
0000
,
1000
0100
0010
0001
0000
0000
1000
0010
,
0100
0001
0000
0000
1000
0100
0010
0000
,
2002
0000
0000
0000
,
0000
0000
0000
3003
,
0001
0000
0000
0000
0000
0000
0000
0000
0010
0000
0000
0001
0000
0000
0010
0000
,
0010
0000
0000
0010
0000
0000
0100
0000
0100
0000
0000
1000
0000
0000
0001
0000
,
0001
0000
0000
0000
0100
0000
0010
0100
,
0000
0000
0002
0000
2000
0000
0000
3003
,
1000
0000
0000
1000
0000
0000
1000
0100
,
0010
0000
0000
0010
0000
0000
0010
0000
0000
0000
0000
0000
0001
0000
0000
0000
,
0100
0000
0000
0000
0000
0000
0010
0000
1000
0000
0000
0100
0000
0000
0010
0000
,
0001
1000
1000
0001
,
1000
0100
0010
0001
,
1000
0100
0010
0001
,
1000
0000
0010
0000
,
0100
0000
0001
0000
,
1000
0100
0010
0001
,
1000
0010
0100
0001
,
0010
0100
1000
0100
,
0010
0001
0100
0010
,
1000
0000
0010
0000
,
0100
0000
0001
0000
,
1000
0100
0010
0001
,
1000
0100
0010
0001
,
1000
0000
0000
1000
,
1010
0000
0000
0001
,
0101
0000
0101
0000
,
0001
0000
0100
0000
0001
1000
0001
1000
,
0001
0001
0010
0000
,
0100
1000
0010
0100
,
0001
0001
0100
0000
,
0010
1000
0100
0010
,
0001
0100
0001
0000
,
1000
0010
1000
0001
,
0100
0001
0010
0001
,
1000
0000
0010
0000
1000
0010
1000
0010
,
1000
1000
0100
0000
,
0010
0001
0100
0001
,
1000
1000
0100
0000
,
0010
0001
0100
0100
,
0010
1000
1000
0000
,
0100
0010
0001
0010
,
0001
1000
0001
1000
,
0001
0000
1000
0000
0001
1000
0001
1000
,
0001
0001
0100
0100
,
0010
0010
1000
0010
,
0100
0001
0010
0100
,
0000
0100
0000
0000
0100
0000
1000
0000
,
0010
0010
0100
0100
,
0001
0001
0010
0100
,
1010
0000
0000
1000
0000
0000
1010
0000
,
0000
1000
0000
0000
1001
0000
0001
0000
,
1000
0100
0010
0001
,
1000
0010
0100
0001
,
0010
0100
1000
0010
,
0000
0010
0000
0000
0010
0000
0100
0000
,
0001
0100
0010
1000
,
0001
0100
0010
1000
,
0001
0100
0001
1000
0000
0000
1000
0010
,
1000
0001
0000
0000
0001
0010
0100
0000
,
2000
0000
0000
0002
,
0000
0003
0000
0000
,
0020
0000
0030
0002
,
3000
1000
2003
0000
,
0020
0000
0030
0002
,
0000
0000
0000
3000
,
1000
0000
0000
1000
0000
0000
1000
0000
,
0000
1000
1003
0000
,
2010
0000
0000
0020
,
0000
0030
0000
0000
,
0002
0000
0003
0020
,
3000
0130
1001
0000
,
1001
1010
0101
0000
,
0101
1010
1001
0000
,
1000
0010
0100
0001
1000
0000
1001
0000
,
0001
0100
0010
1000
0001
0100
0001
0000
,
2002
0000
0000
0000
,
0000
0000
0000
0000
,
0000
0000
0000
0000
,
0000
0000
0000
0000
,
3003
0000
0000
0000
;

//---------------dance-single - ----------------
#NOTES:
     dance-single:
     :
     Challenge:
     10:
     0.875,0.974,0.145,0.053,0.053,778.000,19.000,7.000,0.000,0.000:
1000
0010
1000
0000
0100
0000
0010
0100
,
0000
0010
0100
0000
0001
0010
0100
0000
,
1000
0010
0100
0000
0001
0000
0100
0001
,
0000
0100
0001
0000
0010
0100
1000
0010
,
1000
0100
1000
0000
0010
0000
0100
0010
,
0000
0100
0010
0000
1000
0100
0010
0000
,
0001
0010
0001
0000
0010
0100
0010
0000
,
0100
1000
0100
0000
0010
0001
0010
0001
,
0100
0010
1000
0000
0100
0000
1000
0010
,
0000
1000
0010
0000
0100
0001
0100
0000
,
0001
0010
0100
0000
0010
0000
0100
1000
,
0000
0100
1000
0000
0010
0100
0001
0010
,
0100
1000
0010
0000
0100
0000
0001
0100
,
0000
0001
0010
0000
0100
1000
0010
0000
,
0100
0001
0100
0000
0010
1000
0010
0000
,
0100
0001
0100
0000
0010
1000
0010
1000
,
0001
1000
0001
1000
0001
0000
1000
0001
,
0000
1000
0001
0000
0010
0100
1000
0010
,
1000
0001
1000
0001
1000
0000
0010
0000
,
0000
1001
0000
0000
0001
0010
0001
0010
,
0001
0100
0001
0100
0010
0000
1000
0010
,
0000
0100
0001
0000
0010
0100
1000
0000
,
0001
0100
0001
0100
0001
0100
0001
0100
,
0010
1000
0010
1000
0010
0000
1010
0000
,
1000
0010
1000
0001
0100
0000
0100
0001
,
0000
0100
0001
0000
0010
0100
1000
0010
,
0100
0001
0010
0100
1000
0000
0010
0000
,
0000
1001
0000
0000
1000
0100
0010
0001
,
1000
0100
0010
0001
1000
0000
0010
0100
,
0000
0010
0100
0000
0001
1000
0001
0000
,
1000
0010
1000
0010
1000
0010
1000
0010
,
0100
0010
0100
0001
0100
0001
0100
0001
,
1000
0010
0100
0001
,
0100
0001
0100
0001
0100
0000
0001
1000
,
0001
0000
0100
0010
0100
0000
0001
0000
,
0100
0010
1000
0000
1001
0000
1000
0001
,
1000
0010
1000
0010
,
0100
0001
0100
0001
0100
0000
0001
1000
,
0001
0000
0100
0010
0000
1000
0001
0010
,
0100
1000
0001
0000
1001
0000
1000
0001
,
1000
0010
0100
0001
,
1000
0000
0010
0100
0010
0000
1000
0010
,
0100
0000
0001
0010
0100
0000
1000
0000
,
0010
0100
0010
0000
1001
0000
0001
1000
,
0001
0010
0100
1000
,
0010
0100
0010
0100
0010
0000
1000
0010
,
1000
0000
0010
0100
0000
0001
0010
0001
,
0100
0001
0100
0000
0101
0000
1000
0010
,
1000
0100
1000
0010
,
0100
0000
0001
0000
0010
0000
0100
1000
,
0001
0100
0010
1000
,
0001
0000
1000
0000
0001
0000
0100
0001
,
1000
0010
0100
0001
,
1000
0000
0100
0000
0010
0000
0001
1000
,
0001
0000
1000
0001
0000
1000
0001
1000
,
0001
0010
0100
0000
1000
0000
0001
0100
,
0001
1000
0010
0100
,
0001
0000
1000
0000
0010
0000
0100
0001
,
1000
0010
1000
0001
,
0100
0000
0001
0000
0010
0000
0100
0010
,
0100
0000
1000
0000
0010
0100
0010
0000
,
1000
0000
0001
0000
0010
0100
0010
0000
,
0001
0100
0001
0000
0100
0010
0100
0000
,
0001
0010
0100
1000
0010
0100
0010
0000
,
2002
0000
0000
0000
,
0000
0000
0000
3003
,
1000
0000
0000
0000
0000
0000
0000
0000
0010
0000
0000
0100
0000
0000
0001
0000
,
0010
0000
0000
0100
0000
0000
1000
0000
0010
0000
0000
0010
0000
0000
0100
0000
,
0100
0000
0000
0000
0000
0000
0001
0100
0010
0000
0000
0000
1000
0000
0010
0000
,
0000
0000
0100
0001
0100
0001
0100
0001
0200
0000
0000
0000
0001
0000
0000
0000
,
0301
0000
0000
0100
0000
0000
0010
0100
,
0001
0000
0000
0010
0000
0000
0200
0000
0000
0000
0000
0000
1000
0000
0000
0000
,
1300
0000
0000
0000
0000
0000
0001
0100
0010
0000
0000
1000
0000
0000
0010
0000
,
0020
0000
0000
0000
1000
0000
0000
0000
1030
0001
1000
0001
1000
0001
1000
0001
,
1000
0010
1000
0010
,
1000
0001
0100
0001
,
0100
0001
1000
0001
,
1000
0010
0100
0001
,
0010
0100
0010
0100
1000
0010
1000
0010
,
0100
0001
0010
0100
,
1000
0100
0010
0001
0100
0010
1000
0100
,
0010
0001
0010
0100
1000
0000
0001
0000
,
1000
0001
1000
0000
0001
0000
0100
0000
,
0010
1000
0010
0000
0100
0000
0001
0000
,
1000
0001
1000
0000
1001
0000
0010
0100
,
0010
0000
0000
1001
0000
0000
0001
0010
,
0100
0000
1000
0000
0100
0000
0010
0001
,
0010
0000
0001
0000
1000
0000
0001
0010
,
0100
1000
0001
0000
1000
0010
0100
0000
,
0001
1000
0001
0010
0100
1000
0001
0100
,
0010
1000
0100
0000
1000
0000
0010
0100
,
0000
0010
0100
0000
0001
0010
0100
0000
,
1000
0010
1000
0000
0010
0000
1000
0100
,
0000
0010
0001
0000
0100
0010
0100
0001
,
0010
0100
1000
0000
0001
0000
1000
0001
,
0000
1000
0001
0000
0100
0010
0100
0000
,
0001
0010
0001
0000
0010
0100
0010
0000
,
0100
1000
0100
0000
0010
0100
0010
0100
,
0010
0100
0010
0000
0001
0000
0100
0001
,
0000
0100
0001
0000
0010
0100
1000
0000
,
0010
0100
0010
0000
1000
0000
0010
1000
,
0000
0010
0100
0000
0001
0100
0001
0100
,
0001
0100
0001
0000
0010
0000
0100
1000
,
0000
1000
0001
0000
0100
0010
0100
0000
,
0010
1000
0010
0000
0100
0001
0100
0000
,
0010
1000
0010
0000
1000
0010
1000
0001
,
0010
0001
1000
0001
1000
0000
0010
0100
,
0000
0001
1000
0000
0001
0100
0001
0100
,
0001
1000
0001
1000
0001
0000
1000
0000
,
0000
1010
0000
0000
1000
0100
0010
0001
,
0010
0001
0100
0001
0100
0000
0001
0010
,
0000
0100
1000
0000
0010
0100
0010
0000
,
1000
0100
0010
0001
0010
0001
0100
0001
,
0100
0001
1000
0001
1000
0000
1010
0000
,
1000
0100
1000
0010
1000
0000
0100
0010
,
0000
0001
0100
0000
0010
0100
0001
0010
,
0100
1000
0001
0010
0100
0000
1000
0000
,
0000
1001
0000
0000
1000
0010
0100
0001
,
0010
0100
1000
0010
0100
0000
0001
0100
,
0000
0010
1000
0000
0100
0010
0001
0000
,
0010
0100
1000
0100
1000
0010
0100
0010
,
0100
0001
0010
0001
0010
0100
1000
0010
,
0100
0001
0010
0001
,
0100
0000
0010
0000
1000
0000
0100
1000
,
0001
1000
0001
1001
,
1000
0000
0001
0000
1010
0000
1000
0010
,
0100
0001
0100
0010
,
1000
0000
0100
0000
0010
0000
0001
0100
,
0010
0000
1000
0001
0000
0100
0010
0100
,
0001
1000
0001
0000
1010
0000
1000
0010
,
0100
0001
1000
0100
,
0010
0000
0001
0000
0100
0000
0010
1000
,
0001
0100
0010
0101
,
0001
0000
1000
0000
1010
0000
0010
1000
,
0010
0000
0100
0000
0001
0100
0001
0000
,
0010
0000
0100
0000
1000
0010
0100
0000
,
0001
0100
0010
1000
0001
0100
0010
0000
,
1000
0001
1000
0100
0010
0001
1000
0000
,
2002
0000
0000
0000
,
0000
0000
0000
0000
,
0000
0000
0000
0000
,
0000
0000
0000
0000
,
3003
0000
0000
0000
;

//---------------dance-single - ----------------
#NOTES:
     dance-single:
     :
     Beginner:
     2:
     0.118,0.263,0.015,0.000,0.000,106.000,2.000,0.000,0.000,0.000:
1000
0000
0000
0000
,
0000
0000
0000
0000
,
1000
0000
0000
0000
,
0000
0000
0000
0000
,
1000
0000
0000
0000
,
0000
0000
0000
0000
,
1000
0000
1000
0000
,
1000
0000
0000
0000
,
1000
0000
0000
0000
,
0000
0000
0000
0000
,
1000
0000
0000
0000
,
0000
0000
0000
0000
,
1000
0000
0000
0000
,
0000
0000
0000
0000
,
1000
0000
1000
0000
,
1000
0000
0000
0000
,
0001
0000
0000
0000
,
0000
0000
0000
0000
,
0001
0000
0000
0000
,
0000
0000
0000
0000
,
0001
0000
0000
0000
,
0000
0000
0000
0000
,
0010
0000
0000
0000
,
0000
0000
0000
0000
,
0100
0000
0000
0000
,
0000
0000
0000
0000
,
0100
0000
0000
0000
,
0000
0000
0000
0000
,
0010
0000
0000
0000
,
0000
0000
0000
0000
,
0100
0000
0100
0000
,
0100
0000
0100
0000
,
0100
0000
0000
0000
,
0000
0000
0000
0000
,
1000
0000
0000
0000
,
0000
0000
0000
0000
,
1000
0000
0000
0000
,
0000
0000
0000
0000
,
1000
0000
0000
0000
,
0000
0000
0000
0000
,
1000
0000
0000
0000
,
0000
0000
0000
0000
,
1000
0000
0000
0000
,
0000
0000
0000
0000
,
1000
0000
0000
0000
,
0000
0000
0000
0000
,
0001
0000
0001
0000
,
0001
0000
0000
0000
,
0001
0000
0000
0000
,
0000
0000
0000
0000
,
0001
0000
0000
0000
,
0000
0000
0000
0000
,
0100
0000
0000
0000
,
0000
0000
0000
0000
,
0100
0000
0100
0000
,
0100
0000
0010
0000
,
0010
0000
0000
0000
,
0000
0000
0000
0000
,
0100
0000
0000
0000
,
0000
0000
0000
0000
,
0010
0000
0000
0000
,
0000
0000
0000
0000
,
0010
0000
0000
0000
,
0010
0000
0000
0000
,
1001
0000
0000
0000
,
0000
0000
0000
0000
,
1000
0000
0000
0000
,
0000
0000
0000
0000
,
0010
0000
0000
0000
,
0000
0000
0000
0000
,
0100
0000
0000
0000
,
0000
0000
0000
0000
,
0001
0000
0000
0000
,
1000
0001
1000
0000
,
1000
0000
0000
0000
,
0000
0000
0000
0000
,
1000
0000
0000
0000
,
0000
0000
0000
0000
,
1000
0000
0000
0000
,
1000
0000
0000
0000
,
1000
0000
0000
0000
,
0000
0000
0000
0000
,
0001
0000
0000
0000
,
0000
0000
0000
0000
,
0001
0000
0000
0000
,
0000
0000
0000
0000
,
0001
0000
0000
0000
,
0001
0000
0000
0000
,
0001
0000
0001
0000
,
0001
0000
0001
0000
,
0001
0000
0000
0000
,
0000
0000
0000
0000
,
0001
0000
0000
0000
,
0000
0000
0000
0000
,
0001
0000
0000
0000
,
0000
0000
0000
0000
,
0001
0000
0000
0000
,
0001
0000
0001
0000
,
0001
0000
0000
0000
,
0000
0000
0000
0000
,
0010
0000
0000
0000
,
0000
0000
0000
0000
,
0010
0000
0000
0000
,
0000
0000
0000
0000
,
0010
0000
0000
0000
,
0010
0000
0010
0000
,
0100
0000
0000
0000
,
0000
0000
0000
0000
,
0100
0000
0000
0000
,
0000
0000
0000
0000
,
0100
0000
0000
0000
,
0000
0000
0000
0000
,
0100
0000
0000
0000
,
0000
0000
0100
0000
,
0100
0000
0000
0000
,
0000
0000
0000
0000
,
1000
0000
0000
0000
,
0000
0000
0000
0000
,
0001
0000
0000
0000
,
0000
0000
0000
0000
,
0001
0000
0001
0000
,
0001
0000
0001
0000
,
0001
0000
0000
0000
,
0000
0000
0000
0000
,
0001
0000
0000
0000
,
0000
0000
0000
0000
,
0001
0000
0000
0000
,
0000
0000
0000
0000
,
0001
0000
0001
0000
,
0001
0000
0001
0000
,
0001
0000
0000
0000
,
0000
0000
0000
0000
,
0001
0000
0000
0000
,
0000
0000
0000
0000
,
1000
0000
1000
0000
,
0001
0000
0000
0000
,
0001
0000
0001
0000
,
1000
0000
0000
0000
,
1001
0000
0000
0000
;

//---------------dance-single - ----------------
#NOTES:
     dance-single:
     :
     Hard:
     10:
     0.766,0.865,0.206,0.046,0.027,671.000,27.000,6.000,0.000,0.000:
1000
0010
1000
0010
,
0100
0001
0100
0000
0010
1000
0010
0000
,
1000
0010
1000
0010
,
0100
0001
0100
0000
0010
1000
0010
1000
,
0010
0100
0001
0100
,
0001
0100
0001
0000
1000
0010
1000
0000
,
0001
0100
0001
0100
,
0010
0000
1000
0000
0010
0000
1000
0001
,
1000
0010
0100
0001
,
1000
0010
0100
0000
0001
0100
0010
0000
,
1000
0100
0010
0001
,
1000
0001
1000
0000
0010
0100
0010
0100
,
0010
1000
0001
0100
,
0010
0100
0010
0000
1000
0001
1000
0000
,
0001
0010
0100
1000
,
0010
0000
1000
0000
0010
1000
0010
1000
,
0010
0100
0001
0100
,
0001
0010
0100
1000
0010
0100
0010
0000
,
1000
0010
1000
0001
,
0000
0101
0000
0000
0001
0100
0001
0000
,
1000
0010
1000
0001
,
0100
0010
0100
0010
0100
0001
1000
0001
,
1000
0000
0001
1000
0001
0000
1000
0010
,
1000
0000
0001
0010
0100
1000
0010
0100
,
0010
1000
0010
1000
,
0001
0010
0100
1000
0010
0100
0010
0000
,
1000
0010
0100
0001
,
0000
0101
0000
0000
0001
0100
0001
0000
,
0100
0010
1000
0001
,
1000
0001
1000
0001
1000
0010
0100
0010
,
1000
0010
0100
0001
,
1000
0000
0100
0000
0010
0000
0001
1000
,
0001
0100
0010
1000
,
0001
1000
0010
1000
,
0011
0100
0001
1000
,
0001
0000
1000
0000
0110
0000
1000
0001
,
1000
0010
0100
0001
,
0100
0010
1000
0001
,
1000
0000
0000
0110
0000
0000
1001
0000
,
0000
1000
0010
1000
,
0011
0100
0010
1000
,
0001
1000
0001
0100
,
0011
1000
0010
1000
,
0001
0100
0001
1000
,
0011
1000
0010
0100
,
0001
0010
0100
1000
,
0001
0000
0000
0110
0000
0000
1001
0000
,
0000
0000
0001
0000
0101
0000
1000
0010
,
1000
0100
0010
0001
,
0100
0010
1000
0001
,
1010
0100
0010
0001
,
0100
0010
1000
0001
,
1100
0010
0100
0010
,
1000
0001
0100
0010
,
1001
0100
0010
0001
,
0100
0010
1000
0001
,
1100
0010
0100
0001
,
1000
0100
0010
0001
,
1000
0000
0000
1001
0000
0000
0110
0000
,
0000
0000
1001
0000
0001
0000
1000
0001
,
1000
0000
0001
0000
0100
0010
0100
0000
,
0001
0000
0100
0000
0010
1000
0010
0000
,
1000
0100
0010
0001
1000
0000
0010
0100
,
0010
0000
1000
0100
0010
0001
1000
0000
,
2002
0000
0000
0000
,
0000
0000
0000
3003
,
1000
0000
0000
0000
0000
0000
0000
0000
1000
0000
0000
0100
0000
0000
0010
0000
,
0010
0000
0000
0100
0000
0000
1000
0000
1000
0000
0000
0010
0000
0000
0100
0000
,
0100
0000
0000
0000
0000
0000
0010
0100
0010
0000
0000
0000
1000
0000
2002
0000
,
0000
0000
0000
0000
0000
3003
0001
0000
,
1000
0000
0000
0010
0000
0000
0100
0100
,
0100
0000
0000
0001
0000
0000
0100
0000
0000
0000
0000
0000
0001
0000
0000
0000
,
0010
0000
0000
0000
0000
0000
0100
1000
0100
0000
0000
1000
0000
0000
0010
0000
,
0100
0000
0001
0000
1000
0001
1000
0001
,
1000
0001
1000
0001
,
0100
0010
0100
0010
,
1000
0100
0010
0001
,
0001
0010
0100
1000
,
1000
0001
1000
0000
0001
1000
0001
0000
,
0100
0010
0100
0000
0010
0100
0010
0000
,
1000
0100
0010
0001
0100
0010
1000
0100
,
0010
0010
0010
0010
,
0001
0100
0001
0100
,
0010
1000
0010
1000
,
0001
0000
1000
0001
1000
0000
0001
0000
,
1000
0000
0010
0100
0010
0000
1000
0100
,
0010
0000
0010
0000
0010
0000
0001
0010
,
0100
0000
0100
0000
0100
0000
1000
0001
,
1000
0000
0010
0100
0010
0000
1000
0100
,
0010
0001
0100
0010
1000
0100
0010
0001
,
1000
0010
1000
0010
,
0100
0001
0100
0000
0010
1000
0010
0000
,
1000
0001
1000
0001
,
0100
0010
0100
0000
0001
1000
0001
1000
,
0001
0100
0001
0100
,
0001
1000
0001
0000
1000
0001
1000
0000
,
0010
0100
0010
0100
,
0001
0000
1000
0000
0001
0000
1000
0010
,
1000
0010
1000
0010
,
0100
0001
0100
0000
0010
1000
0010
0000
,
1000
0100
0010
0001
,
1000
0001
1000
0000
0010
0100
0010
0100
,
0010
0100
0001
1000
,
0001
0100
0001
0000
1000
0010
1000
0000
,
0001
0100
0001
0100
,
0010
0000
1000
0000
0010
1000
0010
1000
,
0010
1000
0001
1000
,
0001
0010
0100
1000
0010
0100
0010
0000
,
1000
0001
1000
0001
,
0000
0101
0000
0000
0001
0100
0001
0000
,
1000
0010
1000
0001
,
1000
0001
1000
0001
1000
0010
0100
0010
,
0100
0000
0001
0100
0001
0000
1000
0010
,
1000
0000
0001
0010
0100
1000
0010
0100
,
0010
1000
0010
1000
,
0001
0010
0100
1000
0010
0100
0001
0000
,
1000
0010
1000
0001
,
0000
1001
0000
0000
1000
0001
1000
0000
,
0001
0100
0010
1000
,
0001
0100
0010
1000
0100
0010
0001
0000
,
1000
0010
1000
0010
,
0100
0001
0100
0001
,
1000
0000
0001
1000
0001
0000
0100
0000
,
0010
0100
0010
0000
1000
0000
0001
1000
,
0001
0000
1000
0001
1000
0000
0001
0000
,
0100
0010
0100
0000
0001
1000
0001
1000
,
0001
0000
0100
0010
0100
0000
0001
0000
,
1000
0010
1000
0000
0010
0000
0100
0001
,
0100
0000
0000
0101
0000
0000
1001
0000
,
0000
0000
0100
0000
0101
0000
1000
0010
,
1000
0000
0001
1000
0001
0000
0100
0000
,
0001
0100
0001
0000
1000
0000
0010
1000
,
0010
0000
0100
0001
0100
0000
0001
0000
,
1000
0001
1000
0000
0010
0100
0010
0100
,
0010
1000
0001
0000
0100
0010
0100
0000
,
0001
1000
0001
0000
0100
0000
0010
0000
,
1000
0100
0010
0001
0100
0010
0100
0000
,
0001
0010
0100
1000
0010
0100
0010
0000
,
2002
0000
0000
0000
,
0000
0000
0000
0000
,
0000
0000
0000
0000
,
0000
0000
0000
0000
,
3003
0000
0000
0000
;
