#TITLE:MAX LIFE 2;
#SUBTITLE:(MAX 300 Mix);
#ARTIST:DJ.PATO feat. Omega Z  ZZ 2mb;
#TITLETRANSLIT:;
#SUBTITLETRANSLIT:;
#ARTISTTRANSLIT:;
#CREDIT:;
#BANNER:MAX LIFE 2.png;
#BACKGROUND:MAX LIFE 2-bg.png;
#LYRICSPATH:;
#CDTITLE:./CDTitles/speed2001.png;
#MUSIC:MAX LIFE 2.mp3;
#OFFSET:-0.586;
#SAMPLESTART:28.890;
#SAMPLELENGTH:12.000;
#SELECTABLE:YES;
#BPMS:0.000=225.000,129.000=299.999,328.000=200.000,360.500=300.000,556.500=150.000,560.000=300.000,624.000=333.000,818.500=330.300,880.000=261.281,881.000=180.261,882.000=154.901,916.750=309.801,1077.000=300.001,1204.000=247.401,1204.333=797.294,1205.000=999.992,1207.000=190.001,1208.000=150.001,1239.500=300.000;
#STOPS:129.000=0.040
,818.500=0.160
,882.000=0.060
,884.000=0.020
,1239.000=1.000
;
#BGCHANGES:4.000=1.png=1.000=1=0=0,
139.000=2.png=1.000=1=0=0,
329.000=3.png=1.000=1=0=0,
887.000=4.png=1.000=1=0=0,
1078.000=5.png=1.000=1=0=0,
1241.000=6.png=1.000=1=0=0,
1388.000=MAX LIFE 2-bg.png=1.000=1=0=0,
99999=-nosongbg-=1.000=0=0=0 // don't automatically add -songbackground-
;
// cache tags:
#FIRSTBEAT:0.000;
#LASTBEAT:1405.000;
#SONGFILENAME:Songs/maxxx/MAX LIFE 2/MAX LIFE 2.sm;
#HASMUSIC:1;
#HASBANNER:1;
#MUSICLENGTH:303.366;
// end cache tags

//---------------dance-single - ----------------
#NOTES:
     dance-single:
     :
     Hard:
     10:
     0.897,1.000,0.827,0.310,0.025,1558.000,251.000,94.000,0.000,23.000:
2002
3000
0103
0100
,
0022
0030
1003
1000
,
0220
0300
1030
1000
,
0010
1100
0011
0110
,
2002
3000
0103
0100
,
0022
0003
0031
0001
,
2020
0030
3001
0001
,
1100
0101
1010
0000
,
2200
0000
3301
0001
,
0220
0000
1330
0001
,
0202
0000
0313
1000
,
0101
0110
1001
1100
,
0101
0220
0000
1330
,
1000
0202
0000
0313
,
0010
2100
0100
3001
,
0001
0010
0020
0000
,
0030
0000
1000
0100
0000
0100
0000
0001
,
0100
0000
0100
0000
1000
0100
0000
0100
,
0000
0001
0010
0000
0010
0000
1000
0001
,
0000
0001
0000
0010
0100
0000
0100
0000
,
0001
1000
0000
1000
0000
0100
0010
0000
,
0010
0000
0100
1000
0000
1000
0000
0100
,
0010
0000
0010
0000
0001
0010
0000
0010
,
0000
0100
0001
0000
0001
0000
0100
1000
,
0000
1000
0000
0010
0001
0000
0001
0000
,
0010
1000
0000
1000
0000
0100
0001
0000
,
0001
0000
0010
0100
0010
0000
0100
0010
,
0100
0000
1000
0100
1000
0000
0001
0010
,
0100
0000
1000
0100
0010
0000
0001
0000
,
0010
0100
0000
0100
0010
0000
0001
0000
,
1100
0000
0101
0000
0110
0000
1100
0101
,
0000
0010
0001
0000
0001
0000
0010
0100
,
0000
1000
0001
0000
0010
0000
0100
0000
,
0000
1000
0100
0001
,
0000
0010
0010
0001
,
0000
1000
0101
0101
,
0000
0010
1010
1010
,
0101
0101
0110
0110
,
0000
1000
0101
0010
,
0101
0100
1010
0101
,
0000
0100
0001
0100
,
1000
0100
0001
0100
,
0000
0010
1000
0010
,
0001
0010
1000
0100
,
0000
0000
0001
0010
0100
0000
1000
0100
,
0010
0000
0001
0010
0001
0000
0100
1000
,
0100
0000
0010
0100
0010
0000
0001
0010
,
0100
0000
1000
0100
1000
0000
0010
0100
,
0010
0000
0001
1000
0001
0010
0100
0000
,
0000
1000
0100
1000
0001
0010
0000
0000
,
0100
0001
0010
0100
1000
0000
0000
0001
,
0010
0100
0001
1000
0000
0000
0100
0001
,
1000
0010
0001
0000
0000
0010
1000
0001
,
0010
0100
0000
0000
0100
1000
0010
0100
,
1000
0000
0000
1000
0001
0100
1000
0001
,
0000
0000
0100
0010
0100
0010
1000
0000
,
0000
0001
0010
0100
1000
0100
0000
0011
,
0000
0110
0000
1100
0000
0000
0101
0000
,
0000
1100
0000
0101
,
0000
0110
0000
1001
,
0000
0110
0000
0001
,
0000
0110
0000
1000
,
0000
0101
0000
1010
,
0000
0101
0000
1000
,
0000
0100
0000
0001
,
0000
0010
1001
0100
,
1001
0010
1001
0100
,
1001
0010
1001
0100
,
1001
0010
1001
0100
,
1001
0010
1001
0100
,
1001
0010
1001
0100
,
1001
0010
0001
1100
,
1000
0011
0001
1100
,
1000
0000
0011
0000
1000
0100
1000
0100
,
1000
0000
0001
0010
0001
0010
0001
0000
,
0100
0010
0100
0010
0100
0000
1000
0001
,
1000
0001
1000
0000
0001
0010
0100
1000
,
0100
0000
1000
0100
0010
0001
0010
0000
,
0100
0001
0010
0100
1000
0000
0100
1000
,
0100
0010
0001
0000
1000
0100
0010
0001
,
0010
0100
1000
0100
0010
0001
0010
0001
,
0010
0100
0010
2002
0000
0000
0000
3003
,
0020
0000
0000
0000
,
0000
0000
0000
0000
,
0030
0200
0000
0000
0000
0000
0000
0000
,
0000
0300
0000
0000
0000
0000
0000
0000
,
0000
2001
0000
0001
0000
0000
0000
0001
,
0000
0010
0001
0000
0001
0000
0000
0001
,
0000
0010
0001
0001
0010
0001
0010
3001
,
0200
0001
0000
0000
0320
0000
0000
0000
,
0000
1031
0100
0000
1000
0000
0100
0000
,
1000
0001
0010
0100
,
0001
0010
0100
1000
,
0010
1000
0001
0010
,
1000
0010
1000
0010
,
0001
0000
0100
0000
0001
0000
0100
1000
,
0100
0010
0001
0000
0010
0100
1000
0000
,
0001
0010
0100
1000
,
0001
1000
0001
1000
,
0001
1000
0100
1000
,
1000
0100
0100
0010
,
0010
0001
0001
0010
,
0100
1000
0100
1001
,
0001
0110
0001
0110
,
0010
1100
0101
0110
,
1001
0110
1100
0202
,
0000
0000
0000
0000
1303
0100
1000
0100
,
0001
0010
0001
0010
0000
1000
0100
1000
,
0100
0000
0001
0010
0001
0010
0000
0100
,
0010
0100
0010
0000
0001
1000
0001
1000
,
0000
0100
0010
0001
0010
0000
0010
0100
,
1000
0100
0000
0010
0001
0010
0100
0000
,
0100
1000
0100
0010
0000
0001
0010
0100
,
1000
0000
1000
0100
0010
0001
0000
0010
,
0100
0000
1000
0100
0000
0100
0010
0000
,
0010
0001
0000
0010
0100
0000
0100
1000
,
0000
0100
1000
0000
0100
1000
0000
1001
,
0000
0000
0000
0010
0100
0010
0000
0000
,
0100
0010
0000
0010
0001
0000
0001
0010
,
0000
0010
0100
0000
0100
1000
0000
1000
,
0001
0000
0010
0100
0000
0100
0010
2002
,
0000
0000
0000
3003
0000
0100
1000
0100
,
0010
0001
0010
0001
,
0010
0000
1100
0000
0000
0101
0000
0000
,
0100
0000
1000
0001
0000
0001
1000
0000
,
0001
0000
1100
0000
0000
0011
0000
0000
,
0010
0000
1000
0010
0000
0010
1000
0000
,
0010
0000
1001
0000
0000
0110
0000
0000
,
1000
0000
0001
0010
0000
0010
0001
0000
,
0100
0000
1100
0000
0000
0011
0000
0000
,
0010
0000
1000
0100
0000
0100
1000
0000
,
0100
0000
0011
0000
0100
0000
0100
1000
,
0000
1000
0100
0000
0100
0000
0100
0010
,
0000
0000
0101
0000
0000
1010
0000
0000
,
0001
0010
0100
1000
0100
0001
0010
0100
,
0001
0000
0000
1000
0000
0000
0100
0000
0000
0000
0000
0000
0010
0000
0000
0100
0000
0000
0000
0000
0000
0000
1000
0000
,
0000
1000
0000
1000
0000
0000
0000
0000
0000
0000
0000
0001
,
0000
0001
0000
0001
0000
0000
0000
0000
0000
0000
1000
0000
,
1000
0000
1000
0000
0001
0000
0001
0000
0001
0000
0220
0000
,
0000
0000
0000
0000
,
1331
0000
1000
0100
0000
1000
0100
0000
,
0001
0010
0000
0001
0010
0000
0100
0010
,
1000
0100
0001
0010
0100
1000
0000
0001
,
0010
0000
0100
0010
1000
0001
0010
0000
,
0100
0000
0001
0010
0100
1000
0001
0000
,
0010
0100
0000
0001
0000
0010
0100
0001
,
0000
1000
0000
0010
0100
0001
1000
0010
,
0100
0001
0010
0000
0100
0010
0000
0010
,
0001
0100
1000
0100
1000
0100
0000
0001
,
0010
0001
0010
0001
0000
0100
0010
0100
,
0010
0100
0000
1000
0100
0010
0001
0010
,
0000
0001
0010
0100
1000
0100
0000
0010
,
1000
0010
1000
0010
0000
0001
0100
0001
,
0100
0001
0000
0010
0100
1000
0100
0010
,
0000
0001
0010
0100
0010
0001
1000
0001
,
1000
0001
1000
0001
1000
0000
1100
0000
,
0101
1000
0100
1000
,
0001
0010
0001
0100
,
0010
0100
0001
0010
,
0100
1000
0000
1100
0000
1000
0100
0000
,
1100
0000
0001
0010
0001
0000
1100
0000
,
0000
0010
0000
0001
0000
0010
0100
0010
,
0000
1100
0000
0100
0001
0010
0000
1100
,
0000
0100
0001
0000
0010
0001
0010
0000
,
1001
0000
0100
1000
0100
1000
0000
0001
,
0010
0001
0010
0000
0100
0010
0001
0010
,
0000
1100
0000
0101
0000
0010
0100
0010
,
0100
1000
1000
0001
,
0001
0000
0010
0100
0010
0100
0000
0010
,
0000
0010
0000
0100
1000
0100
0000
0100
,
0001
0100
0000
1000
0100
1000
0000
0000
,
0202
0000
0000
0000
0303
1000
0100
0000
,
0100
0001
0000
0000
0100
0010
0100
0010
,
0001
1000
0100
0000
0000
0001
0010
0000
,
0100
1000
0000
0000
0001
0010
0000
0000
,
1000
0010
0000
0001
0010
0000
0100
0010
,
0000
0000
0001
0010
0100
1000
0100
0001
,
0010
0100
0001
0000
0010
1000
0000
0010
,
0002
0000
0000
0000
0003
1100
0000
0000
,
0000
0101
0000
0110
0000
0100
0000
1001
,
0100
0000
0001
0000
0010
0100
0000
0000
,
0000
0000
0100
1000
0100
0001
0000
0010
,
1000
0000
0000
1000
0001
0000
0000
0100
,
0010
0100
0000
0000
0100
1000
0000
0000
,
0100
0001
0000
1000
0001
1000
0001
1000
,
0001
0010
0100
0010
0100
0010
0100
0000
,
1000
0100
0000
0100
0010
0000
0010
0001
,
0000
0010
0100
0010
0000
0100
1000
0000
,
0100
0002
0000
0000
0000
0003
0010
0100
,
0010
0001
0010
1000
0001
0010
0000
0100
,
0010
0000
0000
0000
0000
0000
1000
0001
,
0000
0000
0000
0000
0010
0100
0000
0001
,
0010
0000
0000
0000
1000
0100
0010
0001
,
0100
0010
0000
0000
0000
0100
0010
0000
,
0000
1000
0201
0000
0000
0000
0000
0000
,
0301
0000
0000
1000
0001
1000
0001
0000
,
0110
0000
0001
1100
0000
1000
0101
0000
,
0010
0101
0000
0001
1200
0000
0000
0000
,
0000
0000
0301
0000
0010
0100
0000
0100
,
1000
0000
0100
0001
0000
0010
0100
0000
,
1000
0001
0000
0000
0100
0000
0000
1000
,
0001
0000
0000
0000
0000
0100
0000
0000
,
0001
0010
0000
0000
0100
1000
0100
0001
,
0010
0100
1000
0001
0010
0001
1000
0010
,
0100
0001
0000
0010
0000
2200
3300
0000
,
0001
0010
0100
0001
,
1000
0010
0100
0001
,
0010
0100
0001
1000
,
0100
0001
0010
0100
,
0001
0010
0100
0001
,
1000
0010
0100
0001
,
1000
0010
0100
0001
,
1000
0100
0001
1000
,
0010
1000
0010
0001
,
0010
1000
0010
0001
,
0100
1000
0100
0001
,
0100
1000
0100
0001
,
0010
0100
0100
0001
,
0000
1100
0001
0000
0000
1000
0000
0000
,
0001
0000
0100
0000
0100
0200
0000
0000
,
0000
0000
0000
0000
,
2302
3003
0200
0302
,
0023
0230
0302
2003
,
3020
0230
0302
0023
,
0230
2301
3102
0123
,
2031
3120
0001
0001
,
0001
0001
0001
0001
,
0001
0001
0001
0001
,
0001
0000
0000
0000
0031
0000
0000
0000
0001
0000
0000
0000
0001
1000
0001
1000
,
0001
1000
0000
0220
0000
0000
0000
0000
0000
0000
0000
0000
0000
0000
0000
0000
,
0000
0000
0000
0000
0000
0000
0000
0330
0000
0000
0000
0000
0000
0000
0000
0000
,
1100
0001
0110
1001
,
0101
0011
0101
1001
,
0101
0011
0110
1001
,
1010
1100
1010
1001
,
1010
0001
0010
0100
,
1000
0100
0000
0001
0000
0010
0100
0000
,
1000
0000
0001
0010
0000
1010
0000
0100
,
0001
0011
1000
0100
,
1000
0001
0010
0100
,
0001
1000
0010
0100
,
0001
1000
0100
0001
,
0010
0100
0001
1000
,
0010
0100
0001
1000
,
0001
0100
0010
0001
,
0100
0010
1000
0001
,
0100
0010
1000
0001
,
0100
0010
0001
1000
,
0010
0100
0010
0110
,
0100
1100
0100
0101
,
0010
1001
0010
1001
,
0100
1001
0010
1001
,
0001
0110
1000
0110
,
0001
0110
1000
0110
,
0001
0110
1000
0110
,
0010
1001
0100
1001
,
0010
0110
0001
0110
,
0010
0110
0100
0110
,
1000
0000
0110
0000
0001
0010
0100
1000
,
0100
0001
0010
0100
1000
0100
0001
0010
,
0001
0010
0100
0010
0100
1000
0100
1000
,
0100
0000
0001
0010
0000
0000
0100
0000
,
0000
1001
0000
0000
0000
0000
0000
0100
,
0000
0000
0001
0010
0000
0000
0100
0000
,
1001
0000
0100
0000
0000
1000
0100
0000
,
0101
0000
0010
1000
0000
1100
0000
0000
,
0010
0001
0000
0011
0000
0000
0100
0001
,
0000
0000
0010
0100
0000
1001
0000
0010
,
0100
0000
1001
0000
0010
0100
0000
1001
,
0010
0100
0022
0000
0000
0000
0000
0000
,
0033
0100
0100
1000
,
0100
0001
0010
0100
,
1000
0001
0010
0100
,
1000
1000
0001
0001
,
0110
1000
0100
0101
,
0010
0100
1100
0100
,
0001
0110
0001
0010
,
1100
0100
0001
0011
,
0100
0001
1100
0001
,
0010
0110
1000
0001
,
1000
0100
0001
0100
,
0100
0011
0010
0100
,
0001
1010
0010
0001
,
0100
1100
0101
0011
,
0110
1001
0011
1010
,
1200
0010
0001
0001
,
0010
0010
0001
0010
,
1000
0000
1000
0300
0001
0000
0101
0000
,
0100
1010
0100
1001
,
0010
0102
0010
0100
,
1000
0010
0100
1000
,
0100
0000
1003
0000
0100
0020
0100
0000
,
0001
0100
1000
1000
,
0031
2001
0010
0001
,
0010
0100
0010
0001
,
0100
0010
0100
0001
,
0010
0100
0001
0010
,
3100
0100
0101
0010
,
1010
0100
0101
0011
,
1100
0110
1001
0110
,
1100
0101
0011
1100
,
2002
0000
0000
0000
0000
0000
0000
3113
,
0000
1000
0100
1000
0001
0010
0001
0100
,
0010
0100
1000
0100
0001
1100
0000
0011
,
1000
0100
0001
0010
0100
0010
0001
0010
,
0100
1000
0100
0001
0010
1100
0000
0110
,
0001
0010
0100
0001
0100
1000
0001
0010
,
0100
0001
0010
1000
0010
1100
0000
0102
,
0010
0100
1000
0100
0010
0100
1000
0100
,
0010
0000
0000
0100
0000
0000
0010
0000
0000
1003
0000
0000
0001
0000
0000
0120
0000
0000
0000
0000
0030
1001
0000
0000
,
0100
0010
0100
0001
,
0010
1000
0001
0010
,
0100
0001
1000
0020
,
0200
0030
0301
0010
,
0100
0001
0010
0100
,
0001
1000
0010
0100
,
0001
0000
1000
0000
0100
0000
0010
0001
,
0000
0011
0000
0100
,
0001
0010
0100
0001
,
1000
0010
0100
0001
,
1000
0000
0000
1200
0000
0000
1000
0000
0300
1010
0000
0000
,
0010
1010
0010
1010
,
0001
0010
0100
0001
,
0010
0100
0001
1000
,
0010
0000
0100
0000
1110
0000
0000
1000
,
0100
0000
0000
0101
0000
0000
2000
3200
,
0320
0032
0003
0010
0100
0000
0010
0100
,
0000
1000
0100
0000
1000
0100
0000
0000
,
0101
0000
0110
0000
0110
0000
1000
0100
,
0000
0000
0001
0010
0100
0000
1100
0000
,
0001
0010
0001
0000
0100
0000
0010
0001
,
0000
0100
0010
1000
0000
0000
0000
0010
,
0000
0000
0001
0010
0100
1000
0000
0010
,
0100
0000
0000
1010
0000
0000
0000
0220
,
0000
0000
0000
0000
0000
0000
0330
0000
0000
0000
0000
0000
0000
0000
0000
0000
0000
0000
0000
0000
0000
0001
1000
0000
,
0000
0000
0000
0000
0000
0000
0001
1000
0000
0000
0000
0000
0000
0000
0000
0101
0000
0000
0000
0000
0000
0110
0000
0000
,
0000
1010
0000
0001
0100
0010
1000
0100
,
0100
0100
0000
0001
0010
0000
0010
0100
,
0000
0100
1000
0000
1000
0001
1000
0000
,
0010
0000
0100
0001
0000
0010
0000
0100
,
1000
0000
0100
0000
0001
0010
0100
0001
,
0010
0100
0001
1000
0010
0100
0001
0000
,
1010
0101
1100
0110
,
0011
1010
1001
0110
,
1010
0101
0011
1100
,
0011
0000
1000
0100
1000
0100
0001
0010
,
0001
0010
0100
0010
0100
0010
0000
2202
,
0000
0000
0000
0003
0020
0000
3000
0000
0000
0000
0000
0000
0031
0000
0000
0000
,
1000
0000
0302
0000
,
0100
0000
0000
0000
0000
2023
0000
0000
,
0100
0001
0202
3030
0000
0000
0000
0000
,
0000
0303
0000
0000
;

//---------------dance-double - ----------------
#NOTES:
     dance-double:
     :
     Easy:
     4:
     0.117,0.187,0.109,0.000,0.000,215.000,33.000,0.000,0.000,0.000:
00000000
00000000
00000000
00000000
,
00000000
00000000
00000000
00000000
,
00000000
00000000
00000000
00000000
,
00000000
00000000
00000000
00000000
,
10000000
01000000
00010000
00001000
,
00001000
00010000
01000000
10000000
,
10000000
01000000
00010000
00001000
,
00001000
00010000
01000000
10000000
,
00100000
00000000
00010000
00000000
,
00001000
00000010
00000001
00000100
,
00001000
00000000
00010000
00000000
,
01000000
10000000
00100000
10000000
,
00010000
01000000
10000000
01000000
,
00010000
00001000
00000100
00000001
,
00001000
00000100
00000001
00000100
,
00001000
00010000
01000000
10000000
,
10000000
01000000
00010000
01000000
,
00001000
00010000
00000010
00000100
,
00001000
00000100
00000001
00000100
,
00000010
00000000
00001000
00000000
,
00010000
01000000
00001000
00010000
,
00000010
00001000
00000001
00000100
,
00001000
00000100
00010000
00001000
,
00100000
00010000
10000000
01000000
,
00010000
00001000
00000100
00000001
,
00001000
00010000
01000000
10000000
,
00010000
00001000
00000100
00000001
,
00001000
00000000
00010000
00000000
,
00000001
00000100
00001000
00010000
,
00010000
00001000
00000100
00000001
,
00000001
00000100
00001000
00010000
,
10000000
00000000
00000000
00000000
,
00010000
01000000
10000000
01000000
,
00010000
00001000
00000100
00000001
,
00001000
00000100
00000001
00000100
,
00001000
00010000
01000000
10000000
,
10100000
10100000
10100000
10100000
,
00011000
00011000
00011000
00011000
,
00000011
00000011
00000011
00000011
,
00000011
00000000
00000000
00000000
,
00000011
00000011
00000011
00000011
,
00011000
00011000
00011000
00011000
,
10100000
10100000
10100000
10100000
,
10100000
00000000
00000000
00000000
,
00011000
00000000
00000000
00000000
,
00000011
00000101
00001000
00010000
,
00011000
00010000
10000000
01000000
,
10100000
11000000
00010000
00001000
,
00011000
00001000
00000001
00000100
,
00000001
00000100
00001000
00010000
,
00010000
00001000
00000100
00000001
,
00000001
00000100
00001000
00010000
,
01000000
00000000
10000000
00000000
,
10000000
01000000
00010000
00001000
,
00001000
00010000
01000000
10000000
,
10000000
01000000
00010000
00001000
,
00001000
00010000
01000000
10000000
,
10000000
01000000
00010000
00001000
,
00000100
00000001
00001000
00000100
,
00000001
00000100
00001000
00010000
,
00001000
00010000
01000000
10000000
,
00010000
00100000
01000000
01000000
,
00010000
00001000
00000100
00000001
,
00000010
00000000
00000000
00000000
;

//---------------dance-double - ----------------
#NOTES:
     dance-double:
     :
     Medium:
     7:
     0.136,0.145,0.036,0.000,0.000,278.000,11.000,0.000,0.000,0.000:
00000000
00000000
00000000
00000000
,
00000000
00000000
00000000
00000000
,
00000000
00000000
00000000
00000000
,
00000000
00000000
00000000
00000000
,
00100000
10000000
01000000
00000000
00100000
00010000
01000000
00000000
,
00000010
00001000
00000100
00000000
00000010
00000001
00000100
00000000
,
00000010
00001000
00000100
00000000
00001000
00010000
01000000
00000000
,
10000000
00100000
00010000
00000000
00010000
00100000
10000000
00000000
,
00100000
00010000
01000000
00000000
00010000
00001000
00000100
00000000
,
00000001
00000010
00001000
00000000
00001000
00000010
00000001
00000000
,
00000001
00000100
00001000
00000000
00001000
00010000
01000000
00000000
,
10000000
00000000
00010000
00000000
00001000
00010000
01000000
00000000
,
00010000
00000000
10000000
00000000
01000000
00010000
00001000
00000000
,
00000010
00000000
00000100
00000000
00000001
00001000
00000100
00000000
,
00001000
00000000
00010000
00000000
00100000
10000000
01000000
00000000
,
00100000
00000000
01000000
00000000
10000000
01000000
00010000
00000000
,
00001000
00000000
00010000
00000000
00000010
00001000
00000100
00000000
,
00000001
00000000
00001000
00000000
00000010
00000001
00000100
00000000
,
00001000
00000000
00010000
00000000
01000000
10000000
00100000
00000000
,
10000000
00000000
10000000
00000000
00100000
00010000
00100000
00000000
,
10000000
00000000
00000000
00000000
00010000
10000000
01000000
00000000
,
00010000
00000000
00000000
00000000
00001000
00000100
00000001
00000000
,
00001000
00000000
00000000
00000000
00100000
00010000
01000000
00000000
,
00001000
00000000
00000000
00000000
00100000
01000000
10000000
00000000
,
01000000
00000000
00000000
00000000
00010000
00001000
00000100
00000000
,
00000001
00000000
00000000
00000000
00000100
00001000
00010000
00000000
,
01000000
00000000
00000000
00000000
00010000
00001000
00000100
00000000
,
00000010
00000001
00000010
00000000
00010000
00000000
00001000
00000000
,
00100000
10000000
01000000
00000000
00010000
00000000
00001000
00000000
,
00000010
00001000
00000100
00000000
00001001
00000000
00000101
00000000
,
00001000
00000000
00010000
00000000
01000000
10000000
00100000
00000000
,
10010000
00000000
00000000
00000000
,
00100000
00000000
10000000
00000000
01000000
00010000
00001000
00000000
,
00001000
00000100
00000001
00000000
00000011
00000000
00001001
00000000
,
00001001
00000000
00011000
00000000
00100000
00010000
01000000
00000000
,
10010000
00000000
00000000
00000000
,
10000000
10000000
10000000
10000000
,
00010000
00010000
00010000
00010000
,
00001000
00001000
00001000
00001000
,
00001001
00000000
00000001
00000000
,
00001000
00000100
00000001
00000100
,
00001000
00010000
01000000
01000000
,
10000000
01000000
10000000
00000000
00010000
01000000
00010000
00000000
,
00000010
00000000
00001000
00000100
,
00000101
00000000
00000010
00011000
,
00100000
00000000
10000000
00000000
00010000
01000000
10000000
00000000
,
10000000
00000000
01000000
00000000
00100000
00001000
00010000
00000000
,
00000100
00000000
00000001
00000000
00001000
00000010
00000100
00000000
,
00001000
00000000
00010000
00000000
01000000
10000000
00100000
00000000
,
00100000
10000000
01000000
00000000
00100000
00010000
01000000
00000000
,
00000010
00001000
00000100
00000000
00000010
00000001
00000100
00000000
,
00001000
00010000
01000000
00000000
00010000
00001000
00000100
00000000
,
00000001
00000100
00001000
00010000
,
00100000
10000000
00100000
00000000
00100000
00000000
00100000
00000000
,
00001000
00010000
00001000
00000000
00001000
00000000
00001000
00000000
,
00000001
00000100
00000001
00000000
00000001
00000000
00000001
00000000
,
00001000
00000001
00001000
00000001
00001000
00000001
00001000
00000000
,
00100000
00000000
10000000
00000000
00010000
10000000
01000000
00000000
,
00010000
00000000
01000000
00000000
10000000
01000000
00100000
00000000
,
00001000
00000000
00010000
00000000
00000010
00001000
00000001
00000000
,
00000001
00000100
00001000
00010000
,
01000000
10000000
01000000
00010000
,
00001000
00000100
00000001
00000010
,
00000100
00000000
00000000
00000000
;

//---------------dance-double - ----------------
#NOTES:
     dance-double:
     :
     Hard:
     8:
     0.186,0.187,0.105,0.000,0.028,364.000,32.000,0.000,0.000,0.000:
00000000
00000000
00000000
00000000
,
00000000
00000000
00000000
00000000
,
00000000
00000000
00000000
00000000
,
00000000
00000000
00000000
00000000
,
00001000
00010000
00100000
10000000
01000000
00100000
00010000
00100000
,
01000000
00010000
00001000
00000100
00000001
00000010
00000100
00001000
,
00000010
00000100
00001000
00010000
01000000
00010000
00001000
00010000
,
00100000
10000000
01000000
01000000
00010000
00001000
00000100
00000001
,
00000010
00001000
00000010
00000001
00000100
00001000
00010000
00001000
,
00000100
00001000
00010000
00010000
01000000
10000000
00100000
00010000
,
00001000
00000010
00001000
00010000
00001000
00000100
00000001
00000010
,
00000001
00000100
00001000
00001000
00010000
00001000
00000100
00000000
,
00001000
00010000
01000000
10000000
,
00100000
10000000
00000000
00000000
10000000
00010000
00000000
00000000
00010000
00001000
00000000
00000000
00001000
00000001
00000000
00000000
,
00000001
00000000
00000100
00000000
00001000
00010000
01000000
00000000
,
00010000
00000000
00001000
00000000
00010000
00100000
10000000
00000000
,
00010000
00000000
01000000
00000000
00100000
10000000
01000000
00000000
,
00100000
10000000
00000000
00000000
10000000
00010000
00000000
00000000
00010000
00001000
00000000
00000000
00001000
00000001
00000000
00000000
,
00000001
00000000
00000100
00000000
00000001
00001000
00000100
00000000
,
00001000
00000000
00010000
00000000
01000000
00000000
10000000
00000000
00000000
10000000
00000000
00000000
00000000
00000000
00000000
00000000
,
00100000
10000000
01000000
00010000
01000000
10000000
00100000
00010000
,
00001000
00000010
00000001
00000100
00001000
00000100
00000001
00000010
,
00000100
00010000
00001000
00000100
00001000
00010000
01000000
10000000
,
00100000
00010000
00001000
01000000
00010000
10000000
01000000
00010000
,
00001000
00000010
00000001
00000010
00001000
00000010
00000001
00000100
,
00001000
00100000
00001000
00010000
01000000
10000000
00100000
00010000
,
00001000
00100000
01000000
00010000
00001000
00000100
00000001
00000000
,
00000010
00000000
00000001
00000000
00000100
00000000
00001000
00000000
00000000
00000100
00000000
00000000
00000000
00000000
00000000
00000000
,
00000010
00000001
00000100
00000000
00010000
00100000
01000000
00000000
,
10000000
00100000
01000000
00000000
00001000
00010000
00000100
00000000
,
00001001
00000000
00000101
00000000
00000010
00001000
00000100
00000000
,
00011000
00000000
10010000
00000000
00100000
10000000
01000000
00000000
,
10010000
10100000
11000000
10000000
,
10010000
01010000
00110000
00010000
,
00011000
00000000
00001001
00000000
00000010
00000001
00000100
00000000
,
00001000
00000000
00010000
00000000
01000000
01000000
10000000
00000000
,
10010000
01100000
01010000
01010000
,
00011000
00001100
00000110
00001001
,
00001001
00000110
00001100
00110000
,
10010000
00000000
01100000
00000000
,
00000000
10000000
00000000
01000000
00000000
00010000
00000000
00001000
,
00000000
00000100
00000000
00000001
00000000
00000110
00000000
00001001
,
00000000
00000010
00000000
00000100
00000000
00001000
00000000
00100000
,
01000000
00000000
10000000
10000000
,
01010000
00000000
00000010
00001001
,
00000010
00000000
00000001
00000000
00001000
00000100
00001000
00000000
,
00100000
00000000
00010000
00000000
10000000
01000000
10000000
00000000
,
00100000
00000000
10000000
00000000
00010000
01000000
00010000
00000000
,
00000010
00000000
00001000
00000000
00000001
00000100
00000001
00000000
,
00000001
00000010
00000100
00001000
00100000
10000000
01000000
00000000
,
10000000
01000000
00010000
00001000
00000100
00000010
00000001
00000000
,
00000001
00000100
00001000
00000100
00001000
00010000
01000000
00000000
,
00100000
00000000
10000000
00000000
01000000
00000000
11000000
00000000
00000000
10010000
00000000
00000000
00000000
00000000
00000000
00000000
,
00100000
10000000
01000000
00010000
00001000
00000100
00000001
00000010
,
00001000
00010000
00001000
00000100
00000001
00000010
00000100
00010000
,
00001000
00100000
01000000
10000000
00100000
01000000
00001000
00010000
,
00001000
00000100
00000001
00000010
00000100
00001000
00000100
00010000
,
01000000
10000000
00100000
10000000
01000000
00010000
00001000
00000100
,
00000010
00001000
00000100
00000001
00000100
00001000
00100000
10000000
,
01000000
00010000
01000000
00010000
00001000
00000100
00000001
00000000
,
00000010
00000000
00000001
00000000
00000100
00000000
00000001
00001000
00000000
00001000
00000100
00000000
00000000
00000000
00000000
00000000
,
00100000
00000000
00001000
00000000
00010000
00000000
00001000
00010000
00000000
00010000
00001000
00000000
00000000
00000000
00000000
00000000
,
00100000
00000000
10000000
00000000
01000000
00000000
10000000
00010000
00000000
00010000
10000000
00000000
00000000
00000000
00010000
00000000
,
01000000
00000000
00000000
00000000
;

//---------------dance-solo - ----------------
#NOTES:
     dance-solo:
     :
     Easy:
     4:
     0.116,0.187,0.102,0.000,0.000,216.000,31.000,0.000,0.000,0.000:
000000
000000
000000
000000
,
000000
000000
000000
000000
,
000000
000000
000000
000000
,
000000
000000
000000
000000
,
000100
001000
000010
010000
,
000100
001000
000010
010000
,
001000
100000
000100
000001
,
001000
100000
000100
000001
,
010000
000000
001000
001000
,
000010
000000
001000
001000
,
100000
001000
000001
001000
,
000001
100000
000010
010000
,
001000
100000
000001
010000
,
000010
001000
000001
100000
,
001000
100000
000001
010000
,
000010
001000
000001
100000
,
001000
001000
001000
001000
,
100000
000001
010000
000010
,
001000
001000
001000
001000
,
100000
000000
000001
000000
,
010000
000100
000010
000100
,
010000
000100
000010
000100
,
010000
000100
000010
000100
,
010000
000100
000010
000100
,
100000
001000
000001
001000
,
100000
001000
000001
001000
,
100000
001000
000001
001000
,
100000
100000
100000
100000
,
000100
100000
001000
010000
,
000010
001000
000001
001000
,
010000
010000
001000
001000
,
100000
000000
000000
000000
,
000001
001000
100000
001000
,
000100
000100
000010
010000
,
001000
000001
001000
100000
,
000100
000000
000000
000000
,
010100
010100
010100
010100
,
000110
000110
000110
000110
,
010010
010010
010010
010010
,
010010
000000
000000
000000
,
000011
000011
000011
000011
,
010010
010010
010010
010010
,
110000
110000
110000
110000
,
100001
000000
000000
000000
,
001100
000000
000000
000000
,
000011
100000
001000
100000
,
110000
000001
001000
000001
,
000110
100000
000001
001000
,
010100
000001
100000
001000
,
000001
100000
001000
010000
,
100000
000001
001000
000010
,
000100
010000
000010
000100
,
100000
000000
001000
000000
,
010000
000001
010000
001000
,
100000
000001
001000
001000
,
000010
100000
000010
001000
,
000001
100000
001000
001000
,
000100
000010
010000
001000
,
100000
001000
000001
001000
,
000010
010000
000100
001000
,
000001
100000
000001
001000
,
010000
000100
001000
001000
,
000010
000100
001000
100000
,
000001
000000
000000
000000
;

//---------------dance-solo - ----------------
#NOTES:
     dance-solo:
     :
     Medium:
     6:
     0.136,0.145,0.036,0.000,0.000,278.000,11.000,0.000,0.000,0.000:
000000
000000
000000
000000
,
000000
000000
000000
000000
,
000000
000000
000000
000000
,
000000
000000
000000
000000
,
000100
100000
001000
000000
000100
000001
001000
000000
,
000100
100000
010000
000000
001000
000001
000010
000000
,
000001
100000
001000
000000
100000
000001
001000
000000
,
000100
010000
000100
000000
000010
000100
000010
000000
,
100000
001000
100000
000000
000001
001000
000001
000000
,
010000
100000
010000
000000
000010
000001
000010
000000
,
000100
010000
001000
000000
100000
000010
001000
000000
,
000010
000000
010000
000000
000001
100000
001000
000000
,
000100
000000
000100
000000
100000
010000
100000
000000
,
000100
000000
000100
000000
000001
000010
000001
000000
,
100000
000000
000001
000000
100000
000100
100000
000000
,
000001
000000
100000
000000
000001
000100
000001
000000
,
001000
000000
100000
000000
000001
000010
001000
000000
,
001000
000000
000001
000000
100000
010000
001000
000000
,
000010
000000
000010
000000
010000
000100
010000
000000
,
010000
000000
010000
000000
000010
000100
000010
000000
,
100000
000000
000000
000000
000010
001000
000010
000000
,
000001
000000
000000
000000
010000
001000
010000
000000
,
000100
000000
000000
000000
000001
100000
000001
000000
,
001000
000000
000000
000000
010000
000001
010000
000000
,
000001
000000
000000
000000
100000
000100
001000
000000
,
001000
000000
000000
000000
000100
010000
000010
000000
,
100000
000000
000000
000000
100000
000100
000001
000000
,
010000
000100
010000
000000
000001
000000
001000
000000
,
000100
100000
001000
000000
000001
000000
001000
000000
,
000100
000001
100000
000000
101000
000000
101000
000000
,
000100
000000
000100
000000
000001
001000
000100
000000
,
100001
000000
000000
000000
,
000100
000000
100000
000000
100000
001000
000001
000000
,
000001
001000
100000
000000
000101
000000
001001
000000
,
100001
000000
100100
000000
000100
100000
010000
000000
,
100001
000000
000000
000000
,
010000
010000
010000
010000
,
000010
000010
000010
000010
,
001000
001000
001000
001000
,
010010
000000
000001
000000
,
100000
001000
000001
001000
,
000010
000100
010000
000100
,
100000
001000
100000
000000
000001
000100
001000
000000
,
000010
000000
010000
000100
,
000110
000000
010000
100001
,
001000
000000
000001
000000
100000
000100
010000
000000
,
001000
000000
100000
000000
000001
000100
000010
000000
,
000100
000000
010000
000000
000010
000100
000010
000000
,
000100
000000
000010
000000
010000
000100
010000
000000
,
000001
010000
001000
000000
100000
000010
001000
000000
,
000100
100000
001000
000000
000100
000001
001000
000000
,
010000
100000
010000
000000
000010
000001
000010
000000
,
000100
100000
001000
000001
,
000100
100000
000100
000000
000100
000000
000100
000000
,
001000
000001
001000
000000
001000
000000
001000
000000
,
000100
010000
000100
000000
000100
000000
000100
000000
,
000010
010000
000010
010000
000010
010000
000010
000000
,
100000
000000
001000
000000
000001
100000
001000
000000
,
000001
000000
001000
000000
100000
000001
001000
000000
,
000100
000000
010000
000000
010000
000010
000001
000000
,
000001
001000
100000
000100
,
000100
100000
001000
000001
,
010000
000010
000100
001000
,
000001
000000
000000
000000
;

//---------------dance-solo - ----------------
#NOTES:
     dance-solo:
     :
     Hard:
     9:
     0.196,0.177,0.053,0.000,0.074,400.000,16.000,0.000,0.000,0.000:
000000
000000
000000
000000
,
000000
000000
000000
000000
,
000000
000000
000000
000000
,
000000
000000
000000
000000
,
000100
010000
100000
010000
000100
000001
000010
000100
,
001000
100000
010000
100000
001000
000001
001000
100000
,
000100
001000
000001
000010
000001
100000
010000
001000
,
000100
100000
001000
000010
000001
001000
100000
001000
,
000001
000100
000000
001000
100000
010000
100000
001000
,
000100
000001
001000
100000
001000
000001
000100
001000
,
100000
000001
001000
000100
010000
001000
100000
010000
,
100000
000001
000010
000001
000100
001000
100000
000000
,
000100
100000
001000
000001
,
000100
100000
000000
000000
100000
001000
000000
000000
001000
000100
000000
000000
000100
000001
000000
000000
,
100000
000000
001000
000000
010000
000100
010000
000000
,
000001
000000
001000
000000
000010
000100
000010
000000
,
100000
000000
001000
000000
000100
000001
001000
000000
,
000001
001000
000000
000000
001000
000001
000000
000000
000001
000100
000000
000000
000100
001000
000000
000000
,
100000
000000
000001
000000
100000
000001
100000
000000
,
000100
000000
100000
000000
001000
000000
000010
000000
000000
010000
000000
000000
000000
000000
000000
000000
,
001000
000001
000100
100000
000100
000001
001000
010000
,
100000
000001
000100
001000
010000
000010
001000
000100
,
010000
100000
010000
000100
000001
000010
000100
001000
,
100000
010000
100000
000001
001000
000100
100000
001000
,
000001
001000
100000
000100
001000
100000
001000
000001
,
000010
001000
100000
010000
001000
000001
000010
001000
,
100000
000100
000001
000100
010000
001000
100000
000000
,
000100
000000
000100
000000
000100
000000
010000
000000
000000
000010
000000
000000
000000
000000
000000
000000
,
000100
010000
001000
000000
000100
000010
001000
000000
,
100000
000100
010000
000000
000001
000100
000010
000000
,
100001
000000
101000
000000
000100
100000
010000
000000
,
100001
000000
001001
000000
000100
000001
000010
000000
,
100100
010100
001100
000100
,
001000
001100
001010
001001
,
100001
000000
001100
000000
100000
000001
100000
000000
,
000010
000000
000010
000000
100000
001000
100000
000000
,
000100
000010
000100
000001
000100
001000
000100
000001
,
001000
100000
001000
010000
001000
000001
001000
000001
,
000100
000010
000100
100000
000100
001000
000100
000000
,
100001
000000
000010
000000
,
100000
000100
100000
000001
100000
000010
100000
001000
,
000100
000001
000100
001000
000100
000001
000100
000010
,
100000
010000
100000
000001
100000
001000
100000
000000
,
010010
000000
001000
001000
,
100001
000000
000100
010010
,
000001
100000
000100
001000
000001
000100
001000
100000
,
010000
001000
000010
000100
000001
001000
100000
001000
,
000001
000010
001000
100000
010000
001000
000001
000010
,
001000
100000
000100
010000
001000
000010
000001
001000
,
000100
100000
000001
001000
000010
000100
001000
100000
,
010000
001000
000001
000100
000010
001000
010000
100000
,
001000
000001
001000
100000
000100
010000
001000
000000
,
010000
000000
010000
000000
010000
000000
000001
000000
000000
000100
000000
000000
000000
000000
000000
000000
,
000100
100000
000000
000000
100000
010000
000000
000000
010000
100000
000000
000000
100000
000001
000000
000000
,
000001
000100
000000
000000
000100
001000
000000
000000
001000
000001
000000
000000
000001
001000
000000
000000
,
001000
100000
000000
000000
100000
000010
000000
000000
000010
000100
000000
000000
000100
000001
000000
000000
,
000001
001000
000000
000000
001000
100000
000000
000000
100000
001000
000000
000000
001000
000100
000000
000000
,
000100
010000
000000
000000
010000
000010
000000
000000
000010
000100
000000
000000
000100
000001
000000
000000
,
000001
100000
000000
000000
100000
001000
000000
000000
001000
010000
000000
000000
010000
000001
000000
000000
,
000001
000010
000000
000000
000010
000001
000000
000000
000001
001000
000000
000000
001000
000100
000000
000000
,
100000
000000
000001
000000
100000
000000
010000
000100
000000
010000
000100
000000
000000
000000
000000
000000
,
000001
000000
100000
000000
000001
000000
000010
000100
000000
000010
000100
000000
000000
000000
000000
000000
,
100000
000000
000001
000000
001000
000000
100000
001000
000000
100000
001000
000000
000000
000000
000010
000000
,
010000
000000
000000
000000
;
