#TITLE:Noiseland Arcade;
#SUBTITLE:;
#ARTIST:Hardon Collider;
#TITLETRANSLIT:;
#SUBTITLETRANSLIT:;
#ARTISTTRANSLIT:;
#CREDIT:C. Clinton;
#BANNER:../fallback-bn.png;
#BACKGROUND:../fallback-bg.png;
#LYRICSPATH:;
#CDTITLE:;
#MUSIC:Noiseland Arcade.ogg;
#OFFSET:-0.006;
#SAMPLESTART:23.709;
#SAMPLELENGTH:9.361;
#SELECTABLE:YES;
#DISPLAYBPM:205.000;
#BPMS:0.000=205.100,221.000=410.200,225.000=205.100;
#STOPS:221.000=0.037
,221.250=0.037
,221.500=0.037
,221.750=0.037
,222.000=0.037
,222.250=0.037
,222.500=0.037
,222.750=0.037
,223.000=0.037
,223.250=0.037
,223.500=0.037
,223.750=0.037
,224.000=0.037
,224.250=0.037
,224.500=0.037
,224.750=0.037
;
#BGCHANGES:;
// cache tags:
#FIRSTBEAT:28.000;
#LASTBEAT:284.000;
#SONGFILENAME:Songs/SSSC PACK/[Chaoz] - Noiseland Arcade {17ft}/Noiseland Arcade.sm;
#HASMUSIC:1;
#HASBANNER:1;
#MUSICLENGTH:83.190;
// end cache tags

//---------------dance-single - C. Clinton----------------
#NOTES:
     dance-single:
     C. Clinton:
     Challenge:
     17:
     1.000,1.000,1.000,0.012,1.000,763.000,130.000,1.000,0.000,0.000:

0000
0000
0000
0000
,
0000
0000
0000
0000
,
0000
0000
0000
0000
,
0000
0000
0000
0000
,
0000
0000
0000
0000
,
0000
0000
0000
0000
,
0000
0000
0000
0000
,
1001
0000
0000
0000
0000
0000
0000
0000
0000
0000
0000
0000
0000
0000
0000
0000
0000
0000
0101
0000
0000
0000
0000
0000
0000
0000
0000
0000
0000
0000
0100
0000
0000
0000
0010
0000
0000
0000
1000
0000
0000
0000
0001
0000
0000
0010
0000
0000
,
0100
0000
0000
0000
0000
0000
0000
0000
0000
0000
0000
0000
1000
0000
0000
0000
0000
0000
0001
0000
0000
0000
0000
0000
0000
0000
0000
0000
0000
0000
0000
0000
0000
0000
0000
0000
0100
0000
0000
0000
0000
0000
0000
0000
0000
0000
0000
0000
0010
0000
0000
0000
0000
0000
0000
0000
0000
0000
0000
0000
0000
0000
0000
0000
0000
0000
0000
0000
0000
0000
0000
0000
0100
0000
0000
0000
0000
0000
0000
0000
0001
0000
0000
0000
0000
0000
0000
0000
0400
0000
0000
0000
0000
0000
0000
0000
0000
0000
0000
0000
0000
0000
0000
0000
0000
0000
0000
0000
0000
0000
0000
0000
0000
0000
0000
0000
0000
0000
0000
0000
0000
0000
0000
0000
0000
0000
0000
0000
0000
0000
0000
0000
0000
0000
0000
0000
0000
0000
0000
0000
0000
0000
0000
0000
0310
0000
0000
0000
0000
0000
0000
0000
0000
0000
0000
0000
0000
0000
0000
0000
0000
0000
0000
0000
0000
0000
0000
0000
0000
0000
0000
0000
0000
0000
0000
0000
0000
0000
0000
0000
0000
0000
0000
0000
0000
0000
0000
0000
0000
0000
0000
0000
,
1010
1001
1100
0110
,
0011
0000
0000
0000
0000
0000
0001
0000
0000
0000
0000
0000
1001
0000
0000
0000
0000
0000
1000
0000
0000
0001
0000
0000
1000
0000
0000
0010
0000
0000
0000
0000
0000
0000
0000
0000
0000
0000
0000
0101
0000
0000
0000
0000
0001
0000
1000
0000
,
0001
0000
0000
0000
0000
0000
1000
0000
0000
0000
0000
0000
0000
0000
0000
0000
0000
0000
0100
0000
0000
0010
0000
0000
0000
0000
0000
0100
0000
0000
0000
0000
0000
0000
1000
0000
0001
0000
1000
0000
0001
0000
1000
0000
0001
0000
1000
0000
,
0001
0000
0000
0100
0000
0000
0001
0000
0000
1000
0000
0000
0100
0000
0000
0010
0000
0000
0001
0000
0010
0000
0100
0000
1000
0000
0000
0000
0000
0000
0001
0000
0000
0100
0000
0000
0001
0000
0000
0100
0000
0000
0001
0000
0000
0100
0000
0000
,
0010
0000
1000
0000
0001
0000
1000
0000
0010
0000
0100
0000
0001
0000
0000
1000
0000
0000
0100
0000
0000
0010
0000
0000
0001
0000
0000
1000
0000
0000
0001
0000
0000
0000
0000
0000
1001
0000
0000
0000
0000
0000
0000
0000
0000
0000
0000
0000
,
0000
0000
0000
0000
1100
0000
0000
0000
0000
0000
0000
0000
0000
0000
0000
0000
0110
0000
0000
0000
0000
0000
0000
0001
0000
0000
1001
0000
0000
0000
0000
0000
,
1000
0000
0000
0000
0000
0000
0000
0000
0001
0000
0000
0000
0100
0000
0000
0000
0000
0000
0000
0000
0000
0000
0000
0000
0110
0000
0000
0000
0000
0000
0000
0100
0000
0000
0000
0000
0000
0000
0101
0000
0000
0000
0000
0000
0000
0000
0001
0000
0000
0000
0000
0000
0000
0000
1001
0000
0000
0000
0000
0000
0000
0000
0000
0000
,
1100
0000
0000
0000
0000
0000
0100
0000
0010
0000
0001
0000
1000
0000
0000
0000
0000
0000
0001
0000
0100
0000
0010
0000
1000
0000
0000
0000
0000
0000
0001
0000
0000
1000
0000
0000
0001
0000
0000
0000
0000
0000
1000
0000
0010
0000
1000
0000
,
0010
0000
0000
0000
0000
0000
0100
0000
0001
0000
0100
0000
0001
0000
0010
0000
0000
0000
0100
0000
0000
0000
0000
0000
1000
0000
0001
0000
0000
0000
0100
0000
0010
0000
0100
0000
0010
0000
0000
0000
0000
0000
0100
0000
0000
0001
0000
0000
,
1000
0000
0000
0000
0010
0100
0010
0000
0000
0000
0100
0001
0100
0000
0000
0000
0001
1000
0001
1000
0100
1000
0000
0000
,
0001
0000
0010
0000
0000
0000
0100
0000
1000
0000
0000
0000
0000
0000
0001
0000
0100
0000
0010
0000
1000
0000
0001
0000
1000
0000
0001
0000
0000
0000
1000
0000
0000
0010
0000
0000
0100
0000
0001
0000
0000
0000
0100
0000
0000
0010
0000
0000
,
1000
0001
1000
0000
1001
0000
0001
0000
0101
0000
0100
0000
0110
0000
0010
0000
,
1010
1000
1001
0001
0011
0001
1001
0001
,
0101
0100
0110
0010
1010
1000
1100
0100
,
0110
0010
0011
0011
1001
1001
0101
0101
,
0110
0010
1010
1000
1001
0101
1001
1000
,
1010
0010
0110
0110
0101
0101
1001
1001
,
1100
0100
0110
0010
0011
0001
1001
1000
,
1100
0000
0000
0100
0000
0000
1000
0001
1000
0001
1000
0001
1000
0000
0000
1001
0000
0000
0101
0000
0000
0110
0000
0000
,
1010
0010
0110
0100
0101
0001
1001
1000
,
1001
0000
0000
0001
0000
0000
1000
0100
1000
0100
1000
0100
1000
0000
0000
1001
0000
0000
0101
0000
0000
0110
0000
0000
,
1010
0110
0101
0001
1001
1000
1001
0001
,
1001
0000
0000
1000
0000
0000
0100
0010
0001
1000
0100
0010
0001
0000
0000
0100
0000
0000
0010
1000
0001
0100
0010
1000
,
0001
1000
1010
0010
0110
0100
0101
0001
,
0101
0100
0110
0010
1010
1000
1001
0001
,
0011
0010
0110
1100
1001
0101
0110
0101
,
1001
1100
0110
0000
0001
1001
0001
0000
,
1010
0110
0101
0001
1000
1100
0110
0011
,
0110
1100
1001
0001
0101
0100
0110
0010
,
1000
0000
0000
0010
0000
0000
0100
0000
0000
0001
0000
0000
1000
0000
0000
0100
0000
0000
0010
0000
0000
0001
0000
0000
1000
0000
0001
0000
1000
0000
0001
0000
1000
0000
0001
0000
1000
0000
0001
0000
1000
0000
0001
0000
1000
0000
0001
0000
,
1000
0000
0010
0000
1000
0000
0010
0000
1000
0000
0010
0000
1000
0000
0000
0010
0000
0000
0100
0000
0000
0001
0000
0000
1000
0000
0000
0100
0000
0000
0010
0000
0001
0000
0010
0000
0100
0000
1000
0000
0001
0000
0100
0000
0000
0010
0000
0000
,
1000
0000
0000
0001
0000
0000
0010
0000
0000
0000
0000
0000
0100
0000
1000
0000
0001
0000
1000
0000
0100
0000
1000
0000
0001
0000
0010
0000
0100
0000
1000
0000
0000
0000
0000
0000
1001
0000
0000
0000
0000
0000
0001
0000
0000
0000
0000
0000
,
0101
0000
0000
0000
0000
0000
0100
0000
0010
0000
1000
0000
0010
0000
0000
0100
0000
0000
0001
0000
0000
1000
0000
0000
0100
0000
0000
0000
0000
0000
0010
0000
0000
0000
0000
0000
0011
0000
0000
0000
0000
0000
0001
0000
0000
0000
0000
0000
,
1001
0000
0000
1000
0000
0000
0010
0100
0010
0100
0000
0000
0001
0100
0001
0100
0000
0000
0010
1000
0010
1000
0000
0000
,
0001
0000
0010
0000
0001
0000
0010
0000
0000
0000
0000
0000
0100
0000
1000
0000
0000
0000
0001
0000
1000
0000
0000
0000
0001
0000
0010
0000
0000
0000
0100
0000
1000
0000
0000
0000
0001
0000
0100
0000
0000
0000
0010
0000
0000
1000
0000
0000
,
0010
0000
0000
0100
0000
0000
0001
0000
1000
0000
0000
0000
0010
0000
1000
0000
0000
0000
0010
0000
0100
0000
0000
0000
0001
0000
0000
0100
0000
0000
0010
0000
1000
0000
0000
0000
0001
0000
0000
0010
0000
0000
0100
0000
1000
0000
0000
0000
,
0001
0000
0000
1000
0000
0000
0001
0000
0010
0000
0000
0000
0100
0000
1000
0000
0001
0000
0010
0000
0100
0000
1000
0000
0001
0000
0010
0000
0100
0000
0010
0000
0001
0000
1000
0000
0010
0000
0100
0000
0001
0000
1000
0000
0010
0000
0100
0000
,
0010
1000
0001
0010
0100
1000
0001
0100
0001
1000
0001
0010
0001
1000
0001
0100
0010
1000
0100
0010
0001
0010
0100
1000
,
0010
0100
0001
0100
0010
1000
0001
0010
0000
0100
1000
0000
0000
0001
0100
0000
0000
0010
1000
0010
0100
0001
0100
0010
,
1000
0000
0001
0000
0010
0000
0100
0000
1000
0000
0100
0000
0010
0000
0001
0000
1000
0000
0001
0000
0000
0100
0000
0000
0001
0000
0000
1000
0000
0000
0001
0000
0010
0000
0000
0000
0100
0000
0000
1000
0000
0000
0001
0000
0000
0100
0000
0000
,
0010
1000
0010
1000
0000
0000
1001
0000
0000
0001
0000
0000
0101
0000
0000
0100
0000
0000
0110
0000
0000
0010
0000
0000
,
1010
0000
0000
0000
0000
0000
1000
0000
0000
0000
0000
0000
1001
0000
0000
0000
0000
0000
0001
0000
0000
0000
0000
0000
0010
0000
0000
0100
0000
0000
1000
0000
0000
0100
0000
0000
0010
0000
0000
0000
0000
0000
0001
0000
1000
0000
0001
0000
,
1000
0010
0110
0100
0101
0001
1001
1000
,
1100
0000
0110
0000
0010
0000
0001
0000
0101
0000
0100
0010
1000
0010
0100
0000
,
0101
0001
1001
1000
1001
0001
0011
0010
,
0110
0000
0000
0000
0000
0000
0100
0000
0000
0000
0000
0000
1000
0000
0100
0000
0010
0000
0001
0000
0000
0000
0000
0000
0100
0000
0000
0000
0000
0000
0010
0000
1000
0000
0001
0000
0100
0000
0000
0001
0000
0000
1000
0000
0000
0100
0000
0000
,
0010
0000
0001
0000
0010
0000
0001
0000
0000
0000
0000
0000
1000
0000
0000
0010
0000
0000
1000
0000
0000
0010
0000
0000
0100
0000
0000
0001
0000
0000
0100
0000
0000
0001
0000
0000
1000
0000
0000
0100
0000
0000
1000
0000
0000
0100
0000
0000
,
0010
0001
0010
0001
1000
0100
1000
0001
0100
0010
1000
0010
0100
0001
0010
0100
,
1000
0001
0100
0010
0200
0000
0000
0000
0000
0000
0000
0000
0300
0000
0000
0000
,
0000
0000
0000
0000
,
0000
0000
0001
0100
0010
1000
0100
0010
,
0001
0000
0000
0000
0000
0000
1000
0000
0000
0000
0000
0000
0001
0000
0000
1000
0000
0000
0001
0000
0000
0100
0000
0000
0010
0000
0000
1000
0000
0000
0010
0000
0000
0100
0000
0000
0001
0000
0010
0000
0100
0000
1000
0000
0100
0000
0010
0000
,
0001
1000
0001
0100
0001
1000
0010
0100
0010
1000
0010
0100
0001
0010
0100
1000
0100
0010
0001
1000
0001
1000
0001
0100
,
0001
0100
0010
1000
0010
0100
0001
0100
0010
1000
0001
1000
0100
1000
0001
1010
0000
0100
0001
0100
0001
1000
0100
0010
,
0001
1000
0010
0100
0001
1000
0010
0100
0010
1000
0001
1000
0100
0010
0100
1000
0001
0010
0100
1000
0001
0100
0001
1000
,
0010
0100
0001
0100
0010
1000
0001
0010
0100
1000
0001
1000
0001
1000
0001
1000
0001
1000
0001
1000
0001
1000
0001
1000
,
0001
0000
1000
0000
0001
0000
1000
0000
0001
0000
1000
0000
0001
0000
0000
0100
0000
0000
0010
0000
0000
0100
0000
0000
0001
0000
0000
0100
0000
0000
0010
0000
0000
1000
0000
0000
0010
0000
0000
0100
0000
0000
0001
0000
0000
1000
0000
0000
,
0001
0000
0010
0000
0100
0000
0000
0000
0000
1000
0000
0000
0000
0000
0010
0000
0000
0000
0000
0000
0000
0000
0000
0000
0000
0000
0000
0000
0000
0000
0000
0000
,
0000
0000
0000
0000
,
0000
0100
0001
1000
0010
0100
0001
0100
,
0010
1010
0010
0110
0100
0101
0001
1001
,
1000
0000
1100
0000
1100
0000
0110
0000
0110
0000
0010
0001
1000
0000
1001
0000
,
0101
0000
0000
0000
;
