#TITLE:In The Presence Of Enemies (Part II);
#SUBTITLE:Systematic Chaos (2007);
#ARTIST:Dream Theater;
#TITLETRANSLIT:;
#SUBTITLETRANSLIT:;
#ARTISTTRANSLIT:;
#CREDIT:;
#BANNER:presencebn.jpg;
#BACKGROUND:presencebg.jpg;
#LYRICSPATH:;
#CDTITLE:!gloveTitle.png;
#MUSIC:08-dream_theater-in_the_presence_of_enemies_(part_ii)cut.mp3;
#OFFSET:-5.212;
#SAMPLESTART:100.000;
#SAMPLELENGTH:12.000;
#SELECTABLE:YES;
#BPMS:0.000=125.101,4.000=122.402,9.250=126.162,13.250=126.982,16.000=125.102,40.000=124.951,62.000=124.003,69.000=125.302,73.000=125.303,76.000=124.083,80.000=127.102,83.500=120.422,84.000=125.502,105.500=116.282,106.000=124.502,124.000=126.202,128.000=125.043,164.000=124.903,190.000=125.103,214.000=124.903,220.000=125.303,230.750=116.704,231.500=125.353,249.250=116.804,250.000=125.553,252.000=127.343,254.250=125.064,257.750=114.104,258.000=184.396,293.125=183.976,319.000=182.097,358.500=181.097,381.000=219.158,382.000=180.897,388.000=186.038,520.000=185.918,592.000=183.298,595.000=183.999,597.000=184.999,599.000=175.499,600.000=139.300,601.000=110.760,602.500=94.400,603.500=72.500;
#STOPS:;
#BGCHANGES:;
// cache tags:
#FIRSTBEAT:4.000;
#LASTBEAT:604.000;
#SONGFILENAME:Songs/Astronomic Metal Collection 2/(GLoVE) In The Presence Of Enemies (Part II)/presenceofenemiespt2.sm;
#HASMUSIC:1;
#HASBANNER:1;
#MUSICLENGTH:256.862;
// end cache tags

//---------------dance-single - Blank----------------
#NOTES:
     dance-single:
     Blank:
     Hard:
     14:
     1.000,1.000,1.000,0.428,1.000,1948.000,529.000,110.000,104.000,51.000:

0000
0000
0000
0000
,
1000
0000
0000
0000
0001
0000
0000
0000
0000
0000
0000
1000
0000
0000
0000
0000
0000
0000
0000
0000
1000
0000
0000
0000
0000
0000
0000
0000
1000
0000
0000
0000
0000
0000
0000
0000
1000
0000
0000
0000
0001
0000
0000
0000
1000
0000
0000
0000
0001
0000
0000
0000
1000
0000
0000
0000
0000
0000
0000
0000
1000
0000
0000
0000
,
0000
1000
0000
1000
0000
1000
0001
1000
0001
1000
0000
1000
0000
1000
0000
1000
,
0000
1000
0001
1000
0001
1000
0000
1000
0000
1000
0000
1000
0000
1000
0001
1000
,
0101
0000
1000
0000
0000
0000
1010
0000
0000
0000
1100
0010
0101
0000
1000
0000
0000
0000
1000
0100
0011
0000
1000
0000
0011
0000
1000
0000
0000
0000
1010
0000
,
0000
0000
1100
0010
0101
0000
1000
0000
0000
0000
1000
0100
0011
0000
1000
0000
0011
0000
1000
0000
0000
0000
1010
0000
0000
0000
1100
0010
0101
0000
1000
0000
,
0000
0000
1000
0100
0011
0000
1000
0000
0011
0000
1000
0000
0000
0000
1010
0000
0000
0000
1100
0010
0101
0000
1000
0000
0010
0000
1001
0000
0110
0000
1001
0000
,
0110
1000
0000
1010
0000
1000
0101
1000
0000
1010
0100
1000
0101
1000
0000
1010
,
0000
1000
0111
1000
0000
1010
0100
1000
0101
1000
0000
1010
0000
1000
0111
1000
,
0000
1010
0100
1000
0101
1000
0000
1010
0000
1000
0101
1000
0010
0101
1010
0101
,
1010
0001
1000
0010
1000
1000
0101
1000
0010
1000
0001
1000
1000
0001
1000
0010
,
1000
1000
0101
1000
0010
1000
1000
0001
1000
0010
1000
1000
0011
1000
0010
1000
,
0100
1000
1000
0001
1000
1000
0011
1000
1000
0100
1000
1000
1010
0001
1000
0010
,
1000
1000
0101
1000
0010
1000
0001
1000
1000
0001
1000
0010
1000
1000
0101
1000
,
0010
0000
0000
1000
0000
0000
1000
0000
0000
0001
0000
0000
1000
0000
0000
0010
0000
0000
1000
0000
0000
1000
0000
0000
0011
0000
0000
1000
0000
0000
0010
0000
0000
1000
0000
0000
0101
0010
0000
1000
0000
0000
0110
0000
0000
0101
0000
0000
,
1000
0000
0010
0101
0000
0000
1000
0000
0000
0110
0000
0000
0011
0000
0000
1000
0000
0000
0011
0000
0000
0100
0000
0000
1001
0000
0000
0010
0000
0000
0000
0000
0000
0100
0000
0000
0000
0000
0000
1000
0000
0000
0101
0000
0000
0000
0000
0000
,
0010
0000
0001
0000
1000
0010
0000
0100
0000
1000
0110
0000
0001
0000
1000
0010
,
0000
0100
0000
1000
0101
0000
0010
0000
0100
0000
0000
0001
0000
0000
1010
0000
,
0000
0100
0001
0000
1001
0010
0000
0100
0000
1000
0101
0000
0010
0000
0001
0000
,
1000
0010
0000
0100
0000
1000
0110
0000
0001
0000
1000
0010
0000
0100
0000
1000
,
0101
0000
0010
0000
1100
0000
0010
0101
0000
1010
0000
0100
0011
0000
0110
0000
,
1000
0011
1000
0110
1000
1000
0101
1000
0010
1000
0001
1000
1000
0011
1000
0110
,
1000
1000
0101
1000
0010
1000
1000
0011
1000
0110
1000
1000
0011
1000
0010
1000
,
0100
1000
1000
0011
1000
1000
0011
1000
1000
0110
1000
1000
1000
0011
1000
0110
,
1000
1000
0101
1000
0010
1000
0001
1000
1000
0011
1000
0110
1000
1000
0101
1000
,
0010
0000
0000
1000
0000
0000
1000
0000
0000
0011
0000
0000
1000
0000
0000
0110
0000
0000
1000
0000
0000
1000
0000
0000
0011
0000
0000
1000
0000
0000
0010
0000
0000
1000
0000
0000
0101
0010
0000
1000
0000
0000
0110
0000
0000
0101
0000
0000
,
1000
0000
0000
0000
0000
0000
0000
0000
0000
0000
0000
0000
0110
0000
0000
0000
0001
0000
0000
0000
0000
0000
0000
0000
1000
0000
0000
0000
0000
0000
0000
0000
0000
0000
0000
0000
0110
0000
0000
0000
0000
0000
0000
0000
0000
0000
0000
0000
0011
0000
0000
0000
0000
0000
0000
0000
0000
0000
0000
0000
0100
0000
0000
0000
0000
0000
0000
0000
0000
0000
0000
0000
1011
0000
0000
0000
0000
0000
0000
0000
0000
0000
0000
0000
0100
0000
0000
0000
0000
0000
0000
0000
0000
0000
0000
0000
1011
0000
0000
0000
0000
0000
0000
0000
0000
0000
0000
0000
0100
0000
0000
0000
0000
0000
0000
0000
0000
0000
0000
0000
0000
0000
0000
0000
0000
0000
0000
0000
0000
0000
0000
0000
0110
0000
0000
0000
0000
0000
0000
0000
0000
0000
0000
0000
0000
0000
0000
0000
0000
0000
0000
0000
0000
0000
0000
0000
1100
0000
0000
0000
0000
0000
0010
0000
0000
0000
0000
0000
0101
0000
0000
0000
0000
0000
0000
0000
0000
0000
0000
0000
0000
0000
0000
0000
0000
0000
0000
0000
0000
0000
0000
0000
,
0110
0000
0000
0000
0011
0000
0000
0000
1101
0000
0010
0000
0000
0000
0110
0000
0000
0000
1100
0001
0110
0000
0000
0000
0101
0000
0000
0000
1101
0000
0010
0000
,
0000
0000
0110
0000
0000
0000
1100
0010
0101
0000
0000
0000
0110
0000
0000
0000
1101
0000
0000
0000
0000
0000
0101
0000
0000
0000
0100
0010
1001
0000
0000
0000
,
0000
0110
0000
0000
1101
0010
0000
1100
0011
1000
0100
0000
1010
0000
0001
0100
,
1001
0000
0000
0010
0000
0000
0000
0000
0000
0100
0000
0000
0010
0000
0000
1000
0000
0000
0100
0000
0001
0000
1000
0000
0011
0000
0000
0000
0000
0000
1000
0000
0000
0010
0000
0000
1001
0000
0000
0100
0000
0000
0000
0000
0001
1000
0100
0000
,
0011
0000
0000
0000
0000
0000
0000
0000
0000
0000
0000
0000
0000
0000
0000
0000
0000
0000
0000
0000
0000
0000
0000
0000
0100
0000
0000
0000
0000
0000
0000
0000
0000
0000
0000
0000
0000
0000
0000
0000
0000
0000
0000
0000
0000
0000
0000
0000
1001
0000
0000
0000
0000
0000
0000
0000
0000
0000
0000
0000
0000
0000
0000
0000
0000
0000
0000
0000
0000
0000
0000
0000
0010
0000
0000
0000
0000
0000
0000
0000
0000
0000
0000
0000
1001
0000
0000
0000
0000
0000
0000
0000
0000
0000
0000
0000
0110
0000
0000
0000
0000
0000
0000
0000
0000
0000
0000
0000
1000
0000
0000
0000
0000
0000
0000
0000
0000
0000
0000
0000
0000
0000
0000
0000
0000
0000
0000
0000
0000
0100
0000
0000
0000
0000
0000
0000
0000
0000
0000
0000
0000
0000
0000
0000
1010
0000
0000
0000
0000
0000
0000
0000
0000
0000
0000
0000
0000
0000
0000
0000
0000
0000
0000
0000
0000
0000
0000
0000
0100
0000
0000
0000
0000
0000
0000
0000
0001
0000
0000
0000
0000
0000
0000
0000
0010
0000
0000
0000
0000
0000
0000
0000
,
1001
0010
0100
1000
0000
0001
0010
0100
1000
0100
0010
0001
0010
1000
0100
1000
,
0000
0001
0010
0100
0011
0000
1100
0000
0001
0010
0100
1000
0000
0100
1000
0100
,
0010
0001
0010
0100
0001
0000
0001
1000
0010
0100
10M0
000M
1M00
00M1
0M00
00M0
,
1M00
10M0
100M
0M10
000M
0M00
00M1
M100
001M
01M0
100M
0M00
M010
0M01
00M0
0M00
,
10M0
100M
10M0
0M01
0000
0000
0001
0010
0100
1000
0001
0100
0010
1000
0000
0001
,
0010
0100
1000
0100
0010
0001
1000
0010
0100
1000
0000
0001
0010
0100
0011
0000
,
1100
0000
0001
0010
0100
1000
0000
0100
1000
0100
0010
0001
0010
0100
0001
0000
,
0001
1000
0001
0010
M100
000M
01M0
M001
0M00
00M0
100M
10M0
1M00
00M1
0M00
M000
,
0M01
M010
01M0
M010
1M00
00M0
010M
M010
000M
00M0
1M00
10M0
100M
0M10
0000
0000
,
0001
1000
0001
0100
0010
1000
0010
0100
1010
0110
1001
0011
0100
1000
0101
0010
,
1100
0001
0100
0011
1100
0011
0100
1000
0101
0010
0100
1010
0001
0110
0001
1100
,
0110
0101
0011
0100
1000
0011
0100
1010
0001
1000
0101
1010
0101
0010
1000
0110
,
0001
0100
1010
0001
0110
0001
1100
1010
0110
0101
0010
1000
0101
0010
1100
0001
,
0010
0101
1010
0101
0010
0100
1010
0001
0010
1100
0010
0101
0010
1100
0110
0101
,
0011
0100
1000
0101
0010
1100
0001
0100
0011
1100
0011
0100
1000
0011
0100
0010
,
1001
0010
1100
0001
0110
1000
0011
0100
1010
0110
0101
0011
0100
1000
0011
0100
,
1010
0100
0001
0110
1001
0110
0001
1000
0110
0001
0100
1010
0100
0011
0100
1010
,
1001
0101
0011
0100
1000
0011
0100
1010
0001
0100
0011
1100
0011
0100
0010
1100
,
0001
0100
1010
0100
0011
0100
1010
0110
0101
0011
0100
1000
0011
0100
1010
0100
,
0010
1001
0110
1001
0010
0100
1010
0100
0010
1100
0010
0101
0010
1100
0110
0101
,
0011
0100
1000
0011
0100
1010
0001
0100
0011
1100
0011
0100
1000
0110
0001
1000
,
0101
0000
1000
0000
0011
0000
0100
0000
1010
0000
0100
0000
0011
0000
0100
0000
1001
0000
0010
0000
0100
0000
1010
0000
0100
0000
0001
0000
0010
0000
0101
0010
,
1100
0000
0011
0000
0100
0000
0011
0100
1001
0000
0010
0000
0100
0000
1001
0010
0100
0000
0001
0000
0100
0000
0011
0100
1011
0000
0000
0000
1110
0000
0000
0000
,
0101
0000
0010
0000
0100
0000
1001
0010
0100
0000
0010
0000
1000
0000
0011
1000
0110
0000
0001
0000
0010
0000
1100
0000
0011
0000
0000
0000
0011
0000
1100
0000
,
0101
0000
1010
0000
11M0
0000
000M
0000
101M
0100
M011
0000
0M00
0000
00M0
0000
1M10
0000
1M10
0000
1M10
0000
01M1
0000
0M00
0000
M000
0000
0M11
0000
11M0
0000
,
M011
0000
011M
0000
11M0
0000
0M00
0000
101M
0000
M101
0000
000M
0000
0M00
0000
10M1
0000
10M1
0000
10M1
0100
M011
0000
0000
0000
0000
0000
0011
0000
0110
0000
,
1010
1100
0011
1001
0110
1100
0010
0101
1010
1100
0110
1001
0101
0011
1100
0011
,
0110
1100
0010
0101
1001
1010
0111
1000
1110
0001
0110
0101
1010
1100
0010
0101
,
1010
0110
1001
0011
0110
1100
0011
0000
0011
1100
0101
1010
11M0
000M
10M1
011M
,
0M00
00M0
110M
11M0
110M
M011
0M00
M100
0M11
01M0
1M10
M011
110M
00M0
110M
0M11
,
000M
00M0
110M
11M0
110M
0M11
0000
0000
0011
0101
0110
1010
1100
0011
0101
0110
,
1010
0100
0000
1000
0000
1000
0000
1000
0000
1000
0100
1000
0100
1000
0000
1000
,
0000
0000
0000
1000
0000
0000
0000
0000
0000
1000
0000
0000
0000
0000
0000
1000
0000
0000
0100
0000
0000
1000
0000
0000
0101
0000
0000
0000
0000
0000
0000
0000
0000
0000
0000
0000
0000
0000
1000
0000
0100
0000
0010
0000
0002
0000
0000
0000
,
0000
0000
0000
0000
0000
0000
0000
0000
0000
0000
0000
0000
0000
0000
0000
0000
0000
0000
0000
0000
0000
0000
0000
0000
0003
0000
0000
0000
0000
0000
0000
0000
0000
0000
0000
0000
0000
0000
0000
0000
0000
0000
0001
0000
0000
0000
0000
0000
0000
0000
0000
0000
0000
0000
0000
0000
0010
0000
0000
0000
0000
0000
0000
0000
0000
0000
0000
0000
2000
0000
0000
0000
0000
0000
0000
0000
0000
0000
0000
0000
0000
0000
0000
0000
0000
0000
0000
0000
0000
0000
0000
0000
0000
0000
0000
0000
3000
0000
0000
0000
0000
0000
0000
0000
0000
0000
0000
0000
0000
0000
0000
1000
0000
0000
0000
0000
0000
0000
0000
0000
0100
0000
0000
0000
0000
0000
0000
0000
0000
0010
0000
0000
0000
0000
0000
0000
0000
0000
0002
0000
0000
0000
0000
0000
0000
0000
0000
0000
0000
0000
0000
0000
0000
0000
0000
0000
0000
0000
0000
0000
0000
0000
0000
0000
0000
0000
0000
0000
0013
0000
0000
0000
0000
0000
0000
0000
0000
0000
0000
0000
0100
0000
0000
0000
0000
0000
0000
0000
0000
0000
0000
0000
,
0001
0000
0000
0100
0000
0000
0010
0000
0000
1000
0000
0000
0100
0000
0010
0000
0001
0000
2000
0000
0000
0000
0000
0000
0000
0000
0000
3000
0000
0100
0000
0001
0000
0010
0000
0000
1000
0000
0000
0100
0000
0000
2000
0000
0000
0000
0000
0000
,
0000
0000
0000
0000
0000
0000
0000
0000
0000
0000
0000
0000
3000
0000
0000
0001
0000
0000
0010
0000
0000
0100
0000
0000
2000
0000
0000
0000
0000
0000
0000
0000
0000
0000
0000
0000
3000
0000
0000
0000
0002
0000
0000
0000
0000
0000
0000
0000
0203
0000
0000
0000
0000
0000
0000
0000
2300
0000
0000
0000
0000
0000
0000
0000
,
3020
0000
0230
0000
,
0000
0000
0000
0000
0000
0000
0000
0000
0000
0000
0000
0000
0000
0000
0000
0000
0000
0000
0000
0000
0000
0000
0000
0000
0000
0000
0000
0000
0000
0000
0000
0000
0000
0000
0000
0000
0000
0000
0000
0000
0000
0000
0000
0000
0000
0000
0000
0000
0300
0000
0000
0000
0000
0000
0000
0000
0000
0000
0000
0000
0000
0000
0000
0000
0000
0000
0000
0000
0000
0000
0000
0000
1000
0000
0000
0000
0000
0000
0000
0000
0000
0000
0000
0000
0100
0000
0000
0000
0000
0000
0000
0000
0000
0000
0000
0000
0010
0000
0000
0000
0000
0000
0000
0000
0001
0000
0000
0000
0000
0000
0000
1000
0000
0000
0000
0000
0000
0000
0000
0000
0000
0000
0100
0000
0000
0000
0000
0000
0000
0000
0000
0000
0000
0010
0000
0000
0000
0000
0000
0000
0000
0000
0000
0000
1000
0000
0000
0000
0000
0000
0000
0000
0000
0000
0000
0000
0100
0000
0000
0000
0000
0000
0000
0000
0000
0000
0000
0000
0010
0000
0000
0000
0000
0000
0000
0000
0000
0000
0000
0000
0100
0000
0000
0000
0000
0000
0000
0000
0000
0000
0000
0000
,
0001
0000
0000
0000
0000
0000
0000
0000
0000
0000
1000
0000
0000
0000
0000
0000
0000
0000
0000
0000
0000
0000
0000
0000
0010
0000
0000
0000
0000
0000
0000
0000
0000
0000
0000
0000
0100
0000
0000
0000
0000
0000
0000
0000
0000
0000
0000
0000
0010
0000
0000
0000
0000
0000
0000
0000
0001
0000
0000
0000
0000
0000
0000
0000
0100
0000
0000
0000
0000
0000
0000
0000
0000
0000
0000
0000
0010
0000
0000
0000
0000
0000
0000
0000
0000
0000
0000
0000
0000
0000
0000
0000
0001
0000
0000
0000
0000
0000
0000
0010
0000
0000
0000
0000
0000
0000
0100
0000
0000
0000
0000
0000
0000
0000
0000
0000
0000
0000
0000
0000
0000
0000
0000
0000
0000
0000
0000
0000
1000
0000
0000
0000
0000
0000
0000
0000
0000
0000
0000
0000
0000
0000
0100
0000
0000
0000
0000
0000
0000
0010
0000
0000
0000
0000
0000
0000
0001
0000
0000
0000
0000
0000
0000
0000
0000
0000
0000
0000
0010
0000
0000
0000
0000
0000
0000
0000
0100
0000
0000
0000
0000
0000
0000
0000
0000
0000
0000
0000
0000
0000
0000
0000
,
1000
0000
0000
0000
0000
0000
0000
0000
0000
0010
0000
0000
0000
0000
0000
0000
0000
0000
0100
0000
0000
0000
0000
0000
0000
0000
0000
0010
0000
0000
0000
0000
0000
0000
0000
0000
0001
0000
0000
0000
0000
0000
0000
0000
0000
0000
0000
0000
0010
0000
0000
0000
0000
0000
0000
0000
0000
0000
0000
0000
0100
0000
0000
0000
0000
0000
0000
1000
0000
0000
0000
0000
0000
0000
0000
0000
0000
0000
0010
0000
0000
0000
0000
0000
0000
0100
0000
0000
0000
0000
0000
0000
0000
0000
0000
0000
1000
0000
0000
0000
0000
0000
0000
0001
0000
0000
0000
0000
0000
0000
0000
0000
0000
0000
0010
0000
0000
0000
0000
0000
0000
0100
0000
0000
0000
0000
0000
0000
0000
0000
0000
0000
1000
0000
0000
0000
0000
0000
0000
0001
0000
0000
0000
0000
0000
0010
0000
0000
0000
0000
0000
0100
0000
0000
0000
0000
0000
0000
0000
0000
0000
0000
0000
0000
0000
1000
0000
0000
0000
0000
0000
0000
0000
0000
0001
0000
0000
0000
0000
0000
0000
0010
0000
0000
0000
0000
0000
0000
0100
0000
0000
0000
,
0000
0000
0000
0000
0000
0000
0010
0000
0000
0000
0000
0000
1000
0000
0000
0000
0000
0000
0000
0000
0000
0000
0000
0000
0001
0000
0000
0000
0000
0000
0000
0000
0000
0000
0010
0000
0000
0000
0000
0100
0000
0000
0000
0000
1000
0000
0000
0000
0000
0000
0000
0000
0000
0000
0010
0000
0000
0000
0000
0000
0000
0100
0000
0000
0000
0000
0000
0000
0000
0000
0000
0000
0001
0000
0000
0000
0000
0000
0000
0000
0000
0000
0000
0000
0000
0010
0000
0000
0000
0000
0000
0000
0100
0000
0000
0000
0000
0000
0000
1000
0000
0000
0000
0000
0000
0000
0000
0000
0001
0000
0000
0000
0000
0000
0000
0000
0010
0000
0000
0000
0000
0000
0000
0000
0100
0000
0000
0000
0000
0000
0000
0000
2000
0000
0000
0000
0000
0000
0000
0000
0000
0000
0000
0000
0000
0000
0000
0000
0000
0000
0000
0000
0000
0000
0000
0000
0000
0000
0000
0000
0000
0000
0000
0000
0000
0000
0000
0000
0000
0000
0000
0000
0000
0000
0000
0000
0000
0000
0000
0000
0000
0000
0000
0000
0000
0000
0000
0000
0000
0000
0000
0000
,
0000
0000
0000
0000
0000
0000
0000
0000
0000
0000
0000
0000
0000
0000
0000
0000
0000
0000
0000
0000
0000
0000
0000
0000
0000
0000
0000
0000
0000
0000
0000
0000
0000
0000
0000
0000
3000
0000
0000
0000
0020
0000
0000
0000
0000
0000
0000
0000
0000
0000
0000
0000
0000
0000
0200
0000
0030
0000
0000
0000
0000
0000
0000
0000
0000
0000
0000
0000
0000
0000
0000
0000
0000
0000
0000
0000
0000
0000
0000
0000
0000
0000
0000
0000
0000
0000
0000
0000
0000
0000
0000
0000
0000
0000
0000
0000
0000
0000
0000
0000
0000
0000
0000
0000
0000
0000
0000
0000
0000
0000
0000
0000
0000
0000
0000
0000
0000
0000
0000
0000
0000
0000
0000
0000
0000
0000
0000
0000
0000
0000
0000
0000
0000
0000
0000
0000
0000
0000
0000
0000
0000
0000
0000
0000
0000
0000
0000
0000
0000
0000
0000
0000
0000
0000
0000
0000
0000
0000
0000
0000
0000
0000
0000
0000
0000
0000
0000
0000
0000
0000
0000
0000
0000
0000
0000
0000
0000
0000
0000
0000
0000
0000
0000
0000
0000
0000
0000
0000
0000
0000
0000
0000
,
0000
0000
0000
0000
0000
0000
0000
0000
0000
0000
0000
0000
0000
0000
0000
0000
0000
0000
0000
0000
0000
0000
0000
0000
0000
0000
0000
0000
0000
0000
0000
0000
0000
0000
0000
0000
0000
0000
0000
0000
0000
0000
0000
0000
0000
0000
0000
0000
0000
0000
0000
0000
0000
0000
0000
0000
0000
0000
0000
0000
0000
0000
0000
0000
0000
0000
0000
0000
0000
0000
0000
0000
0000
0000
0000
0000
0000
0000
0000
0000
0000
0000
0000
0000
0000
0000
0000
0000
0000
0000
0000
0000
0000
0000
0000
0000
0000
0000
0000
0000
0000
0000
0000
0000
0000
0000
0000
0000
0000
0000
0000
0000
0000
0000
0000
0000
0000
0000
0000
0000
0000
0000
0000
0000
0000
0000
0000
0000
0000
0000
0000
0000
0000
0000
0000
0000
0000
0000
0000
0000
0000
0000
0000
0000
0000
0000
0000
0000
0000
0000
0000
0000
0000
0000
0000
0000
0000
0000
0000
0000
0300
0000
0000
0000
0000
0000
0000
0000
0000
0000
0000
0000
0000
0000
1000
0000
0000
0000
0000
0000
0000
0000
0000
0000
0001
0000
0000
0000
0000
0000
0000
0000
,
0000
0000
1000
0000
0000
0000
0000
0000
0000
0000
0000
0000
0000
0000
0100
0000
0000
0000
0000
0000
0000
0000
0000
0000
0000
0000
0010
0000
0000
0000
0000
0000
0000
0000
0000
0000
0001
0000
0000
0000
0000
0000
0000
0000
0000
0000
0000
0000
0010
0000
0000
0000
0000
0000
0000
0000
0000
0000
0000
0000
0000
0100
0000
0000
0000
0000
0000
0000
0000
0000
0000
0000
1000
0000
0000
0000
0000
0000
0000
0000
0000
0000
0000
0010
0000
0000
0000
0000
0000
0000
0000
0000
0000
0000
0000
0100
0000
0000
0000
0000
0000
0000
0000
0000
0000
0000
0000
0000
0001
0000
0000
0000
0000
0000
0000
0000
0000
0000
0000
0100
0000
0000
0000
0000
0000
0000
0000
0000
0000
0000
0000
0000
0000
0000
0010
0000
0000
0000
0000
0000
0000
0000
0000
0000
0000
0000
0000
0100
0000
0000
0000
0000
0000
0000
0000
0000
0000
0000
0000
0000
0000
1000
0000
0000
0000
0000
0000
0000
0000
0000
0000
0000
0001
0000
0000
0000
0000
0000
0000
0000
0000
0000
0000
0000
0100
0000
0000
0000
0000
0000
0000
0000
,
0000
0000
0000
0000
1000
0000
0000
0000
0000
0000
0000
0000
0000
0000
0000
0000
0010
0000
0000
0000
0000
0000
0000
0000
0000
0000
0000
0000
0100
0000
0000
0000
0000
0000
0000
0000
0000
0000
0000
0000
0001
0000
0000
0000
0000
0000
0000
0000
0000
0000
0000
0000
0000
0010
0000
0000
0000
0000
0000
0000
0000
0000
0000
0000
0000
0000
0100
0000
0000
0000
0000
0000
0000
0000
0000
0000
0000
0000
0000
0000
1000
0000
0000
0000
0000
0000
0000
0000
0000
0000
0010
0000
0000
0000
0000
0000
0000
0000
0000
0000
0100
0000
0000
0000
0000
0000
0000
0000
0000
0000
0010
0000
0000
0000
0000
0000
0000
0000
0000
0000
0001
0000
0000
0000
0000
0000
0000
0000
0000
0000
1000
0000
0000
0000
0000
0000
0000
0000
0000
0000
0100
0000
0000
0000
0000
0000
0000
0000
0000
0000
0010
0000
0000
0000
0000
0000
0000
0000
0000
0000
0001
0000
0000
0000
0000
0000
0000
0000
1000
0000
0000
0000
0000
0000
0000
0000
0000
0000
0000
0000
0100
0000
0000
0000
0000
0000
0000
0000
0000
0000
0000
0000
,
0010
0000
0000
0000
0000
0000
0000
0000
0000
0100
0000
0000
0000
0000
0000
0000
0000
0000
1000
0000
0000
0000
0000
0000
0000
0000
0000
0100
0000
0000
0000
0000
0000
0000
0000
0000
0010
0000
0000
0000
0000
0000
0000
0000
0000
0001
0000
0000
0000
0000
0000
0000
0000
0000
0100
0000
0000
0000
0000
0000
0000
0000
0000
0000
0010
0000
0000
0000
0000
0000
0000
0000
0000
0000
1000
0000
0000
0000
0000
0000
0000
0000
0000
0000
0000
0001
0000
0000
0000
0000
0000
0000
0000
0000
0000
0010
0000
0000
0000
0000
0000
0000
0000
0000
0000
0100
0000
0000
0000
0000
0000
0000
0000
0000
0000
0000
1000
0000
0000
0000
0000
0000
0000
0000
0000
0000
0010
0000
0000
0000
0000
0000
0000
0000
0000
0000
0001
0000
0000
0000
0000
0000
0000
0000
0000
0000
0010
0000
0000
0000
0000
0000
0000
0000
0000
0000
0100
0000
0000
0000
0000
0000
0000
0000
0000
0000
0000
0000
0001
0000
0000
0000
0000
0000
0000
0000
0000
0000
0010
0000
0000
0000
0000
0000
0000
0000
0000
0000
0100
0000
0000
0000
,
0000
0000
0000
0000
0000
0000
1000
0000
0000
0000
0000
0000
0000
0000
0000
0000
0000
0000
0100
0000
0000
0000
0000
0000
0000
0000
0000
0000
0000
0000
0000
0001
0000
0000
0000
0000
0000
0000
0000
0000
0010
0000
0000
0000
0000
0000
0000
0000
0000
0000
1000
0000
0000
0000
0000
0000
0000
0000
0000
0000
0000
0001
0000
0000
0000
0000
0000
0000
0000
0000
0000
0000
0010
0000
0000
0000
0000
0000
0000
0000
0000
0000
0100
0000
0000
0000
0000
0000
0000
0000
0000
0000
1000
0000
0000
0000
0000
0000
0000
0000
0000
0000
0100
0000
0000
0000
0000
0000
0000
0000
0000
0000
1000
0000
0000
0000
0000
0000
0000
0000
0000
0000
0010
0000
0000
0000
0000
0000
0000
0000
0000
0000
0000
0100
0000
0000
0000
0000
0000
0000
0000
0000
0000
0000
1000
0000
0000
0000
0000
0000
0000
0000
0000
0000
0000
0010
0000
0000
0000
0000
0000
0000
0000
0000
0000
0000
0100
0000
0000
0000
0000
0000
0000
0000
0000
0000
0000
1000
0000
0000
0000
0000
0000
0000
0000
0000
0000
0001
0000
0000
0000
0000
,
0000
0000
0000
0100
0000
0000
0000
0000
0000
0000
0000
0010
0000
0000
0000
0000
0000
0000
0000
0000
0100
0000
0000
0000
0000
0000
0000
0000
0000
0000
1000
0000
0000
0000
0000
0000
0000
0000
0000
0010
0000
0000
0000
0000
0000
0000
0000
0000
0001
0000
0000
0000
0000
0000
0000
0000
0100
0000
0000
0000
0000
0000
0000
0000
1000
0000
0000
0000
0000
0000
0000
0000
0000
0000
0000
0001
0000
0000
0000
0000
0000
0000
0000
0010
0000
0000
0000
0000
0000
0000
0000
0100
0000
0000
0000
0000
0000
0000
0000
0000
0000
0000
0010
0000
0000
0000
0000
0000
0000
0000
0000
0000
0000
0000
0100
0000
0000
0000
0000
0000
0000
0000
0000
0000
1000
0000
0000
0000
0000
0000
0000
0000
0000
0000
0000
0000
0000
0000
0010
0000
0000
0000
0000
0000
0002
0000
0000
0000
0000
0000
0000
0000
0000
0000
0000
0000
0000
0000
0000
0000
0000
0000
0000
0000
0000
0000
0000
0000
0000
0000
0000
0000
0000
0000
0000
0000
0000
0000
0000
0000
0000
0000
0000
0000
0000
0000
0000
0000
0000
0000
0000
0000
,
0000
0000
0000
0000
0000
0000
0000
0000
0000
0000
0000
0000
0003
0000
0000
0200
,
2300
3010
2000
3200
0301
0020
0230
2300
3010
0200
2300
3020
0031
2000
3200
0310
,
0200
2300
3020
0031
0020
0230
2300
3010
0200
2300
3020
0000
0000
0000
0000
0000
,
0000
0000
0000
0000
0000
0000
0000
0000
0000
0000
0000
0000
0000
0000
0000
0000
0000
0000
0000
0000
0030
0002
0000
0000
0000
0000
0000
0000
0000
0000
0000
0000
,
0000
0000
0000
0000
0000
0000
0000
0000
0000
0000
0000
0000
0000
0000
0000
0000
0000
0000
0000
0000
0000
0000
0000
0000
0000
0000
0000
0000
0000
0000
0000
0000
0000
0000
0000
0000
0000
0000
0000
0000
0003
0000
0000
0000
0000
0000
0000
0000
0010
0000
0000
0000
0000
0000
0000
0000
0100
0000
0000
0000
0000
1000
0000
0000
,
0000
0000
0000
0000
0000
0000
0001
0000
0000
0000
0000
0000
0000
0000
0000
0000
0000
0000
0000
0000
0000
0010
0000
0000
0000
0000
0000
0000
0000
0000
0000
0000
0000
0000
0000
0000
0100
0000
0000
0000
0000
0000
0000
0000
0000
0000
0000
0000
2000
0000
0000
0000
0000
0000
0000
0000
0000
0000
0000
0000
0000
0000
0000
0000
0000
0000
0000
0000
0000
0000
0000
0000
0000
0000
0000
0000
0000
0000
0000
0000
0000
0000
0000
0000
0000
0000
0000
0000
0000
0000
0000
0000
0000
0000
0000
0000
0000
0000
0000
0000
0000
0000
0000
0000
0000
0000
0000
0000
0000
0000
0000
0000
0000
0000
0000
0000
0000
0000
0000
0000
0000
0000
0000
0000
0000
0000
0000
0000
3000
0000
0000
0000
0000
0000
0000
0000
0000
0000
0000
0000
0000
0000
0000
0000
1000
0000
0000
0000
0000
0000
0000
0010
0000
0000
0000
0000
0000
0000
0100
0000
0000
0000
0000
0000
0000
0010
0000
0000
0000
0000
0000
0000
0001
0000
0000
0000
0000
0000
0000
0000
0000
0000
0000
0000
0000
0000
0200
0000
0000
0000
0000
0000
,
0000
0000
0000
0000
0000
0000
0000
0000
0000
0000
0000
0000
0000
0000
0000
0000
0000
0000
0000
0000
0000
0000
0000
0000
0000
0000
0000
0000
0000
0000
0000
0000
0000
0000
0000
0000
0000
0000
0000
0000
0000
0000
0000
0000
0000
0000
0000
0000
0000
0000
0000
0000
0000
0000
0300
0000
0000
0000
0000
0000
0000
0000
0000
0000
0000
0000
0000
0000
0000
0000
0000
0000
0000
0000
0000
0000
0000
0000
0000
0000
0010
0000
0000
0000
0000
0000
0000
0000
0000
0000
0000
0000
0001
0000
0000
0000
0000
0000
0000
0010
0000
0000
0000
0000
0000
0000
0100
0000
0000
0000
0000
0000
0000
1000
0000
0000
0000
0000
0000
0000
0000
0000
0000
0000
0100
0000
0000
0000
0000
0000
0000
0000
0000
0000
0000
0000
0020
0000
0000
0000
0000
0000
0000
0000
0000
0000
0000
0000
0000
0000
0000
0000
0000
0000
0000
0000
0000
0000
0000
0000
0000
0000
0000
0000
0000
0000
0000
0000
0000
0000
0000
0000
0000
0000
0000
0000
0000
0000
0000
0000
0000
0000
0000
0000
0000
0000
0000
0000
0000
0000
0000
0000
,
0000
0000
0000
0000
0000
0000
0000
0000
0000
0000
0000
0000
0000
0000
0000
0000
0030
0000
0000
0000
0000
0000
0000
0000
1000
0000
0000
0000
0000
0000
0000
0000
0100
0000
0000
0000
0000
0000
0000
0000
0010
0000
0000
0000
0000
0000
0000
0000
1000
0000
0000
0000
0000
0100
0000
0000
0000
0000
0010
0000
0000
0000
0000
0000
0000
0000
0001
0000
0000
0000
0000
0000
0100
0000
0000
0000
0000
0000
0000
0000
0000
0000
0000
0000
0000
0000
0000
0000
2000
0000
0000
0000
0000
0000
0000
0000
0000
0000
0000
0000
0000
0000
0000
0000
0000
0000
0000
0000
0000
0000
0000
0000
0000
0000
0000
0000
0000
0000
0000
0000
0000
0000
0000
0000
0000
0000
0000
0000
0000
0000
0000
0000
0000
0000
0000
0000
3000
0000
0000
0000
0000
0000
0000
0000
0000
0000
0000
0000
0000
0000
0000
0000
0000
0000
0000
0000
0000
0000
0000
0000
0000
0000
0000
0000
0000
0000
0000
0000
0000
0000
0000
0000
0000
0000
0000
0000
0000
0000
0000
0000
0010
0000
0000
0000
0000
0000
0000
0000
0000
0000
0000
0000
,
0000
0000
0000
0000
0000
0000
0000
0000
0000
0000
0000
0000
0100
0000
0000
0000
0000
0000
0000
0000
0000
0000
0000
0000
0000
0000
0000
0000
0000
0000
0000
0000
0000
0000
0000
0000
1000
0000
0000
0000
0000
0000
0000
0000
0000
0000
0000
0000
0000
0000
0000
0000
0000
0000
0000
0000
0000
0000
0000
0000
0001
0000
0000
0000
0000
0000
0000
0000
0000
0000
0000
0000
0000
0000
0000
0000
0000
0000
0000
0000
0000
0000
0000
0000
1000
0000
0000
0000
0000
0000
0000
0000
0000
0000
0000
0000
0000
0000
0000
0000
0000
0000
0000
0000
0000
0000
0000
0000
0100
0000
0000
0000
0000
0000
0000
0000
0000
0000
0000
0000
0000
0000
0000
0000
0000
0000
0000
0000
0001
0000
0000
0000
0000
0000
0000
0100
0000
0000
0000
0000
0000
0000
0000
0000
0001
0000
0000
0000
0000
0000
0000
0000
0100
0000
0000
0000
0000
0000
0000
0000
0000
0000
0000
0000
0000
0000
0000
0000
0000
0000
0000
0000
0010
0000
0000
0000
0000
0000
0000
0000
0000
0000
0000
0000
0000
0000
0000
0000
0000
0000
0000
0000
,
0000
1000
0000
0000
0000
0000
0000
0001
0000
0000
0000
0000
0000
0010
0000
0000
0000
0000
0000
0100
0000
0000
0000
0000
0000
1000
0000
0000
0000
0000
0200
0000
0000
0000
0000
0000
0000
0000
0000
0000
0000
0000
0000
0000
0000
0000
0000
0000
,
0000
0000
0000
0000
0000
0000
0000
0000
0000
0000
0000
0000
0300
0000
0000
0000
0000
0000
0000
0000
0000
0000
0000
0000
0010
0000
0000
0100
0000
0000
0010
0000
0000
0100
0000
0000
0010
0000
0000
0100
0000
0000
0010
0000
0000
0100
0000
0000
0010
0000
0000
0100
0000
0000
0010
0000
0001
0000
0000
1000
0000
0000
0001
0000
,
0000
0000
0000
1000
0000
0000
0000
0000
0000
0000
0000
0000
0001
0000
0000
0000
0000
0000
0000
0000
0000
0000
0000
0000
1000
0000
0000
0000
0000
0000
0000
0000
0100
0000
0000
0000
0000
0000
0000
0000
0010
0000
0000
0000
0000
0000
0000
0000
0001
0000
0000
0000
0000
0000
0000
0000
0010
0000
0000
0000
0000
0000
0000
0000
0100
0000
0000
0000
0000
0000
0000
0000
1000
0000
0000
0000
0000
0000
0000
0000
0010
0000
0000
0000
0000
0000
0000
0000
0100
0000
0000
0000
0000
0000
0000
0000
0010
0000
0000
0000
0000
0000
0000
0000
0001
0000
0000
0000
0000
0000
0000
0000
0010
0000
0000
0000
0000
0000
0000
0000
0100
0000
0000
0000
0000
0000
0000
0000
1000
0000
0000
0000
0000
0000
0000
0000
0100
0000
0000
0000
0000
0000
0000
0000
0010
0000
0000
0000
0000
0000
0000
0000
1000
0000
0000
0000
0000
0000
0000
0000
0100
0000
0000
0000
0000
0000
0000
0000
0010
0000
0000
0000
0000
0000
0000
0000
0001
0000
0000
0000
0000
0000
0000
0000
0010
0000
0000
0000
0000
0000
0000
0000
,
0100
1000
0001
0100
0010
0001
1000
0001
0010
0100
1000
0100
0010
0001
0010
0100
1000
0001
0010
0100
1000
0100
0010
0001
,
1000
0000
0010
0000
0100
0000
1000
0000
0100
0000
0010
0000
0001
0000
0010
0000
0100
0000
1000
0000
0010
0000
0100
0000
0010
0000
0001
0000
0010
0000
0100
0000
1000
0000
0001
0000
0010
0000
0100
0000
1000
0000
0100
0000
0000
0010
0000
0000
,
1000
0020
0000
0000
0000
0000
0000
0000
0000
0000
0000
0000
0032
0000
0000
0000
,
0000
0000
0000
0000
0203
0000
0000
0300
1000
0100
0010
1000
0100
0001
1000
0100
,
0001
1000
0010
0001
1000
0010
0001
0100
0010
0001
1000
0100
0010
0100
0010
0001
,
1010
0000
0100
0010
1001
0000
0100
0000
0011
0100
1000
0010
0101
1000
0100
0010
,
0100
0000
1000
0000
0011
2000
0000
0000
0000
0000
0000
0000
3012
0000
0000
0000
0203
0000
0000
0000
0321
0000
0000
0000
0230
0000
0000
0000
2310
0000
0000
0000
,
0000
0000
0000
0000
0000
0000
0000
0000
0010
0000
0000
0000
0000
0000
0000
0000
0000
0000
0000
0000
3000
0000
0000
0000
0101
0000
0000
0000
0010
0000
0000
0000
0001
0000
0000
0000
0100
0000
0000
0000
1010
0000
0000
0001
0000
0000
1000
0000
0000
0001
0000
0000
1000
0000
0000
0000
0101
0000
0000
0000
0010
0000
0000
0000
,
0001
0000
0000
0000
1000
0000
0000
0000
0110
0000
0000
0000
0001
0000
0000
0000
1000
0000
0000
0100
0000
0000
0010
0000
0000
0001
0000
0000
0000
0000
0000
0000
0210
0000
0000
0000
0000
0000
0000
0000
0000
0000
0000
0000
0000
0000
0000
0000
1320
0000
0000
0000
0000
0000
0000
0000
2030
0000
0000
0000
0000
0000
0000
0000
,
3201
0000
0000
0000
0000
0000
0000
0302
0000
0000
0000
0000
1000
0000
0000
0000
0000
0000
0000
0000
0000
0000
0000
0000
1123
0000
0000
0000
0000
0000
0230
0000
0000
0000
0000
0000
2300
0000
0000
3000
0000
0000
1101
0000
0000
0010
0000
0000
,
0100
0000
0000
0001
0000
0000
0110
0000
0000
1000
0000
0000
0001
0000
0000
0010
0000
0000
1100
0000
0000
0001
0000
0000
0010
0000
0000
0100
0000
0000
1001
0000
0000
0010
0000
0000
0100
0000
0000
0010
0000
0000
1000
0000
0100
0000
0010
0000
,
2001
0000
0000
0000
0000
0000
0000
0000
0100
0000
0000
0000
0000
0000
0000
0000
0001
0000
0000
0000
3000
0000
0000
0000
1010
0200
0000
0000
0000
0000
0000
0000
,
1320
0000
0032
0000
1103
0001
0100
0010
1001
0010
0100
0001
1100
0010
0001
0010
,
1100
0010
0100
0001
0010
0100
1001
0010
0100
1000
0001
0010
1200
0000
0302
0000
,
0123
0000
2030
0000
3021
0000
0230
0000
1302
0000
0203
0000
1301
0100
0010
0001
,
1000
0000
0000
0100
0000
0000
1010
0000
0000
0100
0000
0000
0010
0000
0000
1000
0000
0000
0100
0000
0000
0010
0000
0000
1102
0000
0000
0000
0000
0000
0000
0000
0000
0000
0000
0000
1023
0000
0000
0000
0000
0000
0030
0000
0002
0000
0003
0000
,
0100
0002
0000
0000
0000
0000
0000
0000
1203
0000
0000
0000
0320
0000
0000
0000
0032
0000
0000
0000
1203
0000
0000
0000
0000
0000
0000
0000
2310
0000
0000
0000
,
0000
0000
3101
0010
0100
0001
1010
0100
1000
0010
1100
0001
0010
0100
1001
0000
,
0010
0100
1010
0000
0100
0000
1010
0000
0001
0000
1010
0000
0100
0000
1000
0000
,
0110
0001
0100
0010
1001
0100
0010
0100
1010
0001
1000
0100
0011
0100
1000
0010
,
1002
0000
0000
0203
0000
0000
0000
0320
0000
2130
0000
0000
0000
0000
0000
3120
0000
0000
0230
0000
0000
0010
0000
0000
,
0302
0000
0000
1023
0000
0000
0230
0000
0000
0000
2300
0000
0010
0000
0000
0000
0000
0000
0010
0000
0000
0000
0000
0000
,
0001
0000
0000
0000
3102
0000
0203
0000
1320
0000
0000
0030
1011
0000
0100
0000
,
1010
0000
0001
0000
0110
0000
1000
0000
0110
0001
1000
0100
0010
0001
1100
0010
,
1000
0100
0010
0001
1010
0001
0100
0001
1100
0001
1000
0001
0110
0001
1000
0001
,
0120
0230
1302
0023
0230
2310
3020
0230
,
2311
0000
0000
0000
0001
0000
0010
0000
0001
0000
0010
3001
1210
0000
0000
0000
,
0001
0000
0000
1000
0011
0000
0000
0000
1311
0100
1000
0100
0010
0001
1100
0010
,
0001
0000
0000
0000
0000
0000
0000
0000
0000
0000
0000
0000
1000
0000
0000
0000
0000
0000
0000
0000
0000
0000
0000
0000
0110
0000
0000
0000
0000
0000
0000
0000
0000
0000
0000
0000
1001
0000
0000
0000
0000
0000
0000
0000
0000
0000
0000
0000
0110
0000
0000
0000
0000
0000
0000
0000
0001
0000
0000
0000
0000
0000
0000
0000
0100
0000
0000
0000
0000
0000
0000
0000
0001
0000
0000
0000
0000
0000
0000
0000
0000
0100
0000
0000
0000
0000
0000
0000
0000
0000
0001
0000
0000
0000
0000
0000
0000
0000
0000
0100
0000
0000
0000
0000
0000
0000
0000
0000
0001
0000
0000
0000
0000
0000
0000
0000
0000
0100
0000
0000
0000
0000
0000
0000
0000
0000
0001
0000
0010
0000
0000
0000
0000
0000
0000
0000
1100
0000
0000
0000
0000
0000
0000
0000
0011
0000
0000
0000
0000
0000
0000
0000
0000
0000
0000
0000
0100
0000
0000
0000
0000
0000
0000
0000
0000
0000
0000
0000
0011
0000
0000
0000
0000
0000
0000
0000
0000
0000
0000
0000
0100
0000
0000
0000
0000
0000
0000
0000
0000
0000
0000
0000
,
2011
0000
0000
0000
0001
0000
0100
0000
0001
0000
0100
3001
1120
0000
0000
0000
,
0001
0000
0000
0000
0231
0000
0000
0000
1301
0010
0001
0100
1010
0101
1010
0101
,
0010
0000
0000
0000
1000
0000
0000
0000
0001
0000
0000
0000
0100
0000
0000
0000
1010
0000
0000
0000
0000
0000
0001
0000
0000
0000
0000
0000
0100
0000
0000
0000
0001
0000
0010
0000
0100
0000
0000
1000
0010
0000
0000
0000
0101
0000
0000
0000
1000
0010
0000
0000
0000
0000
0001
0000
0000
0000
0000
0100
0000
0000
0000
0000
,
1011
0100
0010
0001
1000
0100
1010
0001
1000
0100
1010
0001
1010
0100
0010
0001
,
1010
0000
0100
0000
0010
0000
1101
0000
0010
0000
0001
0000
1000
0000
0100
0011
1000
0000
0100
0000
0010
0000
0001
0000
1000
0000
0100
0000
1010
0000
0001
0000
,
0100
0000
0000
0000
0001
0000
1000
0000
0100
0010
0000
0000
1001
0000
0000
0000
0100
0000
0000
0000
0010
0000
0000
0000
1000
0000
0000
0000
0001
0000
0000
0000
0100
0000
0000
0000
0010
0000
0000
1000
0001
0000
0000
0100
0010
0000
0000
0000
1001
0000
0000
0000
0110
0000
0000
0000
1001
0000
0000
0000
0110
0000
0000
0000
,
1002
0000
0000
0000
0203
0300
0002
0000
,
0000
0000
0000
0000
0000
0000
0000
0000
0000
0003
0000
0000
0002
0000
0000
0000
0000
0000
0003
0000
0000
0000
0000
0000
0100
0000
0010
0000
0001
0000
0100
0000
0000
0010
0000
0000
1000
0000
0000
0001
0000
0000
0100
0000
0000
0010
0000
0000
,
1000
0001
1000
0010
0100
0001
0010
0100
0001
0010
1000
0001
0010
0100
1000
0000
,
0101
1000
0100
0010
0100
1000
0101
0010
0100
1000
0101
1000
0100
0010
0100
1000
,
0101
0010
0100
1000
0101
0010
0100
1000
0101
1000
0100
0010
0100
1000
0101
0010
,
0100
1000
0101
0010
0100
1000
0100
1000
0101
0010
0100
1000
0101
0010
0100
1000
,
0011
1000
0100
0001
0100
1000
0110
0001
0100
1000
0110
1000
0100
0001
0100
1000
,
0110
0001
0100
1000
0110
0001
0100
1000
0110
1000
0100
0001
0100
1000
0110
0001
,
0100
1000
0110
1000
0100
0001
0100
1000
0110
0001
0100
1000
0110
0001
0100
1000
,
0011
1000
0010
0001
0010
1000
0110
0001
0010
1000
0110
1000
0010
0001
0010
1000
,
0110
0001
0010
1000
0110
0001
0010
1000
0110
1000
0010
0001
0010
1000
0110
0001
,
0010
1000
0110
1000
0010
0001
0010
1000
0110
0001
0010
1000
0110
0001
0010
1000
,
0011
0100
0010
0001
0010
0100
1010
0001
0010
0100
1010
0100
0010
0001
0010
0100
,
1010
0001
0010
0100
1010
0001
0010
0100
1010
0100
0010
0001
0010
0100
1010
0001
,
0010
0100
1010
0100
0010
0001
0010
0100
1010
0001
0010
0100
1010
0001
0010
0100
,
1010
0001
0010
0100
0001
0010
1100
0001
0010
1000
0001
0100
1010
0001
0100
1000
,
0010
0100
1001
0100
0010
0100
0010
0001
1010
0100
0010
0100
0010
0001
1000
0010
,
0100
1000
0100
0010
1001
0100
0010
0100
0010
0001
1000
0010
0100
1000
0100
0001
,
1010
0100
0001
0100
0010
0001
1000
0010
0100
1000
0010
0001
1100
0010
0001
0100
,
0010
0001
1000
0010
0100
1000
0100
0010
1001
0100
0010
0100
1001
0110
1001
0110
,
1001
0100
1001
0010
1001
0100
0001
1010
0101
1000
0001
0110
1001
0100
0010
1100
,
0011
0000
0000
0000
1010
0000
0000
0000
0101
0000
0000
0000
0110
0000
0000
0000
1100
0000
0000
0000
0011
1000
0000
0000
0110
0000
0000
0000
0011
0000
0000
0000
,
0110
0000
0000
0000
0000
0000
0000
0000
1100
0000
0000
0000
0000
0000
0010
0000
0101
0000
0000
0000
0000
0000
0000
0000
1001
0000
0000
0000
0000
0000
0000
0000
1010
0000
0000
0000
0000
0000
0000
0000
0101
0000
0000
0000
0000
0000
0000
0000
0110
0000
0000
0000
0000
0000
0000
0000
0000
1001
0000
0000
0000
0000
0000
0000
,
1010
0000
0000
0000
0000
0000
0000
0000
0000
0000
0000
0000
0000
0000
0000
0000
0000
0000
0000
0000
0000
0000
0000
0000
1001
0000
0000
0000
0010
0000
0000
0000
0000
0000
0000
0000
0000
0000
0000
0000
0000
0000
0000
0000
0000
0000
0000
0000
1010
0000
0000
0000
0000
0000
0000
0000
0000
0000
0000
0000
0000
0000
0000
0000
0000
0000
0000
0000
0000
0000
0000
0000
1100
0000
0000
0000
0000
0000
0000
0000
0000
0000
0000
0000
0000
0000
0000
0000
0000
0000
0000
0000
0000
0000
0000
0000
0011
0000
0000
0000
0000
0000
0000
0000
0000
0000
0000
0000
0000
0000
0000
0000
0000
0000
0000
0000
0000
0000
0000
0000
1011
0000
0000
0100
0000
0000
0000
0000
0000
0000
0000
0000
0000
0000
0000
0000
0000
0000
0000
0000
0000
0000
0000
0000
1010
0000
0000
0000
0000
0000
0000
0000
0000
0000
0000
0000
0000
0000
0000
0000
0000
0000
0000
0000
0000
0000
0000
0000
1100
0000
0000
0000
0000
0000
0000
0000
0000
0000
0000
0000
0000
0000
0000
0000
0000
0000
0000
0000
0000
0000
0000
0000
,
0111
0000
0000
0000
;
