#TITLE:Naruto Opening Theme;
#SUBTITLE:;
#ARTIST:Naruto;
#TITLETRANSLIT:;
#SUBTITLETRANSLIT:;
#ARTISTTRANSLIT:;
#CREDIT:;
#BANNER:Naruto Opening Theme.png;
#BACKGROUND:Naruto Opening Theme-bg.png;
#LYRICSPATH:;
#CDTITLE:!Naruto Opening Theme.png;
#MUSIC:Naruto Opening Theme.mp3;
#OFFSET:-1.210;
#SAMPLESTART:28.020;
#SAMPLELENGTH:12.000;
#SELECTABLE:YES;
#BPMS:0.000=175.230,135.500=155.250,140.000=174.990,206.000=87.510,214.000=174.990,422.000=87.510,430.000=174.990,511.750=178.010,529.500=174.990,547.750=178.010,565.500=174.990;
#STOPS:46.500=0.300
,77.500=0.180
;
#BGCHANGES:63.000=naruto2.bmp=1.000=1=0=1,
110.500=naruto3.bmp=1.000=1=0=1,
200.000=naruto4.bmp=1.000=1=0=1,
293.000=naruto5.bmp=1.000=1=0=1,
382.000=naruto6.bmp=1.000=1=0=1,
394.000=naruto2.bmp=1.000=0=0=1,
395.000=naruto3.bmp=1.000=0=0=1,
396.000=naruto6.bmp=1.000=0=0=1,
403.000=naruto2.bmp=1.000=0=0=1,
404.000=naruto3.bmp=1.000=0=0=1,
405.000=naruto6.bmp=1.000=0=0=1,
406.000=naruto8.bmp=1.000=1=0=1,
511.750=naruto2.bmp=1.000=0=0=1,
512.500=naruto3.bmp=1.000=0=0=1,
513.250=naruto6.bmp=1.000=0=0=1,
514.000=naruto9.bmp=1.000=0=0=1,
514.750=naruto3.bmp=1.000=0=0=1,
515.500=naruto6.bmp=1.000=0=0=1,
516.250=naruto2.bmp=1.000=0=0=1,
517.000=naruto3.bmp=1.000=0=0=1,
517.750=naruto6.bmp=1.000=0=0=1,
518.500=naruto9.bmp=1.000=0=0=1,
519.250=naruto3.bmp=1.000=0=0=1,
520.000=naruto6.bmp=1.000=0=0=1,
520.750=naruto2.bmp=1.000=0=0=1,
521.500=naruto3.bmp=1.000=0=0=1,
522.250=naruto6.bmp=1.000=0=0=1,
523.000=naruto9.bmp=1.000=0=0=1,
523.750=naruto3.bmp=1.000=0=0=1,
524.500=naruto6.bmp=1.000=0=0=1,
525.250=naruto2.bmp=1.000=0=0=1,
526.000=naruto3.bmp=1.000=0=0=1,
526.750=naruto6.bmp=1.000=0=0=1,
527.500=naruto9.bmp=1.000=0=0=1,
528.250=naruto3.bmp=1.000=0=0=1,
529.000=naruto6.bmp=1.000=0=0=1,
529.500=naruto10.bmp=1.000=1=0=1,
662.000=naruto11.bmp=1.000=1=0=1,
684.500=Naruto Opening Theme-bg.png=1.000=0=0=1,
99999=-nosongbg-=1.000=0=0=0 // don't automatically add -songbackground-
;
// cache tags:
#FIRSTBEAT:16.000;
#LASTBEAT:684.500;
#SONGFILENAME:Songs/toune 1 (2010)/Naruto/Naruto Opening Theme.sm;
#HASMUSIC:1;
#HASBANNER:1;
#MUSICLENGTH:242.729;
// end cache tags

//---------------dance-single - ----------------
#NOTES:
     dance-single:
     :
     Medium:
     5:
     0.328,0.388,0.119,0.255,0.124,466.000,29.000,62.000,0.000,0.000:
0000
0000
0000
0000
,
0000
0000
0000
0000
,
0000
0000
0000
0000
,
0000
0000
0000
0000
,
1000
0100
0000
0000
0000
0000
0100
0001
,
0000
0000
0000
0000
,
1000
0010
0000
0000
0000
0000
0010
1000
,
0000
0000
0000
0000
,
2200
0000
0000
0000
0000
0000
3300
0022
,
0000
0000
0000
0000
0000
0000
0033
2002
,
0000
0000
0000
0000
,
0000
0000
0000
3003
1001
0001
0220
0000
,
0000
0000
0000
0000
,
0000
0000
0000
0000
,
0000
0000
0000
0000
,
0000
0000
0300
2000
,
0000
0000
0000
0030
0000
0200
0000
0000
,
0000
0000
0000
3000
0000
0002
0000
0000
,
0000
0000
0000
0000
,
0303
0000
1001
1001
1000
0100
0000
0000
,
0001
0100
0000
0000
1000
0010
0000
0010
,
0100
0000
0000
0000
1000
1000
0000
0000
,
0001
0001
0000
0000
0010
0010
0000
0100
,
0000
1000
0000
0010
0000
0002
0000
0000
,
0000
0003
0000
1001
0000
1000
0000
1000
,
0000
0001
0000
0001
0000
2002
0000
0000
,
0000
0000
0000
0000
,
3003
0000
0000
0000
1000
0010
0000
0000
,
0010
0001
0000
0000
0001
0100
0000
0100
,
0001
0000
0000
0000
0001
0010
0000
0000
,
0010
1000
0000
0000
1000
0100
0000
1000
,
0000
0100
0000
0010
0000
0002
0000
0000
,
0003
0000
0000
0001
0000
0100
0000
1000
,
0000
1000
0000
0001
0000
2002
0000
0000
,
0000
0000
0000
0000
,
3003
0000
1000
1000
,
0001
0001
1000
0100
,
0010
0001
0001
1000
,
1000
0001
0010
0100
,
1000
0100
0001
0100
,
1000
1000
0010
0001
,
0100
1000
2002
0000
,
0000
3003
0000
0000
,
0000
0000
0001
0001
,
1000
1000
0001
0010
,
0100
1000
1000
0001
,
0001
1000
0100
0010
,
0001
0010
0220
0000
,
0000
0000
0000
0000
,
0330
0000
2002
0000
,
0000
0000
0000
0000
,
3003
0000
1001
0001
,
0001
0001
0010
0100
,
1000
1000
0001
0010
0100
0000
2000
0000
,
0010
0000
0100
3000
0002
0000
1000
0003
,
0001
0001
1000
0200
,
1000
0000
0001
0000
1000
0000
0001
0300
,
1000
0000
0010
0000
0010
0000
0100
0100
,
0000
1000
1000
0000
0001
0000
0001
0001
,
0000
0000
0001
0000
1000
0000
0000
0100
,
0000
0000
0000
0010
0000
0000
2002
0000
0000
0000
3003
0000
0000
0000
0000
0000
,
0000
1000
0100
0002
,
0100
0000
0010
0003
2000
0000
0001
3000
,
1000
1000
0001
0020
,
0001
0000
1000
0000
0001
0000
1000
0030
,
0001
0000
0100
0000
0100
0000
0010
0010
,
0000
0001
0001
0000
1000
0000
1000
1000
,
0000
0000
0001
0000
1000
0000
0001
0001
,
0000
0010
0010
0000
0100
0100
0100
0100
,
0000
0110
0000
0000
,
0000
0000
0000
0000
,
0000
0000
0010
0000
0100
0001
0000
0000
,
0010
0000
1000
0100
0000
0000
0000
0000
,
1000
0000
0000
1000
0100
0000
0000
0001
,
0100
0000
0000
1000
0010
0000
0010
0100
,
0000
0000
0000
1000
1000
0000
0000
0001
,
0001
0000
0000
0010
0010
0000
0100
0000
,
1000
0010
0002
0000
,
0003
1001
1000
1000
,
0001
0001
2002
0000
,
0000
0000
0000
0000
0000
0000
0000
3003
,
0000
0000
0000
1000
0010
0000
0000
0010
,
0001
0000
0000
0001
0100
0000
0100
0001
,
0000
0000
0000
0001
0010
0000
0000
0010
,
1000
0000
0000
1000
0100
0000
1000
0000
,
0100
0000
0010
0000
0002
0000
0000
0003
,
0000
0001
0100
1000
,
1000
0001
2002
0000
,
0000
0000
0000
0000
0000
0000
0000
3003
,
0000
0000
1000
1000
,
0001
0001
1000
0100
,
0010
0001
0001
1000
,
1000
0001
0010
0100
,
1000
0100
0001
0100
,
1000
1000
0010
0001
,
0100
1000
2002
0000
,
0000
3003
0000
0000
,
0000
0000
0001
0001
,
1000
1000
0001
0010
,
0100
1000
1000
0001
,
0001
1000
0100
0010
,
0001
0010
0220
0000
,
0000
0000
0000
0000
,
0330
0000
2002
0000
,
0000
0000
0000
0000
,
3003
0000
1001
0001
,
0001
0001
0010
0100
,
1000
1000
0001
0010
0100
0000
2000
0000
,
0010
0000
0100
3000
0002
0000
1000
0003
,
0001
0001
1000
0200
,
1000
0000
0001
0000
1000
0000
0001
0300
,
1000
0000
0010
0000
0010
0000
0100
0100
,
0000
1000
1000
0000
0001
0000
0001
0001
,
0000
0000
0001
0000
1000
0000
0000
0100
,
0000
0000
0000
0010
0000
0000
2002
0000
0000
0000
3003
0000
0000
0000
0000
0000
,
0000
1000
0100
0002
,
0100
0000
0010
0003
2000
0000
0001
3000
,
1000
1000
0001
0020
,
0001
0000
1000
0000
0001
0000
1000
0030
,
0001
0000
0100
0000
0100
0000
0010
0010
,
0000
0001
0001
0000
1000
0000
1000
1000
,
0000
0000
0000
0001
0000
0000
0001
0000
1000
0000
1000
0000
,
0010
0000
0100
0000
0100
0000
1000
0000
0001
0000
0001
0000
,
0100
0000
0010
0000
0010
0000
2002
0000
0000
0000
0000
0000
,
0000
0000
0000
0000
,
0000
0000
3003
0000
,
0000
0000
0000
0000
,
0000
0000
0000
0000
0000
0000
0000
0000
0000
0000
0000
0000
0000
0000
0000
1000
,
0000
0000
1000
0000
0000
1000
0000
0000
1000
0000
0000
1000
0000
0000
1000
0000
,
0000
0100
0000
0000
0100
0000
0000
0100
0000
0000
0100
0000
0000
0100
0000
0000
,
0100
0000
0000
0001
0000
0000
0001
0000
0000
0001
0000
0000
0001
0000
0000
0001
,
0000
0000
0001
0000
0000
0010
0000
0000
0010
0000
0000
0010
0000
0000
0010
0000
,
0000
0010
0000
0000
0010
0000
2002
0000
0000
0000
0000
0000
0000
0000
0000
0000
,
0000
0000
0000
0000
,
0000
0000
0000
0000
,
0000
0000
0000
0000
,
0000
0000
0000
0000
0000
0000
0000
0000
0000
0000
3003
0000
0000
0000
0000
0001
,
0000
0000
0001
0000
0000
0001
0000
0000
0001
0000
0000
0001
0000
0000
0001
0000
,
0000
0010
0000
0000
0010
0000
0000
0010
0000
0000
0010
0000
0000
0010
0000
0000
,
0010
0000
0000
1000
0000
0000
1000
0000
0000
1000
0000
0000
1000
0000
0000
1000
,
0000
0000
1000
0000
0000
0100
0000
0000
0100
0000
0000
0100
0000
0000
0100
0000
,
0000
0100
0000
0000
0100
0000
0002
0000
0000
0000
0000
0000
0000
0000
0000
0000
,
0010
0000
0000
0000
0000
0100
0000
0000
1000
0000
0000
0000
0000
0000
0000
0000
,
0000
0000
1000
0000
0000
0000
0000
0000
0000
0000
0000
2000
0000
0000
0000
0000
,
0000
0000
3003
0000
0000
0000
0000
0000
0000
1000
0000
0000
0100
0000
0000
0000
,
0000
0000
0000
1000
0000
0000
0010
0000
0000
0000
0000
1000
0000
0000
0000
0001
,
0000
0000
0000
0000
0000
0000
0000
0100
0000
0000
0000
0000
0000
0000
0010
0000
,
0000
0010
0000
0000
0000
0000
0000
0100
0000
0000
0100
0000
0000
0000
0000
0000
,
0001
0000
0000
0202
0000
0000
0000
0000
0000
0000
0000
0000
0000
0000
0000
0000
,
0000
0000
0000
0000
,
0000
0303
0000
0000
,
0000
0020
0000
0000
0000
0000
0000
0000
0001
0000
1000
0000
0000
0000
0000
0000
,
0000
0000
0000
0001
0000
0000
0000
0000
0000
0000
0000
0000
0000
0100
0000
0000
,
0000
0000
0000
0000
0000
0000
0130
0000
0000
0000
0000
0010
0000
0000
1000
0000
,
0000
0000
0001
0000
0100
0000
0000
0010
,
0000
0100
0000
0000
0010
0000
0000
0010
0000
0000
0001
0000
0000
0100
0000
0000
,
0100
0000
0000
0010
0000
0000
1000
0000
0000
1000
0000
0000
0100
0000
0000
0001
,
0000
0000
0001
0000
0000
0220
0000
0000
0000
0000
0000
0000
0000
0000
0000
0000
,
0000
0000
0000
0000
,
0000
0000
0000
0000
,
0000
0000
0000
0000
,
0000
0000
0000
0000
,
0330
0000
0000
0000
,
0000
0000
0000
0000
,
0000
0000
0000
0000
,
0000
0000
0000
0000
,
0000
0000
0000
0000
,
0000
0000
0000
0000
,
0000
0000
0000
0000
0000
0000
0000
0000
0000
0000
0000
0000
1000
0000
0000
0100
,
0000
0000
0010
0000
0000
0000
0001
0000
0000
0010
0000
0000
0100
0000
0000
1000
,
0000
0000
0001
0000
0000
0000
0010
0000
0000
0100
0000
0000
1000
0000
0000
0001
,
0000
1001
0000
0000
0000
0000
0000
0000
;

//---------------dance-single - ----------------
#NOTES:
     dance-single:
     :
     Hard:
     8:
     0.513,0.881,0.614,0.358,0.280,620.000,149.000,87.000,0.000,25.000:
0000
0000
0000
0000
,
0000
0000
0000
0000
,
0000
0000
0000
0000
,
0000
0000
0000
0000
,
1000
0100
0000
0000
0000
0000
0100
0001
,
0000
0000
0000
0000
,
1000
0010
0000
0000
0000
0000
0010
1000
,
0000
0000
0000
0000
,
2200
0000
0000
0000
0000
0000
3300
0022
,
0000
0000
0000
0000
0000
0000
0033
2002
,
0000
0000
0000
0000
,
0000
0000
0000
3003
1001
0001
0220
0000
,
0000
0000
0000
0000
,
0000
0000
0000
0000
,
0000
0000
0000
0000
,
0000
0000
0300
2000
,
0000
0000
0000
0030
0000
0200
0000
0000
,
0000
0000
0000
3000
0000
0002
0000
0000
,
0000
0000
0000
0000
,
0303
0000
0000
0000
1001
0000
1001
0000
0000
0000
0010
0000
0001
0100
0001
0000
,
0010
0001
0010
0000
1000
0100
1000
0000
0001
1000
0001
0000
1000
0010
1000
0000
,
0010
0100
0010
0000
0001
1000
0001
0000
0100
0001
0100
0000
1000
0010
1000
0000
,
0100
1000
0100
0000
0001
0010
0001
0000
1000
0001
1000
0000
0000
0000
0100
0000
,
0000
0010
0000
0001
0000
2000
0000
0000
,
3000
0000
0000
0020
0000
0200
0000
2000
,
0000
3331
0000
1111
0000
2222
0000
0000
,
0000
0000
0000
0000
,
3333
0000
0000
0000
0000
0000
0000
0000
0000
0000
0100
0000
1000
0010
1000
0000
,
0100
1000
0100
0000
0001
0010
0001
0000
1000
0001
1000
0000
0001
0100
0001
0000
,
0100
0010
0100
0000
1000
0001
1000
0000
0010
1000
0010
0000
0001
0100
0001
0000
,
0010
0001
0010
0000
1000
0100
1000
0000
0001
1000
0001
0000
0000
0000
0010
0000
,
0000
0100
0000
1000
0000
0002
0000
0000
,
0003
0000
0000
0200
0000
0020
0000
0002
,
0000
1333
0000
1111
0000
2222
0000
0000
,
0000
0000
0000
0000
,
3333
0000
1100
1100
,
0011
0011
1010
0101
,
1010
1100
0101
1001
,
1100
1001
0101
1010
,
1010
0101
0011
1001
,
1010
0110
1001
0110
,
1001
0110
2002
0000
,
0000
3003
0000
0000
,
0000
0000
0011
0011
,
1100
1100
0101
1010
,
0101
0011
1010
1001
,
0011
1001
1010
0101
,
0101
1010
0220
0000
,
0000
0000
0000
0000
,
0330
0000
2002
0000
,
0000
0000
0000
0000
,
3003
0000
1001
0001
,
0001
0001
0010
0100
,
1000
0100
1000
0010
0001
0000
0010
0000
0100
0000
0000
0000
2000
0000
0000
0000
,
0010
0000
0100
3000
2000
0000
0001
3000
,
1000
0100
0001
0000
0010
0000
0100
0000
,
1000
0100
0010
0001
,
0100
0000
0010
0001
0100
0010
0001
0001
,
0000
0001
1000
0100
0010
0000
0001
0100
,
0000
0000
0000
0010
0000
0000
1000
0000
0000
0000
0000
1010
,
0000
0000
1010
0000
0202
0000
0000
0000
0303
0000
0000
0000
,
0000
0011
1100
0002
,
0100
0000
0010
0003
0002
0000
1000
0003
,
0001
0010
1000
0000
0100
0000
0010
0000
,
0001
0010
0100
1000
,
1000
0010
0001
0100
0001
0000
1000
1000
,
0000
1000
0001
0100
1000
0000
1000
0100
,
0000
1000
0100
0001
0001
0000
0010
0100
,
0000
0001
0010
0000
0010
0100
1000
0100
,
0010
1001
0000
0000
,
0000
0000
0000
0000
,
0000
0000
0010
0000
0100
0001
0000
0000
,
0010
0000
1000
0100
0000
0000
0000
0000
,
1000
0000
0000
0000
0000
0000
0000
0000
0010
0000
0001
0100
0001
0000
0010
0001
,
0010
0000
1000
0100
1000
0000
0001
1000
0001
0000
1000
0010
1000
0000
0010
0100
,
0010
0000
0001
1000
0001
0000
0100
0001
0100
0000
1000
0010
1000
0000
0100
1000
,
0100
0000
0001
0010
0001
0000
1000
0001
1000
0000
0000
0000
0100
0000
0000
0000
,
0010
0000
0001
0000
2000
0000
0000
3000
,
0000
0020
0200
2000
,
3331
1111
2222
0000
,
0000
0000
0000
0000
0000
0000
0000
3333
,
0000
0000
0000
0000
0000
0000
0000
0000
0100
0000
1000
0010
1000
0000
0100
1000
,
0100
0000
0001
0010
0001
0000
1000
0001
1000
0000
0001
0100
0001
0000
0100
0010
,
0100
0000
1000
0001
1000
0000
0010
1000
0010
0000
0001
0100
0001
0000
0010
0001
,
0010
0000
1000
0100
1000
0000
0001
1000
0001
0000
0000
0000
0010
0000
0000
0000
,
0100
0000
1000
0000
0002
0000
0000
0003
,
0000
0200
0020
0002
,
1333
1111
2222
0000
,
0000
0000
0000
0000
0000
0000
0000
3333
,
0000
0000
1100
1100
,
0011
0011
1010
0101
,
1010
1100
0101
1001
,
1100
1001
0101
1010
,
1010
0101
0011
1001
,
1010
0110
1001
0110
,
1001
0110
2002
0000
,
0000
3003
0000
0000
,
0000
0000
0011
0011
,
1100
1100
0101
1010
,
0101
0011
1010
1001
,
0011
1001
1010
0101
,
0101
1010
0220
0000
,
0000
0000
0000
0000
,
0330
0000
2002
0000
,
0000
0000
0000
0000
,
3003
0000
1001
0001
,
0001
0001
0010
0100
,
1000
0100
1000
0010
0001
0000
0010
0000
0100
0000
0000
0000
2000
0000
0000
0000
,
0010
0000
0100
3000
2000
0000
0001
3000
,
1000
0100
0001
0000
0010
0000
0100
0000
,
1000
0100
0010
0001
,
0100
0000
0010
0001
0100
0010
0001
0001
,
0000
0001
1000
0100
0010
0000
0001
0100
,
0000
0000
0000
0010
0000
0000
1000
0000
0000
0000
0000
1010
,
0000
0000
1010
0000
0202
0000
0000
0000
0303
0000
0000
0000
,
0000
0011
1100
0002
,
0100
0000
0010
0003
0002
0000
1000
0003
,
0001
0010
1000
0000
0100
0000
0010
0000
,
0001
0010
0100
1000
,
0010
0010
1000
0010
0010
0000
1000
1000
,
0000
0100
0010
0001
0010
0000
0100
0100
,
0000
0000
0000
0100
0000
0000
0010
0000
0000
0100
0000
0000
0001
0000
0000
0000
1000
0000
0000
0000
1001
0000
0000
0000
,
0010
0000
0100
0000
1100
0000
0010
0000
0001
0000
0101
0000
,
0110
0000
1001
0000
0110
0000
2002
0000
0000
0000
0000
0000
,
0000
0000
0000
0000
,
0000
0000
3003
0000
,
0000
0000
0000
0000
,
0000
0000
0000
0000
0000
0000
0000
0000
0000
0000
0000
0000
0000
0000
0000
1000
,
0000
0000
0100
0000
0000
1100
0000
0000
0010
0000
0000
0001
0000
0000
0011
0000
,
0000
1000
0000
0000
0100
0000
0000
0001
0000
0000
0001
0000
0000
0100
0000
0000
,
1000
0000
0000
1000
0000
0000
0001
0000
0000
1001
0000
0000
0100
0000
0000
0100
,
0000
0000
0110
0000
0000
1000
0000
0000
0010
0000
0000
0001
0000
0000
0100
0000
,
0000
1000
0000
0000
0010
0000
2002
0000
0000
0000
0000
0000
0000
0000
0000
0000
,
0000
0000
0000
0000
,
0000
0000
0000
0000
,
0000
0000
0000
0000
,
0000
0000
0000
0000
0000
0000
0000
0000
0000
0000
3003
0000
0000
0000
0000
0001
,
0000
0000
0010
0000
0000
0011
0000
0000
0100
0000
0000
1000
0000
0000
1100
0000
,
0000
0001
0000
0000
0010
0000
0000
1000
0000
0000
1000
0000
0000
0010
0000
0000
,
0001
0000
0000
0001
0000
0000
1000
0000
0000
1001
0000
0000
0010
0000
0000
0010
,
0000
0000
0110
0000
0000
0001
0000
0000
0100
0000
0000
1000
0000
0000
0010
0000
,
0000
0001
0000
0000
0100
0000
2002
0000
0000
0000
0000
0000
0000
0000
0000
0000
,
0023
0000
0000
0000
0000
3200
0000
0000
0032
0000
0000
0000
0000
0000
0000
0000
,
0000
0000
2300
0000
0000
0000
0000
0000
0000
0000
3000
1003
0000
0000
0100
0000
,
0000
1100
0000
0000
0010
0000
0000
0001
0000
0000
0011
0000
0000
1000
0000
0000
,
0100
0000
0000
0001
0000
0000
0001
0000
0000
0100
0000
0000
1000
0000
0000
1000
,
0000
0000
0001
0000
0000
1001
0000
0000
0100
0000
0000
0100
0000
0000
0110
0000
,
0000
1000
0000
0000
0010
0000
0000
0001
0000
0000
0100
0000
0000
1000
0000
0000
,
0010
0000
0000
2002
0000
0000
0000
0000
0000
0000
0000
0000
0000
0000
0000
0000
,
0000
0000
0000
0000
,
0000
3003
0000
0000
,
0000
2002
0000
0000
0000
0000
0000
0000
3020
0000
2003
0000
0000
0000
0000
0000
,
0000
0000
0000
0230
0000
0000
0000
0000
0000
0000
0000
0000
0000
3020
0000
0000
,
0000
0000
0000
0000
0000
0000
0331
0000
0000
0010
0000
0000
0011
0000
0000
0100
,
0000
0000
1000
0000
0000
1100
0000
0000
0001
0000
0000
0010
0000
0000
1000
0000
,
0000
1000
0000
0000
1001
0000
0000
1001
0000
0000
0010
0000
0000
1100
0000
0000
,
1100
0000
0000
0010
0000
0000
0110
0000
0000
0110
0000
0000
0001
0000
0000
0110
,
0000
0000
1001
0000
0000
0220
0000
0000
0000
0000
0000
0000
0000
0000
0000
0000
,
0000
0000
0000
0000
,
0000
0000
0000
0000
,
0000
0000
0000
0000
,
0000
0000
0000
0000
,
0330
0000
0000
0000
,
0000
0000
0000
0000
,
0000
0000
0000
0000
,
0000
0000
0000
0000
,
0000
0000
0000
0000
,
0000
0000
0000
0000
,
0000
0000
0000
0000
0000
0000
0000
0000
0000
0000
0000
0000
1000
0100
1000
0100
,
1000
0100
1000
0100
1000
0100
1000
0100
1000
0100
1000
0100
1000
0100
0000
0010
,
0001
0010
0001
0010
0001
0010
0001
0010
0001
0010
0001
0010
0001
0010
0001
0010
,
0000
1001
0000
0000
0000
0000
0000
0000
;

//---------------dance-single - ----------------
#NOTES:
     dance-single:
     :
     Easy:
     3:
     0.232,0.317,0.070,0.206,0.080,328.000,17.000,50.000,0.000,0.000:
0000
0000
0000
0000
,
0000
0000
0000
0000
,
0000
0000
0000
0000
,
0000
0000
0000
0000
,
1000
0000
0000
0100
,
0000
0000
0000
0000
,
1000
0000
0000
0010
,
0000
0000
0000
0000
,
2002
0000
0000
0000
,
0000
0000
0000
0000
,
0000
0000
0000
0000
,
0000
3003
1001
0220
,
0000
0000
0000
0000
,
0000
0000
0000
0000
,
0000
0000
0000
0000
,
0000
0000
0330
2000
,
0000
0000
0000
0000
0000
0100
0000
0000
,
0000
0000
0000
0000
0000
0001
0000
0000
,
0000
0000
0000
0000
,
3000
0000
1000
1000
0001
0000
0000
0000
,
0001
0000
1000
0100
,
0100
0000
1000
0000
,
0001
0000
0000
0000
0010
0000
0000
0100
,
0000
1000
0000
0010
0000
0002
0000
0000
,
0000
0003
0000
1000
0000
1000
0000
1000
,
0000
0001
0000
0001
0000
0002
0000
0000
,
0000
0000
0000
0000
,
1003
0000
1000
0000
,
0010
0000
0001
0100
,
0001
0000
0001
0000
,
0010
0000
0000
0000
0000
0100
0000
1000
,
0000
0100
0000
0010
0000
0002
0000
0000
,
0003
0000
0000
0001
0000
0100
0000
1000
,
0000
1000
0000
0001
0000
2002
0000
0000
,
0000
0000
0000
0000
,
3003
0000
1000
1000
,
1000
1000
0100
0100
,
0010
0010
0001
0001
,
1000
1000
0001
1000
,
0001
1000
0001
0001
,
1000
1000
0010
0100
,
0010
0100
0220
0000
,
0000
0330
0000
0000
,
0000
0000
0001
0001
,
0001
0001
0001
0010
,
0010
0100
0100
1000
,
1000
0001
0001
0010
,
0100
0010
0220
0000
,
0000
0000
0000
0000
,
0330
0000
2002
0000
,
0000
0000
0000
0000
,
3003
0000
1001
0001
,
0001
0001
0010
0100
,
1000
0001
0100
2000
,
0000
3100
0002
0000
,
0103
0000
1000
0200
,
0000
0000
0000
0000
0000
0000
0000
0300
,
0000
0000
0010
0000
0010
0000
0000
0100
,
0000
0000
1000
0000
0001
0000
0000
0001
,
0000
0000
0001
0000
1000
0000
0000
0100
,
0000
0000
0000
0010
0000
0000
0020
0000
0000
0000
0000
0000
0030
0000
0000
0000
,
0000
1000
0100
0002
,
0000
0013
2000
0000
,
3010
0000
0001
0020
,
0000
0000
0000
0000
0000
0000
0000
0030
,
0000
0000
0100
0000
0100
0000
0000
0010
,
0000
0000
0001
0000
1000
0000
0000
1000
,
0000
0001
1000
0001
,
0000
0010
0000
0000
0100
0000
0100
0000
,
0000
0110
0000
0000
,
0000
0000
0000
0000
,
0000
0000
0000
0000
0100
0001
0000
0000
,
0000
0000
1000
0100
0000
0000
0000
0000
,
0000
0000
0100
0000
,
0100
0000
0010
0100
,
0100
0000
1000
0000
,
0001
0000
0010
0100
,
1000
0010
0002
0000
,
0003
0001
1000
1000
,
0001
0001
2002
0000
,
0000
0000
0000
0000
0000
0000
0000
3003
,
0000
0000
0010
0000
,
0001
0000
0100
0010
,
0001
0000
0010
0000
,
1000
0000
0100
1000
,
0100
0000
0010
0000
0002
0000
0000
0003
,
0000
0001
0100
1000
,
1000
0001
0002
0000
,
0000
0000
0000
0000
0000
0000
0000
0003
,
0000
0000
1000
1000
,
1000
1000
0100
0100
,
0010
0010
0001
0001
,
1000
1000
0001
1000
,
0001
1000
0001
0001
,
1000
1000
0010
0100
,
0010
0100
0220
0000
,
0000
0330
0000
0000
,
0000
0000
0001
0001
,
0001
0001
0010
0010
,
0100
0100
1000
1000
,
0001
0001
1000
0001
,
1000
0001
2000
0000
,
0000
0000
0000
0000
,
3000
0000
2002
0000
,
0000
0000
0000
0000
,
3003
0000
1001
0001
,
0001
0001
0010
0100
,
1000
0001
0100
2000
,
0000
3100
0002
0000
,
0103
0000
1000
0200
,
0000
0000
0000
0000
0000
0000
0000
0300
,
0000
0000
0010
0000
0010
0000
0000
0100
,
0000
0000
1000
0000
0001
0000
0000
0001
,
0000
0000
0001
0000
1000
0000
0000
0100
,
0000
0000
0000
0010
0000
0000
0020
0000
0000
0000
0030
0000
0000
0000
0000
0000
,
0000
1000
0100
0002
,
0000
0013
2000
0000
,
3010
0000
0001
0020
,
0000
0000
0000
0000
0000
0000
0000
0030
,
0000
0000
0100
0000
0100
0000
0000
0010
,
0000
0000
0001
0000
1000
0000
0000
1000
,
0000
0000
0000
0001
0000
0000
0001
0000
1000
0000
0000
0000
,
0010
0000
0100
0000
0000
0000
1000
0000
0001
0000
0000
0000
,
0100
0000
0010
0000
0000
0000
2002
0000
0000
0000
0000
0000
,
0000
0000
0000
0000
,
0000
0000
3003
0000
,
0000
0000
0000
0000
,
0000
0000
0000
0000
0000
0000
0000
0000
0000
0000
0000
0000
0000
0000
0000
1000
,
0000
0000
0000
0000
0000
0000
0000
1000
0000
0000
0000
0000
0000
0000
0000
0000
,
0000
0100
0000
0000
0000
0000
0000
0000
0000
0100
0000
0000
0000
0000
0000
0000
,
0000
0000
0000
0001
0000
0000
0000
0000
0000
0000
0000
0001
0000
0000
0000
0000
,
0000
0000
0000
0000
0000
0010
0000
0000
0000
0000
0000
0000
0000
0010
0000
0000
,
0000
0000
0000
2002
0000
0000
0000
0000
,
0000
0000
0000
0000
,
0000
0000
0000
0000
,
0000
0000
0000
0000
,
0000
0000
0000
0000
0000
0000
0000
0000
0000
0000
3003
0000
0000
0000
0000
0001
,
0000
0000
0000
0000
0000
0000
0000
0001
0000
0000
0000
0000
0000
0000
0000
0000
,
0000
0010
0000
0000
0000
0000
0000
0000
0000
0010
0000
0000
0000
0000
0000
0000
,
0000
0000
0000
1000
0000
0000
0000
0000
0000
0000
0000
1000
0000
0000
0000
0000
,
0000
0000
0000
0000
0000
0100
0000
0000
0000
0000
0000
0000
0000
0100
0000
0000
,
0000
0000
0000
0002
0000
0000
0000
0000
,
0010
0000
1000
0000
,
0000
0000
1000
0000
0000
0000
0000
0000
0000
0000
0000
2000
0000
0000
0000
0000
,
0000
3003
0000
0000
0000
0000
0100
0000
,
0000
0000
0000
0000
0000
0000
0010
0000
0000
0000
0000
0000
0000
0000
0000
0001
,
0000
0000
0000
0000
0000
0000
0000
0100
0000
0000
0000
0000
0000
0000
0010
0000
,
0000
0010
0000
0000
0000
0000
0000
0100
0000
0000
0100
0000
0000
0000
0000
0000
,
0001
0000
0000
0002
0000
0000
0000
0000
0000
0000
0000
0000
0000
0000
0000
0000
,
0000
0000
0000
0000
,
0000
0003
0000
0000
,
0000
0020
0000
0000
0000
0000
0000
0000
0000
0000
1000
0000
0000
0000
0000
0000
,
0000
0000
0000
0100
0000
0000
0000
0000
0000
0000
0000
0000
0000
0100
0000
0000
,
0000
0000
0000
1030
0000
0000
0000
1000
,
0000
0000
0001
0000
0100
0000
0000
0010
,
0000
0100
0000
0000
0000
0000
0000
0000
0000
0000
0001
0000
0000
0000
0000
0000
,
0000
0000
0000
0010
0000
0000
0000
0000
0000
0000
0000
0000
0100
0000
0000
0000
,
0000
0000
0000
0000
0000
0220
0000
0000
0000
0000
0000
0000
0000
0000
0000
0000
,
0000
0000
0000
0000
,
0000
0000
0000
0000
,
0000
0000
0000
0000
,
0000
0000
0000
0000
,
0330
0000
0000
0000
,
0000
0000
0000
0000
,
0000
0000
0000
0000
,
0000
0000
0000
0000
,
0000
0000
0000
0000
,
0000
0000
0000
0000
,
0000
0000
0000
0000
0000
0000
0000
0000
0000
0000
0000
0000
1000
0000
0000
0100
,
0000
0000
0000
0000
0000
0000
0001
0000
0000
0010
0000
0000
0000
0000
0000
1000
,
0000
0000
0001
0000
0000
0000
0000
0000
0000
0100
0000
0000
1000
0000
0000
0001
,
0000
1001
0000
0000
0000
0000
0000
0000
;
