#TITLE:Liberated;
#SUBTITLE:;
#ARTIST:nal1200;
#TITLETRANSLIT:;
#SUBTITLETRANSLIT:;
#ARTISTTRANSLIT:;
#CREDIT:;
#BANNER:../Banner.png;
#BACKGROUND:../BG.png;
#LYRICSPATH:;
#CDTITLE:../CDTitleBRAEDEN.png;
#MUSIC:Liberated - nal1200.ogg;
#OFFSET:-0.117;
#SAMPLESTART:29.869;
#SAMPLELENGTH:29.999;
#SELECTABLE:YES;
#BPMS:0.000=145.004;
#STOPS:;
#BGCHANGES:;
// cache tags:
#FIRSTBEAT:8.000;
#LASTBEAT:460.000;
#SONGFILENAME:Songs/Index Fusion - Part 2/Liberated - [Braeden]/Liberated.sm;
#HASMUSIC:1;
#HASBANNER:1;
#MUSICLENGTH:196.392;
// end cache tags

//---------------dance-single - ----------------
#NOTES:
     dance-single:
     :
     Hard:
     15:
     1.000,1.000,0.076,0.168,1.000,1675.000,15.000,33.000,7.000,0.000:

0000
0000
0000
0000
,
0000
0000
0000
0000
,
1000
0100
0010
0001
0010
0100
1000
0001
0100
0010
0100
0001
1000
0100
0010
0001
,
1000
0010
0100
0001
0010
0001
1000
0010
1000
0001
0010
0001
0100
0010
1000
0100
,
0010
0100
1000
0001
0100
0010
1000
0001
0010
0100
1000
0001
0100
0010
0100
0001
,
1000
0100
1000
0001
0100
0010
1000
0100
0010
0001
1000
0100
1000
0001
0100
0010
,
0100
0001
0010
0001
1000
0100
0010
0001
0010
0100
1000
0001
0100
0010
0100
0001
,
0010
0001
1000
0100
0010
0001
0100
0010
0100
0001
0010
0100
1000
0001
0100
0010
,
1000
0000
0001
0100
0001
0100
0010
1000
0100
1000
0001
0000
0100
0010
0100
0001
,
1000
0000
0010
0100
0001
0100
0010
0100
0001
0000
1000
0100
1000
0000
0001
0100
,
0001
0000
1000
0100
0010
0001
0010
0100
1000
0001
0100
0000
0010
1000
0100
1000
,
0001
0000
0100
0010
0100
0010
1000
0100
1000
0001
1000
0000
0010
0100
0010
0100
,
0001
0000
1000
0100
0010
0001
0010
0100
1000
0001
0100
0000
0010
1000
0001
0100
,
0010
0000
1000
0100
0010
0001
0010
0100
1000
0000
0001
0100
0001
0000
1000
0010
,
1000
0000
0000
0000
0000
0000
0001
0000
0000
0100
0000
0000
0010
0000
0000
1000
0000
0000
0100
0000
0010
0000
0001
0000
1000
0000
0000
0010
0000
0000
0100
0000
0000
0000
0000
0000
0001
0000
0000
0010
0000
0000
0100
0000
0000
1000
0000
0000
,
0010
0100
0001
1000
0100
0010
0001
0100
0010
1000
0001
0000
0100
0010
0100
0001
,
1000
0100
0010
0001
1000
0000
0010
0100
0000
0001
0000
0100
0010
0000
1000
0000
,
0100
0010
0001
0100
0010
0000
1000
0100
0000
0010
0000
0001
0100
0000
0010
0000
,
1000
0000
0100
0000
0010
0000
0001
0000
0010
0000
0100
0000
1000
0000
0001
1000
0001
0000
0000
0000
1000
0000
0100
0000
0010
0000
0001
0000
0010
0000
0000
0000
,
0100
0000
1000
0000
0001
0000
0100
0000
0010
0000
1000
0000
0001
0000
1000
0001
1000
0000
0000
0000
0001
0000
0100
0000
0010
0000
1000
0000
0001
0000
0100
0000
,
0010
0000
0000
0000
1000
0000
0100
0000
0010
0000
0001
0000
0100
0000
0010
1000
0020
0000
0000
0000
0000
0000
0000
0000
0130
0000
0001
0000
0100
0000
0010
0000
,
1000
0000
0000
0000
0100
0000
0010
0000
0100
0000
0010
0000
0100
0000
0010
0100
0010
0000
0000
0000
0000
0000
0000
0000
0001
0000
0100
0000
0010
0000
1000
0000
,
0001
0000
0000
0000
0100
0000
0010
0000
M100
0000
0001
0000
0100
0000
0010
1000
0010
0000
0000
0000
0000
0000
0000
0000
M100
0000
0001
0000
0100
0000
0010
0000
,
1000
0000
0000
0000
0100
0000
0010
0000
M001
0000
0010
0000
0100
0000
1000
0001
0100
0000
0000
0000
0000
0000
0000
0000
001M
0000
1000
0000
0100
0000
1000
0000
,
0001
0000
0000
0000
0100
0000
0010
0000
100M
0000
0100
0000
0010
0000
0001
1000
0001
0000
0000
0000
0000
0000
0000
0000
M100
0000
0010
0000
0100
0000
0001
0000
,
1000
0000
0000
0000
0100
0000
0010
0000
010M
0000
0000
0000
0010
0000
0001
1000
0001
0000
0000
0000
0000
0000
0000
0000
0100
0000
0010
0000
0100
0000
0010
0000
,
1000
0000
0100
0010
0100
0010
0001
0100
0020
0000
0000
0000
1030
0100
1000
0001
,
0100
0000
0010
0100
0010
1000
0001
0100
0020
0000
0000
0000
1030
0100
0010
0001
,
0010
0000
0100
1000
0001
0100
0010
1000
0200
0000
0000
0000
0310
0001
0010
0001
,
1000
0000
0010
0100
0010
0100
0001
1000
0200
0000
0000
0000
0310
0001
0100
0010
,
1000
0000
0100
0010
0100
0010
0100
1000
0002
0000
0000
0000
0103
0010
0100
0010
,
1000
0000
0100
0010
0100
0010
0001
1000
0020
0000
0000
0000
0130
0001
0100
0010
,
1000
0000
0100
0010
0100
0010
0001
0100
0020
0000
0000
0000
1030
0100
0010
0001
,
1000
0010
0100
0001
1000
0100
0010
0100
1000
0001
0100
0000
0010
1000
0010
0100
,
0001
0000
0100
0010
0100
0010
1000
0100
0020
0000
0000
0000
0031
1000
0001
1000
,
0001
0000
1000
0010
1000
0010
1000
0010
2000
0000
0000
0000
3001
0100
0001
0100
,
0001
0000
1000
0010
1000
0010
1000
0010
2000
0000
0000
0000
3001
0100
0001
0100
,
0001
0000
1000
0010
1000
0010
1000
0010
2000
0000
0000
0000
3001
0100
0001
0100
,
0001
0000
1000
0010
1000
0010
1000
0010
2000
0000
0000
0000
3001
0010
0001
0010
,
0001
0000
1000
0010
1000
0010
1000
0010
2000
0000
0000
0000
3010
0100
0010
0100
,
0010
0000
0100
0001
0100
0001
0100
0001
0200
0000
0000
0000
0310
1000
0010
1000
,
0010
0000
0100
0001
0100
0001
0100
0001
0100
0000
0000
0000
0010
1000
0010
1000
,
1001
0000
0001
0100
0010
1000
0100
0010
0001
0000
0100
0010
0100
0010
1000
0100
,
1000
0000
0001
0100
0010
1000
0100
0010
0001
0000
0100
0010
1000
0001
0010
0100
,
1000
0000
0000
0000
0000
0000
0001
0000
0000
0100
0000
0000
0010
0000
0000
1000
0000
0000
0100
0000
0000
0010
0000
0000
0001
0000
0000
1000
0000
0000
0100
0000
0000
0010
0000
0000
0001
0000
0000
1000
0000
0000
0010
0000
0100
0000
0001
0000
,
0100
0000
0000
0000
0000
0000
0010
0000
0000
1000
0000
0000
0100
0000
0000
1000
0000
0000
0001
0000
0000
0010
0000
0000
0100
0000
0000
1000
0000
0000
0001
0000
0000
0100
0000
0000
0010
0000
0000
1000
0000
0000
0100
0000
0010
0000
0001
0000
,
1000
0000
0000
0000
0000
0000
0001
0000
0000
0100
0000
0000
0001
0000
0000
1000
0000
0000
0100
0000
0000
1000
0000
0000
0001
0000
0000
0100
0000
0000
0010
0000
0000
0100
0000
0000
0001
0000
0000
1000
0000
0000
0100
0000
0010
0000
0001
0000
,
1000
0000
0000
0000
0001
0000
0100
0000
0010
0000
1000
0000
0100
0000
0010
0000
0001
0000
0010
0000
0100
0000
1000
0000
0001
0000
0100
0000
0010
0100
0010
0100
,
0010
0000
0000
0000
1000
0000
0100
0000
0010
0000
0001
0000
0010
0000
0100
0000
1000
0000
0001
0000
0100
0000
0010
0000
1000
0000
0100
0000
0010
0001
0010
0001
,
0010
0000
0001
0100
0010
1000
0100
0010
0001
0000
0100
0010
1000
0100
0010
0001
,
1001
0000
0000
0000
0000
0000
0000
0000
0000
0000
0000
0000
1000
0100
0010
0001
,
2000
0000
0000
0000
0000
0000
0000
0000
0000
3100
0000
0000
0010
0000
0000
0000
0000
0000
0001
0000
0000
0000
0000
0000
0100
0000
0000
0000
0000
0000
0010
0000
0000
0000
0000
0000
1000
0000
0100
0000
0010
0000
0001
0000
0010
0000
0100
0000
,
1000
0000
0000
0000
0000
0000
0000
0000
0000
0010
0000
0000
0200
0000
0000
0000
0000
0000
0302
0000
0000
0000
0000
0000
0103
0000
0000
0010
0000
0000
1000
0000
0000
0000
0000
0000
0001
0000
0010
0000
0100
0000
1000
0000
0100
0000
0010
0000
,
0001
0000
0000
0000
0000
0000
0000
0000
0000
0100
0000
0000
0020
0000
0000
0000
0000
0000
2030
0000
0000
0000
0000
0000
3010
0000
0000
0000
0000
0000
0100
0000
0000
0001
0000
0000
1000
0000
0100
0000
0010
0000
0001
0000
0010
0000
0100
0000
,
1000
0000
0000
0001
0200
0000
0320
0000
2030
0000
3100
0010
0001
0010
0100
1000
,
0001
0000
0000
0000
0000
0000
0000
0000
0000
0100
0000
0000
0020
0000
0000
0030
0000
0000
1000
0000
0000
0000
0000
0000
0100
0000
0000
0000
0000
0000
0010
0000
0000
0000
0000
0000
0001
0000
1000
0000
0010
0000
0100
0000
0001
0000
1000
0000
,
0001
0000
0000
0000
0000
0000
0000
0000
0000
0010
0000
0000
0200
0000
0000
0000
0000
0000
2300
0000
0000
0000
0000
0000
3002
0000
0000
0000
0000
0000
0103
0000
0000
0010
0000
0000
1000
0000
0100
0000
0010
0000
0001
0000
0010
0000
0100
0000
,
0010
0000
0000
0000
0000
0000
0000
0000
0000
0001
0000
0000
0200
0000
0000
0000
0000
0000
0310
0000
0000
0000
0000
0000
1000
0000
0000
0000
0000
0000
0100
0000
0000
0010
0000
0000
0100
0000
1000
0000
0001
0000
0100
0000
0010
0000
1000
0000
,
0100
0000
0000
0010
0001
0000
0100
0000
0010
0000
1000
0100
1000
0001
0100
0010
,
0101
0000
0000
0000
0000
0000
0000
0000
0000
0010
0000
0000
2000
0000
0000
0000
0000
0000
3010
0000
0000
0000
0000
0000
0100
0000
0000
0000
0000
0000
0001
0000
0000
0100
0000
0000
0010
0000
1000
0000
0100
0000
1000
0000
0001
0000
0100
0000
,
0010
0000
0000
0000
0000
0000
0000
0000
0000
0100
0000
0000
0020
0000
0000
0000
0000
0000
1030
0000
0000
0000
0000
0000
0100
0000
0000
0000
0000
0000
0010
0000
0000
0001
0000
0000
0100
0000
0010
0000
1000
0000
0100
0000
0010
0000
0100
0000
,
1000
0000
0000
0000
0000
0000
0000
0000
0000
1000
0000
0000
0002
0000
0000
0000
0000
0000
0103
0000
0000
0000
0000
0000
0010
0000
0000
0000
0000
0000
1000
0000
0000
0010
0000
0000
0100
0000
0001
0000
0100
0000
0010
0000
1000
0000
0100
0000
,
0010
0000
0000
0000
0000
0000
0000
0000
0000
0001
0000
0000
0100
0000
0000
0000
0000
0000
0010
0000
0000
1000
0000
0000
0010
0000
0000
0000
0000
0000
0100
0000
0000
0001
0000
0000
0100
0000
0010
0000
1000
0000
0100
0000
1000
0000
0001
0000
,
0100
0000
0000
0000
0000
0000
0000
0000
0000
0010
0000
0000
1000
0000
0100
0000
0010
0000
0001
0000
0010
0000
0100
0000
1000
0000
0000
0000
0000
0000
0001
0000
0000
0100
0000
0000
0010
0000
1000
0000
0100
0000
0010
0000
0001
0000
0010
0000
,
0100
0000
0000
0000
0000
0000
0000
0000
0000
1000
0000
0000
0200
0000
0000
0000
0000
0000
0310
0000
0000
0000
0000
0000
0001
0000
0000
0000
0000
0000
0100
0000
0000
0010
0000
0000
0100
0000
0001
0000
0100
0000
0010
0000
1000
0000
0001
0000
,
0100
0000
0000
0000
0000
0000
0000
0000
0000
0010
0000
0000
1000
0000
0100
0000
0010
0000
0001
0000
0010
0000
0100
0000
1000
0000
0000
0000
0000
0000
0010
0000
0000
0100
0000
0000
0001
0000
1000
0000
0100
0000
0010
0000
0001
0000
0010
0000
,
0100
0000
0000
1000
0100
0000
0010
0001
0010
0000
0100
1000
0001
0100
0010
1000
,
0101
0000
0000
0000
0000
0000
0010
1000
0100
1000
0001
0010
0100
1000
0001
0100
0010
1000
0100
0010
0001
0010
0100
1000
,
0001
0000
0000
0000
0000
0000
0000
0000
0000
0010
0000
0000
0100
0000
0000
0000
0000
0000
1000
0000
0000
0000
0000
0000
0004
0000
0000
0000
0000
0000
0103
0000
0000
0010
0000
0000
1000
0000
0100
0000
0010
0000
0001
0000
0010
0000
0100
0000
,
1000
0000
0000
0000
0000
0000
0000
0000
0000
0001
0000
0000
0100
0000
0000
0000
0000
0000
0010
0000
0000
0000
0000
0000
4000
0000
0000
0000
0000
0000
3010
0000
0000
0100
0000
0000
0001
0000
1000
0000
0100
0000
0010
0000
0001
0000
0100
0000
,
0010
0000
0000
0000
0000
0000
0000
0000
0000
1000
0000
0000
0020
0000
0000
0000
0000
0000
0130
0000
0000
0000
0000
0000
0001
0000
0000
0010
0000
0000
0100
0000
0000
1000
0000
0000
0001
0000
0100
0000
0010
0000
1000
0000
0100
0000
0010
0000
,
0100
0000
0000
0000
0000
0000
0000
0000
0000
1000
0000
0000
0100
0000
0010
0000
0001
0000
0010
0000
0100
0000
1000
0000
0004
0000
0000
0000
0000
0000
0103
0000
0000
0010
0000
0000
1000
0000
0100
0000
0010
0000
0001
0000
0100
0000
0010
0000
,
1000
0000
0000
0000
0000
0000
0000
0000
0000
0001
0000
0000
0100
0000
0000
0000
0000
0000
0010
0000
0000
0000
0000
0000
4000
0000
0000
0000
0000
0000
3010
0000
0000
0100
0000
0000
0001
0000
0010
0000
0100
0000
1000
0000
0001
0000
0100
0000
,
0010
0000
0000
0000
0000
0000
0000
0000
0000
1000
0000
0000
0100
0000
0000
0000
0000
0000
0010
0000
0000
0000
0000
0000
0004
0000
0000
0000
0000
0000
0103
0000
0000
0000
0000
0000
0010
0000
1000
0000
0100
0000
1000
0000
0001
0000
1000
0000
,
0100
0000
0000
0010
0001
0000
0100
0000
0040
0000
1030
0100
1000
0001
0100
0010
,
1010
0000
0000
0000
0000
0000
0000
0000
0000
0100
0000
0000
0001
0000
0000
0000
0000
0000
1000
0000
0010
0000
0100
0000
0001
0000
0000
0000
0000
0000
1000
0000
0000
0010
0000
0000
0100
0000
0001
0000
0100
0000
0010
0000
1000
0000
0001
0000
,
0010
0000
0000
0000
0000
0000
0000
0000
0000
0100
0000
0000
1000
0000
0000
0000
0000
0000
0001
0000
0100
0000
0010
0000
1000
0000
0000
0000
0000
0000
0100
0000
0000
0010
0000
0000
0100
0000
1000
0000
0001
0000
0100
0000
0010
0000
1000
0000
,
0100
0000
0000
0000
0000
0000
0000
0000
0000
0010
0000
0000
0001
0000
0000
0000
0000
0000
0100
0000
0010
0000
1000
0000
0001
0000
0000
0000
0000
0000
0010
0000
0000
0100
0000
0000
0010
0000
0001
0000
0100
0000
0010
0000
1000
0000
0001
0000
,
0100
0000
0000
0000
0000
0000
0000
0000
0000
0010
0000
0000
0001
0000
0000
0000
0000
0000
0100
0000
0010
0000
1000
0000
0001
0000
0000
0000
0000
0000
0100
0000
0000
0010
0000
0000
1000
0000
0100
0000
0010
0000
0001
0000
0010
0000
0100
0000
,
1000
0000
0000
0000
0000
0000
0000
0000
0000
0001
0000
0000
0100
0000
0000
0000
0000
0000
0010
0000
1000
0000
0001
0000
0100
0000
0000
0000
0000
0000
0010
0000
0000
1000
0000
0000
0001
0000
0100
0000
0010
0000
1000
0000
0001
0000
0010
0000
,
0100
0000
0000
0000
0000
0000
0000
0000
0000
1000
0000
0000
0100
0000
0000
0000
0000
0000
0010
0000
0000
0000
0000
0000
0004
0000
0000
0000
0000
0000
0103
0000
0000
0010
0000
0000
1000
0000
0100
0000
0010
0000
0100
0000
1000
0000
0001
0000
,
0100
0000
0000
0000
0000
0000
0000
0000
0000
0010
0000
0000
1000
0000
0000
0000
0000
0000
0001
0000
0000
0000
0000
0000
0400
0000
0000
0000
0000
0000
0310
0000
0000
1000
0000
0000
0001
0000
0100
0000
0010
0000
0100
0000
0001
0000
1000
0000
,
0100
0000
0010
0001
0100
0010
1000
0100
0010
0000
0001
0100
0010
1000
0001
0010
,
0001
0000
0000
0100
0000
0000
0010
0000
0000
1000
0000
0000
0100
0000
0000
0010
0000
0000
0001
0000
0000
0100
0000
0000
0010
0000
0000
0000
0000
0000
1000
0000
0000
0100
0000
0000
0010
0000
0001
0000
0100
0000
0010
0000
1000
0000
0001
0000
,
0010
0000
0000
0100
0000
0000
1000
0000
0000
0001
0000
0000
0100
0000
0000
0010
0000
0000
1000
0000
0000
0100
0000
0000
0010
0000
0000
0000
0000
0000
0001
0000
0000
1000
0000
0000
0010
0000
0100
0000
0001
0000
1000
0000
0100
0000
1000
0000
,
0001
0000
0000
0100
0000
0000
0010
0000
0000
1000
0000
0000
0100
0000
0000
0010
0000
0000
0100
0000
0000
1000
0000
0000
0001
0000
0000
0000
0000
0000
0100
0000
0000
0010
0000
0000
1000
0000
0100
0000
0010
0000
0001
0000
0010
0000
0100
0000
,
1000
0000
0000
0001
0000
0000
0100
0000
0000
0010
0000
0000
1000
0000
0000
0100
0000
0000
1000
0000
0000
0001
0000
0000
0100
0000
0000
0000
0000
0000
0010
0000
0000
1000
0000
0000
0100
0000
0010
0000
0100
0000
1000
0000
0001
0000
0100
0000
,
0010
0000
0000
1000
0000
0000
0100
0000
0000
0010
0000
0000
0001
0000
0000
0100
0000
0000
0010
0000
0000
1000
0000
0000
0001
0000
0000
0000
0000
0000
0010
0000
0000
0100
0000
0000
1000
0000
0001
0000
0100
0000
0010
0000
0100
0000
0001
0000
,
0100
0000
0000
0010
0000
0000
1000
0000
0000
0100
0000
0000
0010
0000
0001
0000
0100
0000
0010
0000
1000
0000
0001
0000
0100
0000
0000
0000
0000
0000
0010
0000
0000
1000
0000
0000
0001
0000
0100
0000
0010
0000
1000
0000
0001
0000
0100
0000
,
0010
0000
0000
1000
0000
0000
0100
0000
0000
1000
0000
0000
0001
0000
0100
0000
0010
0000
1000
0000
0001
0000
0010
0000
0100
0000
0000
0000
0000
0000
1000
0000
0000
0001
0000
0000
0100
0000
0010
0000
1000
0000
0100
0000
1000
0000
0001
0000
,
0100
0000
0000
0010
0000
0000
1000
0000
0000
0100
0000
0000
0010
0000
0001
0000
0100
0000
0010
0000
1000
0000
0001
0000
0100
0000
0000
0000
0000
0000
0010
0000
0000
1000
0000
0000
0001
0000
0100
0000
0010
0000
1000
0000
0001
0000
0010
0000
,
0001
0000
0000
0000
0000
0000
1000
0000
0000
0010
0000
0000
0100
0000
0001
0000
0100
0000
0010
0000
1000
0000
0001
0000
0010
0000
0000
0000
0000
0000
0100
0000
0000
1000
0000
0000
0001
0000
0100
0000
0010
0000
1000
0000
0001
0000
0100
0000
,
0010
0000
0000
0000
0000
0000
1000
0000
0000
0100
0000
0000
0010
0000
0001
0000
0100
0000
0010
0000
1000
0000
0001
0000
0010
0000
0000
0000
0000
0000
0100
0000
0000
1000
0000
0000
0001
0000
0010
0000
0100
0000
1000
0000
0001
0000
0010
0000
,
0100
0000
0000
0000
0000
0000
1000
0000
0000
0100
0000
0000
0010
0000
0001
0000
0100
0000
0010
0000
1000
0000
0001
0000
0010
0000
0000
0000
0000
0000
0100
0000
0000
0000
0000
0000
1000
0000
0001
0000
0010
0000
0001
0000
1000
0000
0010
0000
,
0100
0000
0000
0001
0000
0000
1000
0100
0010
0001
0010
0100
1000
0000
0000
0001
0000
0000
0100
0010
0100
0001
0100
0001
,
0100
0000
0000
0010
0000
0000
1000
0100
0010
0001
0010
0100
1000
0000
0000
0001
0000
0000
0100
0010
0100
0001
0100
0010
,
0100
0000
0000
0010
0000
0000
1000
0100
0010
0001
0010
0100
1000
0000
0000
0001
0000
0000
1000
0100
0010
0001
0010
0100
,
1000
0000
0000
0000
0000
0000
0001
0000
0000
0100
0000
0000
0010
0000
1000
0000
0100
0000
0010
0000
0001
0000
0010
0000
0100
0000
0000
0000
0000
0000
1000
0000
0000
0100
0000
0000
0010
0000
0001
0000
0100
0000
0010
0000
1000
0000
0001
0000
,
0100
0000
0010
0000
0001
0100
0001
0100
0001
0000
1000
0000
0010
0100
0001
1000
,
0100
0000
0000
0010
0001
0010
0100
1000
0001
0100
0010
1000
0100
0000
0000
0010
0001
0100
0010
1000
0001
0010
0100
1000
,
0001
0000
0000
0100
0010
1000
0001
0010
0100
1000
0001
0100
0010
0000
0000
1000
0100
0010
0100
1000
0001
0100
0010
1000
,
0001
0000
0000
0100
0010
0100
0001
0100
0001
0100
0010
1000
0100
0000
0000
0010
0001
0010
0001
1000
0100
1000
0001
0100
,
0010
0000
0000
1000
0100
0010
0001
0010
0100
1000
0001
0100
0010
0000
0000
1000
0100
0010
0100
1000
0001
0100
0010
1000
,
0100
0000
0000
0010
0001
0010
0100
1000
0001
0100
0010
1000
0100
0000
0000
0010
0001
0010
0001
1000
0010
0100
0001
0100
,
0010
0000
0000
1000
0100
0010
0001
0010
0100
1000
0001
0100
0010
0000
0000
1000
0100
0010
0100
1000
0001
0010
0100
1000
,
0001
0000
0000
0100
0010
0100
0001
0100
0010
1000
0001
0100
0010
0000
0000
1000
0100
0010
0001
0010
0100
1000
0001
0100
,
0010
0000
0000
0000
0000
0000
1000
0000
0100
0000
0010
0000
0001
0000
0010
0000
0100
0000
1000
0000
0001
0000
0100
0000
0010
0000
0000
0000
0000
0000
0000
0000
0000
0000
0000
0000
1000
0000
0000
0001
0000
0000
1000
0000
0000
0000
0000
0000
,
1001
0000
0000
0001
0010
0100
1000
0100
0010
0001
1000
0010
0100
0000
0000
0001
0010
0100
1000
0001
0010
0100
1000
0001
,
0010
0000
0000
0100
0010
0001
1000
0100
0010
0001
1000
0100
0010
0000
0000
0001
0100
0010
0100
0001
1000
0010
0100
0001
,
1000
0000
0000
0100
0010
0100
1000
0001
0100
0010
1000
0100
0010
0000
0000
0001
0100
0010
1000
0100
0010
0001
0010
0100
,
1000
0000
0000
0001
0100
0010
1000
0001
0010
0100
1000
0001
0100
0000
0000
0010
0100
1000
0001
0100
0001
0100
0001
0100
,
0001
0000
0000
1000
0100
0010
0001
0010
0100
1000
0001
0010
0100
0000
0000
1000
0100
0010
0001
0010
0100
1000
0001
0100
,
0010
0000
0000
1000
0100
0010
0001
0010
0100
1000
0001
0010
0100
0000
0000
1000
0100
0010
0001
1000
0100
0010
0001
1000
,
0100
0000
0000
0010
0001
0010
0100
1000
0001
0100
0010
0100
0001
0000
0000
1000
0100
0010
0100
1000
0001
0100
0010
1000
,
0001
0100
0001
0100
0010
1000
0100
0010
0100
1000
0001
0100
0010
1000
0001
1000
,
1001
0000
0000
0000
;
