#TITLE:CAPTAIN JACK;
#SUBTITLE:(Uncensored);
#ARTIST:CAPTAIN JACK;
#TITLETRANSLIT:;
#SUBTITLETRANSLIT:;
#ARTISTTRANSLIT:;
#CREDIT:;
#BANNER:CJ 2 banner.PNG;
#BACKGROUND:C.J 2 bg.bmp;
#LYRICSPATH:;
#CDTITLE:;
#MUSIC:DDR - Captain Jack - Captain Jack (uncensored).mp3;
#OFFSET:-0.100;
#SAMPLESTART:48.940;
#SAMPLELENGTH:9.000;
#SELECTABLE:YES;
#BPMS:0.000=123.000;
#STOPS:;
#BGCHANGES:;
// cache tags:
#FIRSTBEAT:4.000;
#LASTBEAT:503.563;
#SONGFILENAME:Songs/new cedric/C.J. SONG/Move Your Body.sm;
#HASMUSIC:1;
#HASBANNER:1;
#MUSICLENGTH:249.738;
// end cache tags

//---------------pump-single - ----------------
#NOTES:
     pump-single:
     :
     Easy:
     3:
     0.083,0.096,0.044,0.040,0.000,124.000,11.000,10.000,0.000,0.000:
00000
00000
00000
00000
,
00200
00000
00000
00000
00000
00000
00000
00300
,
20000
00000
00000
00000
00000
00000
00000
30000
,
00002
00000
00000
00000
00000
00000
00000
00003
,
00200
00000
00000
00000
00000
00000
00000
00300
,
02000
00000
00000
00000
00000
00000
00000
03000
,
00020
00000
00000
00000
00000
00000
00000
00030
,
02000
00000
00000
00000
00000
00000
00000
03000
,
00200
00000
00000
10300
,
00000
00000
00000
00000
,
00000
00000
00100
00100
,
10000
00000
00001
00000
,
01000
00000
00010
00000
,
10000
00000
00001
00000
,
01000
00000
00010
00000
,
10000
00000
00001
00000
,
10000
00000
00001
00000
,
01000
00000
00010
00000
,
00100
00000
00100
00100
,
10000
00100
01000
00100
,
10000
00001
00100
00010
,
00100
00001
10000
00100
,
01000
00100
10000
00001
,
00100
10000
00100
01000
,
00100
00001
10000
00100
,
00001
00100
10000
00100
,
00001
10000
00100
00100
,
01000
00010
10000
00100
,
00001
00100
00010
00100
,
00001
10000
00100
10000
,
00001
00100
10000
00100
,
00001
00100
00010
01000
,
00100
01000
00100
10000
,
00001
00100
00010
00100
,
00001
00000
00000
00000
,
10001
00000
10001
00000
,
00100
00000
01010
00000
,
01010
00000
00100
00000
,
10010
00000
01001
00000
,
00100
00000
01100
00000
,
01100
00000
00100
00000
,
00110
00000
00110
00000
,
00100
00000
00100
00100
,
10000
00000
00001
00000
,
00010
00000
01000
00000
,
00100
00000
01000
00000
,
00001
00000
00100
00100
,
00001
00000
10000
00000
,
01000
00000
00010
00000
,
00100
00000
00100
00000
,
00001
00000
10000
00000
,
20002
00000
00000
00000
,
00000
00000
00000
00000
,
00000
00000
30003
00000
;

//---------------pump-single - Copied from----------------
#NOTES:
     pump-single:
     Copied from:
     Medium:
     6:
     0.158,0.182,0.136,0.008,0.000,240.000,34.000,2.000,0.000,0.000:
00000
00000
00000
00000
,
00100
00100
10000
10000
,
00001
00001
00100
00010
,
00001
00100
01000
00100
,
10000
00100
01000
01000
,
01010
00010
00010
00100
,
00100
00001
00001
01000
,
01000
00100
00100
10000
,
10000
00001
00001
10001
,
00000
00000
00000
00000
,
00000
00000
00100
00100
,
10000
00001
01000
00010
,
00100
00010
00100
00010
,
10000
00100
00001
00100
,
10000
10000
01000
01000
,
10000
00100
00001
00100
,
00010
00100
00010
00100
,
01000
00100
00010
00010
,
00100
00000
00100
00100
,
10000
00100
01000
00010
00100
00001
10000
00100
,
10000
00001
10000
00000
00100
00000
00010
00000
,
00100
00001
10000
00100
01000
00010
00100
00001
,
01000
00100
10000
00000
10000
00000
00001
00000
,
00100
10000
00100
01000
,
10000
00000
10100
00000
00001
00100
00010
00100
,
00010
00100
00001
10000
00001
00100
00010
00001
,
00010
00001
10000
00000
01100
00000
01100
00000
,
01000
00010
00100
00001
01000
00100
10000
00010
,
00100
00001
00100
00000
00010
00000
00100
00000
,
00001
10000
00010
10000
00100
01000
00001
00100
,
00010
10000
00100
00000
00101
00000
10100
00000
,
00001
00100
00010
01000
,
00100
00000
01000
00000
00100
10000
00100
10000
,
00010
00100
00010
00100
00001
00100
00010
00100
,
00110
00000
00000
00000
,
10001
00100
01001
00100
,
10010
00100
01010
00100
,
10001
00100
01010
00100
,
10010
00100
01001
00100
,
10010
00100
01100
00100
,
00110
00100
00101
00100
,
10100
00100
11000
00100
,
00011
00100
10100
00101
,
10000
00100
01000
00010
00001
00100
00001
01000
,
10000
01000
00100
00000
00010
00000
00100
00000
,
00001
01000
00100
00010
00100
00001
00100
10000
,
00100
01000
00100
00000
01010
00000
01010
00000
,
00101
10100
10001
10001
,
00110
00000
01100
00000
00010
00100
00001
00010
,
00001
00100
00010
00100
01000
00100
10000
00100
,
00001
00100
00010
00000
01000
00000
00000
00000
,
22000
00000
00000
00000
,
00000
00000
00000
00000
,
00000
00000
33000
00000
;

//---------------pump-single - Copied from Copied f----------------
#NOTES:
     pump-single:
     Copied from Copied f:
     Hard:
     11:
     0.243,0.257,0.180,0.016,0.042,375.000,45.000,4.000,0.000,1.000:
00000
00000
00000
00000
,
00100
01000
00000
00100
01000
00000
00010
00000
,
00001
00100
00000
00001
00100
00001
00001
00100
,
00010
00000
01000
00100
01000
00000
01100
00000
,
00010
00100
00000
00100
00001
00100
00010
00100
,
00100
00010
00000
00100
01000
00000
01100
00000
,
00001
00100
00000
00001
00100
00000
00101
01100
,
00101
00000
01100
00100
10100
00000
01010
00000
,
01000
00010
00000
00010
01000
00000
02020
00000
,
00000
00000
00000
00000
,
00000
00000
00000
00000
00000
03030
00000
00000
00100
00000
00000
00000
00100
00000
00000
00000
,
01000
00100
01000
00000
01000
00000
00100
00000
10000
00000
01000
00000
00100
00000
00010
00000
,
00001
00010
00100
01000
00100
10000
00100
10000
,
00100
10000
00100
00000
00001
00000
00100
00000
00001
00000
00100
00000
00010
00000
10000
00000
,
00010
00100
00001
00100
10000
00100
01000
10000
,
01000
00100
01000
00000
10100
00000
00001
00000
00010
00000
00001
00000
00100
00000
00001
00000
,
00010
00100
00010
00000
00011
00000
00001
00000
00100
00000
10000
00000
01000
00000
00100
00000
,
10000
00010
10000
00000
00100
00000
10000
00000
00010
00000
00100
00000
00010
00000
00100
00000
,
00010
00100
00010
00000
00000
00000
00000
00000
00100
00000
00000
00000
00100
00000
00000
00000
,
10000
00100
10000
00000
01000
00000
00100
00000
00010
00000
00100
00000
01000
00000
10000
00000
,
00100
00001
00010
00100
01000
10000
00100
01000
,
01000
00100
01000
00000
10000
00000
00100
00000
01000
00000
00100
00000
00010
00000
00100
00000
,
01000
10000
00100
01000
00001
01000
00100
10000
,
00010
01000
00010
00000
01010
00000
00100
00000
00010
00000
00100
00000
10001
00000
00100
00000
,
10000
00001
10000
00000
10000
00000
00100
00000
00010
00000
00100
00000
00001
00000
00100
00000
,
00010
00100
00010
00000
00001
00000
10000
00000
00001
00000
00100
00000
00010
00000
00001
00000
,
00010
00001
10000
00000
01100
00000
01100
00000
,
01000
00100
01000
00000
00100
00000
00001
00000
01000
00000
00100
00000
10000
00000
00010
00000
,
00100
00001
00100
00001
00010
00100
00010
00100
,
00001
10000
00001
00000
10001
00000
10000
00000
00100
00000
01000
00000
00001
00000
00100
00000
,
00010
10000
00100
01000
00010
00100
01000
10000
,
00100
00001
00100
00000
00101
00000
00100
00000
00010
00000
01000
00000
00010
00000
00100
00000
,
00001
10000
00001
00000
10001
00000
00100
00000
10000
00000
00001
00000
00100
00000
01000
00000
,
00100
00010
00100
00000
00010
00000
00100
00000
00001
00000
00100
00000
00010
00000
00100
00000
,
10110
00000
00000
10000
00001
10000
00001
10000
,
10001
00100
01000
00100
01001
00100
00010
00100
,
10010
00100
01000
00100
01001
00100
10000
00100
,
10001
00100
01000
00010
01010
00100
01000
00010
,
10010
00100
10000
00010
01001
00100
01100
00110
,
10010
00100
01000
00100
01100
00100
00010
00100
,
00110
00100
00001
00100
00101
00100
10000
00100
,
10100
00100
00011
00100
11000
00100
00011
00100
,
11000
00100
10000
00001
10100
00000
00101
00000
,
00100
10000
00100
00000
01000
00000
00010
00000
00001
00000
00100
00000
00001
00000
01000
00000
,
10000
01000
00100
00010
00100
00010
00001
00010
,
00001
00100
00001
00000
00100
00000
00010
00000
00100
00000
00001
00000
00100
00000
10000
00000
,
00100
01000
00100
00000
01010
00000
01010
00000
,
00001
00100
00001
00000
00101
00000
00100
00000
10000
00000
00001
00000
10000
00000
00100
00000
,
00010
00100
00010
00000
00110
00000
00100
00000
00010
00000
00100
00000
00001
00000
00010
00000
,
00001
00100
00001
00000
10000
00000
00100
00000
01000
00000
00100
00000
10000
00000
00100
00000
,
00001
00100
00010
00000
01000
00100
01000
00100
,
20100
00000
00000
02000
,
00000
00000
00000
00000
,
00000
00000
33000
00000
;

//---------------pump-double - Copied from Copied f----------------
#NOTES:
     pump-double:
     Copied from Copied f:
     Medium:
     6:
     0.158,0.182,0.136,0.008,0.000,240.000,34.000,2.000,0.000,0.000:
0000000000
0000000000
0000000000
0000000000
,
0010000000
0010000000
0000100000
0000100000
,
0000010000
0000010000
0000001000
0000000100
,
0000010000
0010000000
0001000000
0010000000
,
0000100000
0010000000
0100000000
0100000000
,
0101000000
0001000000
0001000000
0010000000
,
0010000000
0000100000
0000100000
0000001000
,
0000001000
0010000000
0010000000
0000100000
,
0000100000
0000010000
0000010000
0000110000
,
0000000000
0000000000
0000000000
0000000000
,
0000000000
0000000000
0010000000
0010000000
,
0001000000
0000100000
0000001000
0000000010
,
0000000100
0000000010
0000000100
0000000010
,
0000010000
0010000000
0000100000
0010000000
,
1000000000
1000000000
0100000000
0100000000
,
1000000000
0010000000
0000100000
0010000000
,
0001000000
0000100000
0000000100
0000001000
,
0000000010
0000000100
0000000010
0000000010
,
0000000100
0000000000
0010000000
0010000000
,
0001000000
0010000000
0001000000
0000001000
0010000000
0000010000
0000100000
0010000000
,
0000010000
0000100000
0000010000
0000000000
0010000000
0000000000
0000001000
0000000000
,
0000000100
0000000001
0000010000
0010000000
0001000000
0100000000
0010000000
1000000000
,
0001000000
0010000000
0000100000
0000000000
0000010000
0000000000
0000000001
0000000000
,
0000000100
0000010000
0010000000
0100000000
,
1000000000
0000000000
0010100000
0000000000
0000100000
0010000000
0001000000
0010000000
,
0001000000
0010000000
0000100000
0000001000
0000100000
0010000000
0001000000
0000100000
,
0001000000
0000100000
0000010000
0000000000
0000001100
0000000000
0000000110
0000000000
,
0000000010
0000001000
0000000100
0000000001
0000001000
0000000100
0000010000
0001000000
,
0010000000
0000100000
0010000000
0000000000
0001000000
0000000000
0010000000
0000000000
,
0000100000
0000100000
0000001000
0000100000
0000000100
0000001000
0000000001
0000000100
,
0000000010
0000001000
0000000100
0000000000
0000010100
0000000000
0010100000
0000000000
,
0000100000
0010000000
0001000000
0000001000
,
0000000100
0000000000
0000001000
0000000000
0000000100
0000010000
0000000100
0000010000
,
0001000000
0000100000
0001000000
0010000000
0000100000
0010000000
0001000000
0010000000
,
0011000000
0000000000
0000000000
0000000000
,
1000100000
0010000000
0001010000
0010000000
,
0000101000
0000000100
0001001000
0010000000
,
0000110000
0000000100
0000001010
0000000100
,
0000101000
0010000000
0001010000
0010000000
,
1001000000
0010000000
0011000000
0010000000
,
0010010000
0010000000
0000010100
0000000100
,
0000001100
0000000100
0000011000
0010000000
,
1100000000
0010000000
1010000000
0010100000
,
1000000000
0010000000
0100000000
0001000000
0000100000
0000010000
0000001000
0000000100
,
0000000001
0000000010
0000000100
0000000000
0000000010
0000000000
0000000100
0000000000
,
0000000001
0000001000
0010000000
0001000000
0010000000
0000100000
0000010000
0000000100
,
0000001000
0000000100
0000001000
0000000000
0001001000
0000000000
0001001000
0000000000
,
0010100000
0000010100
0000110000
0000110000
,
0011000000
0000000000
0000001100
0000000000
0000000010
0000000100
0000000001
0000000010
,
0000000001
0000000100
0000000010
0000000100
0000001000
0000000100
0000001000
0000010000
,
0000100000
0010000000
0001000000
0000000000
0000001000
0000000000
0000000000
0000000000
,
0000000022
0000000000
0000000000
0000000000
,
0000000000
0000000000
0000000000
0000000000
,
0000000000
0000000000
0000000033
0000000000
;

//---------------pump-double - Copied from Copied f----------------
#NOTES:
     pump-double:
     Copied from Copied f:
     Hard:
     11:
     0.244,0.268,0.188,0.016,0.042,375.000,47.000,4.000,0.000,1.000:
0000000000
0000000000
0000000000
0000000000
,
0010000000
0100000000
0000000000
0010000000
0001000000
0000000000
0000001000
0000000000
,
0000010000
0000000100
0000000000
0000000001
0000000100
0000000001
0000000001
0000000100
,
0000000010
0000000000
0000001000
0000000100
0000001000
0000000000
0011000000
0000000000
,
0001000000
0010000000
0000000000
0010000000
0000100000
0000001000
0000010000
0000000100
,
0000000100
0000010000
0000000000
0000000100
0000000010
0000000000
0000000110
0000000000
,
0000100000
0010000000
0000000000
0000100000
0010000000
0000000000
0000101000
0001010000
,
0000110000
0000000000
0001010000
0000101000
0001001000
0000000000
0001001000
0000000000
,
0000001000
0001000000
0000000000
0001000000
0000001000
0000000000
0002002000
0000000000
,
0000000000
0000000000
0000000000
0000000000
,
0000000000
0000000000
0000000000
0000000000
0000000000
0003003000
0000000000
0000000000
0010000000
0000000000
0000000000
0000000000
0010000000
0000000000
0000000000
0000000000
,
0001000000
0010000000
0001000000
0000000000
0000001000
0000000000
0000000100
0000000000
0000010000
0000000000
0000001000
0000000000
0000100000
0000000000
0001000000
0000000000
,
0000100000
0000010000
0000000100
0000001000
0000000010
0000000001
0000000100
0000000001
,
0000000100
0000000001
0000000100
0000000000
0000000001
0000000000
0000010000
0000000000
0000100000
0000000000
0010000000
0000000000
0001000000
0000000000
1000000000
0000000000
,
0001000000
0010000000
0000100000
0000001000
0000100000
0000000100
0000001000
0000000010
,
0000000010
0000000100
0000000010
0000000000
0000000101
0000000000
0000010000
0000000000
0000001000
0000000000
0000100000
0000000000
0010000000
0000000000
0000100000
0000000000
,
0001000000
0010000000
0001000000
0000000000
0001100000
0000000000
0000010000
0000000000
0000000100
0000000000
0000000001
0000000000
0000000010
0000000000
0000001000
0000000000
,
0000010000
0000000010
0000010000
0000000000
0000000100
0000000000
0000010000
0000000000
0001000000
0000000000
0010000000
0000000000
0001000000
0000000000
0010000000
0000000000
,
0001000000
0010000000
0001000000
0000000000
0000000000
0000000000
0000000000
0000000000
0000000100
0000000000
0000000000
0000000000
0000000100
0000000000
0000000000
0000000000
,
0000010000
0000000100
0000010000
0000000000
0000000010
0000000000
0000000100
0000000000
0000001000
0000000000
0001000000
0000000000
0010000000
0000000000
0000100000
0000000000
,
0000010000
0000000100
0000001000
0000000010
0000000001
0000000100
0000000010
0000001000
,
0001000000
0010000000
0001000000
0000000000
0000100000
0000000000
0010000000
0000000000
0000010000
0000000000
0000000100
0000000000
0000001000
0000000000
0000100000
0000000000
,
0001000000
1000000000
0010000000
0100000000
1000000000
0000100000
0001000000
0000001000
,
0001000000
0000001000
0001000000
0000000000
0001001000
0000000000
0000000100
0000000000
0000001000
0000000000
0000000100
0000000000
0000011000
0000000000
0000000100
0000000000
,
0000000001
0000000010
0000000001
0000000000
0000010000
0000000000
0001000000
0000000000
0000001000
0000000000
0010000000
0000000000
0000100000
0000000000
0010000000
0000000000
,
0001000000
0010000000
0001000000
0000000000
0000100000
0000000000
0000010000
0000000000
0000100000
0000000000
0000001000
0000000000
0001000000
0000000000
0000100000
0000000000
,
0000010000
0000001000
0000000010
0000000000
0000001100
0000000000
0011000000
0000000000
,
0000010000
0000100000
0000010000
0000000000
0010000000
0000000000
0000100000
0000000000
0100000000
0000000000
0001000000
0000000000
0000010000
0000000000
0001000000
0000000000
,
0010000000
0000100000
0000000100
0000010000
0000001000
0000000100
0000000010
0000000100
,
0000010000
0000000100
0000010000
0000000000
0000010100
0000000000
0000000100
0000000000
0000001000
0000000000
0001000000
0000000000
0000100000
0000000000
0010000000
0000000000
,
0001000000
0100000000
0010000000
1000000000
0000100000
0000010000
0000000100
0000001000
,
0010000000
0000100000
0010000000
0000000000
0010100000
0000000000
0000001000
0000000000
0000000100
0000000000
0000001000
0000000000
0000000010
0000000000
0000000100
0000000000
,
0000000001
0000010000
0000000001
0000000000
0000010001
0000000000
0000000100
0000000000
0000010000
0000000000
0000100000
0000000000
1000000000
0000000000
0010000000
0000000000
,
0010000000
0100000000
0010000000
0000000000
0001000000
0000000000
0010000000
0000000000
0000100000
0000000000
0010000000
0000000000
1000000000
0000000000
0010000000
0000000000
,
1011000000
0000000000
0000000000
0000010000
0000100000
0000010000
0000100000
0000010000
,
0000110000
0010000000
0001000000
0010000000
0100100000
0010000000
0000001000
0000000100
,
0000001100
0000000100
0000000010
0000000100
0000010010
0000000100
0000100000
0010000000
,
1000100000
0010000000
0100000000
0001000000
0101000000
0010000000
0001000000
0000001000
,
0000101000
0000000100
0000010000
0000000010
0000010010
0000000100
0010001000
0001000100
,
0001010000
0010000000
0001100000
0010000000
0011000000
0010000000
0000001000
0000000100
,
0000001100
0000000100
0000010000
0000000100
0000010100
0010000000
0000100000
0010000000
,
0010100000
0010000000
0001100000
0010000000
0000011000
0000000100
0000000011
0000000100
,
0000011000
0000000100
0000100000
0010000000
0010100000
0000000000
0000010100
0000000000
,
0000000100
0000000001
0000000100
0000000000
0000000010
0000000000
0000000100
0000000000
0000001000
0000000000
0000100000
0000000000
0010000000
0000000000
1000000000
0000000000
,
0100000000
0010000000
1000000000
0001000000
0000100000
0000001000
0001000000
0000010000
,
0000100000
0000010000
0000100000
0000000000
0000000100
0000000000
0000001000
0000000000
0000000100
0000000000
0000000010
0000000000
0000000100
0000000000
0000000001
0000000000
,
0000000100
0000010000
0010000000
0000000000
0001001000
0000000000
0001001000
0000000000
,
0000100000
0010000000
0000100000
0000000000
0010100000
0000000000
0000010000
0000000000
0000100000
0000000000
0000010000
0000000000
0000100000
0000000000
0000000100
0000000000
,
0000001000
0000000100
0000001000
0000000000
0000001100
0000000000
0000000100
0000000000
0000000010
0000000000
0000000100
0000000000
0000000001
0000000000
0000010000
0000000000
,
0000001000
0000000100
0000001000
0000000000
0000100000
0000000000
0001000000
0000000000
0010000000
0000000000
0100000000
0000000000
1000000000
0000000000
0000100000
0000000000
,
0001000000
0010000000
0001000000
0000000000
0001000000
0010000000
0001000000
0010000000
,
0010200000
0000000000
0000000000
0000002000
,
0000000000
0000000000
0000000000
0000000000
,
0000000000
0000000000
0000303000
0000000000
;

//---------------dance-single - ----------------
#NOTES:
     dance-single:
     :
     Hard:
     9:
     0.553,0.526,0.204,0.084,1.000,894.000,51.000,21.000,0.000,0.000:
0000
0000
0000
0000
,
0000
0000
0000
0000
,
0000
0000
0000
0000
,
0000
0000
0000
0000
,
0000
0000
0000
0000
1000
0000
0100
0000
0000
0010
0000
0001
0000
0000
0010
0000
0100
0000
1000
0000
0000
0000
0000
0000
,
1000
0000
0001
0000
0000
1000
0000
0010
0000
1000
0000
0000
0100
0000
0100
0000
0000
0000
0000
0000
0000
0000
0001
0000
,
0000
0000
0000
0010
0000
0000
0000
0000
0100
0000
0000
0000
1000
0000
0000
0000
0000
0100
0000
0000
0000
0000
0010
0000
,
0000
0000
0000
0100
0000
0000
0000
0000
1000
0000
0001
0000
0000
1000
0000
0010
0000
1000
0000
0000
0100
0000
0010
0000
,
0000
0001
0000
0000
0000
0000
0010
0000
0100
0000
0000
1000
0000
0001
0000
0100
0000
0000
0010
0000
0000
1000
0000
0000
,
0000
0000
0000
0000
0101
0000
0000
0000
0000
1000
0000
0000
0000
0000
1100
0000
0000
0000
0000
0010
0000
1000
0000
0000
,
0100
0000
0010
0000
1000
0000
0000
0010
0000
0100
0000
0000
0010
0000
0100
0000
0000
2002
0000
0000
0000
0000
0000
0000
,
0000
3003
0000
0000
0000
0010
0000
1000
0000
0000
0100
0000
0010
0000
0000
0001
0000
0002
0000
0000
0000
0000
0000
0000
,
0000
0000
0000
0000
0000
0000
0000
0000
0003
0000
0000
0000
0000
1000
0000
0000
0000
0000
0001
0000
0000
0000
0000
0001
,
0000
0000
0000
0000
1000
0000
0000
0000
0000
0000
0000
0000
0000
1001
0000
0000
0000
0000
0000
0000
0000
0000
0000
0110
,
0000
0000
0000
0000
0000
0000
0000
0000
0000
0000
0000
0000
0010
0000
1000
0000
0000
0100
0000
0010
0000
0000
0100
0000
,
0100
0000
0000
0000
0000
0000
0000
0000
0000
0000
0000
0000
0000
0000
1000
0000
0000
0001
0000
0000
0010
0000
0100
0000
,
0000
1000
0000
1000
0000
0010
0000
0000
0000
0000
2002
0000
0000
0000
0000
0000
0000
0000
0000
0000
0000
0000
0000
0000
,
0000
0000
3003
0000
0000
0000
0010
0000
0001
0000
0000
0010
0000
0100
0000
0000
1000
0000
0100
0000
0000
0010
0000
0010
,
0000
0000
0000
0000
1000
0000
0000
0001
0000
1000
0000
0010
0000
0000
1000
0000
0100
0000
0000
0010
0000
1000
0000
0000
,
0100
0000
0010
0000
0000
1000
0000
0001
0000
0010
0000
0000
0100
0000
0100
0000
0000
0000
0000
1000
0000
0000
0001
0000
,
0100
0000
0010
0000
0000
1000
0010
1000
0000
0000
0100
0000
1000
0000
0000
0100
0000
0010
0000
0000
0001
0000
0010
0000
,
0100
0000
0000
1000
0000
1000
0000
0000
0000
0000
0010
0000
0000
1000
0000
0010
0000
0000
0001
0000
0010
0000
0000
0001
,
0000
0010
0000
0000
1000
0000
0010
0000
0000
0001
0000
0010
0000
1000
0000
0000
0010
0000
1000
0000
0000
0100
0000
1000
,
0000
0100
0000
0000
0010
0000
0100
0000
0000
0010
0000
1000
0000
0100
0000
0000
1000
0000
0000
0011
0000
0000
0000
0000
,
1010
0000
0000
0000
0000
1000
0000
0100
0000
0010
0000
0000
0000
0000
0001
0010
0000
0000
0000
0000
1100
0000
0000
0000
,
0100
0000
0000
0010
0000
0010
0000
0000
0000
0000
1000
0000
0100
0000
0000
0010
0000
0000
1000
0100
0010
0000
1000
0000
,
0000
0001
0000
0000
0000
0000
0010
0000
1000
0000
0001
0000
0000
0010
1000
0100
0000
0000
0010
0000
1000
0000
0000
0000
,
0000
1000
0000
0000
0001
0000
0100
0000
0000
0000
0000
0001
0000
1000
0000
0000
0100
0000
0000
0000
0000
0010
1000
0000
,
0010
0000
0100
0000
0000
0000
0000
1000
0000
0001
0000
0100
0000
0000
0000
0000
0000
0010
0000
1000
0100
0010
0000
0000
,
1000
0000
0100
0000
0000
0010
0000
1000
0000
0000
0000
0000
0010
0000
0010
0000
0001
1000
0000
0100
0000
0000
0001
0000
,
0100
0000
0000
1000
0000
0000
0000
0000
1000
0000
0000
0000
0001
0000
0000
0000
0000
1000
0000
0000
0000
0000
0000
0000
,
0000
0000
0000
1000
0000
0000
0000
0000
0001
0000
0000
0000
0000
1000
0000
0000
0000
0000
0000
0000
0000
0010
0000
1000
,
0000
0010
0000
0000
0100
0000
0010
0000
0000
0100
0000
0000
0000
0000
0000
0000
0010
0000
0000
0001
0000
0010
0000
0001
,
0000
0000
0100
0000
0000
0001
0000
0000
0000
0000
0000
0000
0001
0000
1000
0000
0000
0000
0000
0010
0000
0000
0000
0000
,
0110
0000
0000
0000
0000
0000
0000
0000
1000
0000
0100
0000
0000
0000
0000
0001
0000
0000
0000
0000
0011
0000
0000
0000
,
0000
0000
0000
1000
0000
0000
0010
1000
0010
0000
1000
0000
0000
0100
0000
0101
0000
0000
0000
0000
0000
0000
0000
0010
,
0000
0001
0100
0000
0001
0000
0010
0000
0100
0000
0000
2000
0000
0000
0000
0000
3000
0000
0000
0000
0000
2002
0000
0000
,
0000
0000
0000
0000
0000
0000
0000
0000
0000
0000
0000
0000
0000
0000
0000
0000
0000
0000
0000
0000
0000
0000
0000
0000
0000
0000
0000
3003
0000
0000
0000
0000
0000
0000
0010
0000
0000
0000
1000
0000
0000
0000
0100
0000
0000
0000
0010
0000
,
0000
0000
1000
0100
0000
0000
0100
0010
0000
1000
0000
0000
0001
0000
0100
0000
0000
0010
0000
1000
0000
0000
0001
0000
,
0100
0000
0000
0000
0000
1000
0100
1000
0000
0000
0010
0000
0000
0000
0000
0100
0000
0000
0000
0000
0010
0000
0000
0000
,
0000
0100
0000
2002
0000
0000
0000
0000
0000
0000
0000
0000
0000
0000
0000
0000
0000
0000
0000
3003
0000
0000
0000
0001
,
0000
0010
0000
0100
0000
0000
1000
0000
0000
0010
1000
0000
0000
0100
0010
0000
1000
0000
0000
0100
0000
0010
0000
1000
,
0000
0000
0010
0000
0100
0000
0000
0010
0000
0000
0000
0000
0000
0000
1001
0000
0000
0000
0000
0000
0000
0000
0000
0010
,
0000
1000
0000
0000
0100
0010
0000
0000
0000
1000
0000
0000
0100
0000
0010
0000
0000
0001
0000
0000
0100
0000
0010
0000
,
0010
0000
0000
0000
0000
0000
0001
0000
1000
0000
0010
0000
0000
1000
0000
0100
0000
0010
0000
0000
0010
0000
0000
0000
,
0000
0010
0000
0100
0000
0000
1001
0000
0000
0000
0000
0010
0000
0100
0000
0000
1001
0000
0000
0000
0000
0010
0000
0100
,
0000
0010
0000
0100
0000
0000
0010
0000
0100
0000
0000
1001
0000
0000
0000
0000
1000
0000
0000
0100
0000
0010
0000
1000
,
0000
0000
0100
0000
1000
0000
0000
1000
0000
0000
0000
0000
0001
0000
1000
0000
0000
0010
0000
1000
0000
0000
0100
0000
,
0001
0000
0000
0001
0000
0000
0000
0100
0000
0000
0010
0000
1001
0000
0000
0000
0000
0100
0000
0010
0000
0000
1001
0000
,
0000
0000
0000
0100
0000
0010
0000
0000
0100
0000
0010
0000
0000
0100
0000
0010
0000
1000
0001
0000
0000
0000
0000
0000
,
0000
1010
0000
0000
0000
0000
0101
0000
1000
0000
0000
0100
0000
0010
0000
1000
0000
0000
0000
0000
0011
0000
0000
0000
,
1000
0100
0000
1000
0000
0100
0000
0010
0000
1000
0000
0100
0000
0000
0000
0000
0010
0000
0000
0001
0000
1000
0000
0000
,
0010
0000
1000
0000
0000
0100
0000
0010
0000
0000
0000
0001
0000
0000
0000
0000
0010
0000
1000
0000
0100
0000
0010
1000
,
0010
0000
0000
1000
0000
0100
0000
0010
0000
0000
0001
0000
0000
0100
0000
0000
0000
1000
0000
0000
0001
0000
0010
0000
,
0000
1000
0000
0100
0000
0000
0010
0000
1000
0000
0000
0000
0000
0001
0000
0000
0000
0000
0010
0000
1000
0000
0000
0100
,
0000
0010
0000
0000
1000
0000
0001
0000
0000
0100
0000
0010
0000
0000
0100
0000
2002
0000
0000
0000
0000
0000
0000
0000
,
0000
0000
0000
0000
0000
0000
0000
0000
3003
0000
0000
0000
1000
0000
1000
0000
0000
0010
0000
0010
0000
0100
0000
0000
,
0100
0000
0001
0000
0000
0001
0000
0000
0000
0000
0001
0000
0001
0000
0000
0010
0000
0010
0000
0000
0100
0000
0100
0000
,
1000
0000
0000
1000
0000
0010
0000
0000
0010
0000
0100
0000
0000
1000
0000
0100
0000
0010
0000
0000
0010
0000
0000
0000
,
0000
1000
0000
0001
0000
0000
0010
0000
0000
0100
0000
1000
0010
1000
0000
0000
0010
0000
0100
0000
0000
1000
0000
0100
,
0000
0000
0010
0000
0001
0000
0100
0000
0000
1000
0000
1000
0000
0000
0000
0000
0001
0000
0000
1000
0000
0010
0000
0000
,
1000
0000
0010
0000
0000
0100
0000
0010
0000
0100
0000
0000
0001
0000
0100
0000
0000
0010
0000
0100
0000
0000
0001
0000
,
1000
0000
0010
0000
0000
1000
0000
0100
0000
0000
0010
0000
0001
0000
0000
1000
0000
0100
0000
0010
0000
0000
0001
0000
,
0000
1100
0000
0000
0000
0011
0000
0000
0000
0000
0010
0000
0000
0100
0000
0100
0000
0000
0000
0000
1010
0000
0000
0000
,
0000
0101
0000
0000
0000
0000
0010
0000
0100
0000
0000
1000
0000
0000
0000
0000
1000
0000
0001
0000
0000
1000
0000
0000
,
0010
1000
0010
0000
1000
0000
0000
0100
0000
0000
0000
0010
0000
0000
0001
0000
0010
0000
0000
0001
0100
0001
0000
0000
,
0100
0000
0010
0000
0000
0000
0000
1000
0000
0001
0000
0000
1000
0000
0100
0000
0000
0010
0000
1000
0000
0000
0100
0000
,
0000
0000
0000
0010
0000
0001
0000
0000
0010
0000
0001
0000
0000
0100
0000
0001
0000
0100
0000
0000
0000
0000
0000
0010
,
0000
1000
0001
0000
1000
0000
0010
0000
1000
0000
0000
0100
0000
0010
0000
0000
0000
0000
1000
0000
0000
0010
1000
0010
,
0000
1000
0000
0000
0100
0000
0010
0000
0100
0000
0000
0000
0000
1000
0000
0000
0000
0000
0001
0000
0000
0000
0000
1000
,
0000
0000
0000
0000
0000
0000
0000
0000
0000
1000
0000
0000
0000
0000
0001
0000
0000
0000
0000
1000
0000
0000
0000
0000
,
0000
0000
1000
0000
0000
0100
0000
0001
0000
0000
0100
0000
1000
0000
0000
0100
0000
0000
0000
0000
0000
0000
0001
0000
,
0010
0000
0000
1000
0000
0010
0000
0000
0001
0000
0010
0000
0000
0000
0000
0000
0000
0000
0010
0000
1000
0000
0000
0000
,
0000
0010
0000
0000
0000
0011
0000
0000
0000
0000
0000
0000
0000
0000
0010
0000
0100
0000
0000
0000
1000
0000
0000
0000
,
0000
1100
0000
0000
0000
0000
0000
0000
1000
0000
0000
0010
1000
0000
0010
0000
1000
0000
0000
0100
0000
0010
0000
0000
,
0000
0000
0000
0000
0001
0000
0000
0010
0001
0000
0010
0000
0100
0000
1000
0000
0000
0100
0000
0000
0000
0000
0000
0000
,
0000
2002
0000
0000
0000
0000
0000
0000
0000
0000
0000
0000
,
0000
0000
0000
0000
0000
0000
0000
0000
0000
0000
3003
0000
0000
0000
0000
0000
0000
1000
0000
0000
0010
0000
0000
0001
,
0000
0010
0000
0000
1000
0010
0000
0010
0000
0001
0000
0010
0000
0000
1000
0000
0010
0000
0100
0000
0000
0010
0000
0100
,
0000
0010
0000
0000
0000
0000
0000
0000
0000
1001
0000
0000
0000
0000
0000
0000
0000
0000
0000
1100
0000
0000
0000
0000
,
0000
0000
2002
0000
0000
0000
0000
0000
0000
0000
0000
0000
,
0000
0000
0000
0000
0000
0000
0000
0000
3003
0000
0010
0100
,
0000
1000
0000
0100
0000
0000
1000
0010
0000
0000
1000
0100
0000
0010
0000
0000
0001
0000
0010
0000
0100
0000
0000
1000
,
0000
0010
0000
0000
0100
0000
0000
0000
0000
0000
0000
0010
0000
0000
0000
0000
0000
0000
0000
0000
1000
0000
0100
0000
,
0000
0100
0010
0000
0000
0000
0000
1000
0000
0001
0000
0010
0000
0000
0100
0000
1000
0000
0000
0100
0000
0001
0000
0000
,
0000
0000
0000
0001
0000
1000
0000
0000
0010
0000
1000
0000
0000
0100
0000
0010
0000
0010
0000
0000
0000
0000
0010
0000
,
0100
1001
0000
0000
0010
0100
1001
0000
0000
0010
0100
0010
,
0000
0100
0000
0010
0000
0000
0100
0000
1001
0000
0000
0000
0000
1000
0000
0000
0100
0000
0010
0000
0000
0001
0000
1000
,
0000
0000
0010
0000
0010
0000
0000
0000
0000
1000
0000
0000
0001
0000
1000
0000
0100
0000
0000
0010
0000
0001
0000
0001
,
0000
0000
0000
0000
0100
0000
0010
0000
0000
1001
0000
0000
0000
0000
0100
0000
0000
0010
0000
1001
0000
0000
0000
0000
,
0100
0000
0010
0000
0000
0100
0000
0010
0000
0000
0100
0000
0010
0000
1001
0000
0000
0000
0000
0000
1000
0000
0100
0000
,
0000
0010
0000
0001
0000
0000
0010
0000
1000
0000
0001
0000
0000
0100
0000
0010
0000
0000
1000
0000
0100
0000
0000
0010
,
0000
0000
0000
0001
0000
0000
0000
0000
1000
0000
0000
0010
0000
1000
0000
0000
0100
0000
0010
0000
0000
0000
0001
0000
,
0000
0000
0000
0010
0000
0000
1000
0000
0100
0000
0000
0010
0000
0000
1000
0000
0000
0000
0000
0001
0000
1000
0010
0000
,
1000
0000
0100
0000
0010
0000
0000
0000
0000
0000
0001
0000
0000
0000
1000
0000
0000
0100
0000
0010
0000
0000
1000
0000
,
0001
0000
0000
0000
0000
0010
0000
0000
0000
0000
1000
0000
0100
0000
0000
0000
0000
0000
1000
0000
0001
0000
0010
0000
,
0000
1000
0000
0100
0000
0000
0010
0000
1000
0000
0000
0000
0000
0000
0000
0001
0000
0000
0000
0000
0000
0010
0000
0000
,
0000
1000
0000
0000
0000
0000
0000
1000
0000
1100
0000
0000
0000
0000
0010
0000
0000
0000
0100
0000
0000
0001
0000
0100
,
0000
0000
0000
0000
0011
0000
0000
0000
0000
0010
0000
0000
0000
0000
1000
0000
0000
0100
0000
0100
0000
0000
0000
0000
,
1000
0000
0001
0000
0000
1000
0000
0000
0010
1000
0010
0000
1000
0000
0000
0100
0000
0000
0000
0000
0010
0000
0100
0000
,
1000
0000
0000
0001
1000
0000
0010
0000
1000
0000
0100
0000
0000
0000
0000
1000
0000
0100
0000
0000
0010
0000
0000
0001
,
0000
1000
0000
0100
0000
0000
0010
0000
0000
0000
0000
0001
0000
0010
0000
0000
0100
0000
1000
0000
0000
0001
0000
0010
,
0000
0100
0000
0000
0000
0000
1000
0000
0000
0010
1000
0000
0010
0000
1000
0000
0100
0000
0000
0010
0000
0010
0000
0000
,
0000
0000
1000
0000
0000
0001
1000
0001
0000
0000
0010
0000
0001
0000
0100
0000
0000
0100
0000
0000
0000
0000
1000
0000
,
0000
0000
0000
0001
0000
0000
0000
1000
0000
0000
0000
0000
0000
0000
0000
0000
0000
1000
0000
0000
0000
0000
0001
0000
,
0000
0000
0000
1000
0000
0000
0000
0000
0000
0000
1000
0000
0000
0010
0000
0001
0000
0010
0000
0000
1000
0000
0010
0000
,
0000
0000
0000
0000
0000
0000
1000
0000
0000
0100
0000
0001
0000
0100
0000
0000
1000
0000
0100
0000
0000
0000
0000
0000
,
0000
0000
0010
0000
0010
0000
0000
0000
0000
0100
0000
0000
0000
1001
0000
0000
0000
0000
0000
0000
0000
0100
0000
0100
,
0000
0000
0000
0000
0010
0000
0000
0000
0000
1001
0000
0000
0000
0000
0000
0000
0000
1000
0000
0010
1000
0000
0010
0000
,
1000
0000
0100
0000
0000
0001
0000
0000
0000
0000
0000
0000
1000
0000
0000
0010
0000
1000
0100
0000
0010
0000
0100
0000
,
0000
0020
0000
0000
0000
0000
0000
0030
0000
0000
0010
0000
0000
0002
0000
0000
0000
0000
0000
0000
0000
0000
0000
0000
,
0000
0000
0003
0000
0000
0000
0000
0200
0000
0000
0000
0000
0000
0300
0000
0000
0000
0001
1000
0000
0000
1000
0001
0000
,
0000
0000
0010
0000
1000
0000
0000
0100
0000
0010
0000
0001
0000
0000
0100
0000
0000
0100
0000
0000
0000
0001
0000
0000
,
1000
0000
0010
0000
0000
1000
0000
0100
0000
0000
0010
0000
0010
0000
0000
0000
0000
0010
0000
0100
0000
0000
1001
0000
,
0000
0000
0000
0010
0000
0100
0000
0000
1001
0000
0000
0000
0000
0010
0000
0100
0000
0010
0000
0000
0100
0000
0010
0000
,
0000
0100
0000
1001
0000
0000
0000
0000
1000
0000
0000
0100
0000
0010
0000
0001
0000
0000
1000
0000
0010
0000
0000
0010
,
0000
0000
0000
0000
0001
0000
1000
0000
0000
0100
0000
0010
0000
0000
0001
0000
1000
0000
1000
0000
0000
0000
0000
0100
,
0000
0010
0000
0000
1001
0000
0000
0000
0000
0100
0000
0000
0010
0000
1001
0000
0000
0000
0000
0100
0000
0010
0000
0000
,
0100
0000
0010
0000
0000
0100
0000
0010
0000
1001
0000
0000
0000
0000
0000
1000
0000
0000
0000
0100
0000
0000
0000
0000
,
0010
0000
0000
0001
0000
0010
0000
0000
0100
0000
1000
0000
0000
0010
0000
0001
0000
0010
0000
0000
0100
0000
1000
0000
,
0000
1000
0000
1000
0000
0000
0010
0000
0001
0000
0000
0010
0000
0100
0000
0000
1000
0000
1000
0000
0000
0010
0000
0100
,
0000
0000
0000
0000
1000
0000
0000
1000
0000
0100
0000
0000
0010
0000
0001
0000
0000
0001
0000
0010
0000
0000
0100
0000
,
1000
0000
1000
0000
0000
1000
0000
0100
0000
0000
0010
0000
0001
0000
0001
0000
0000
0000
0000
0001
0000
0000
1000
0000
,
0010
0000
0000
1000
0000
0100
0000
0100
0000
0000
0010
0000
0000
1000
0000
0001
0000
0000
0010
0000
0100
0000
0000
1000
,
0000
0100
0000
0010
0000
0000
0100
0000
2002
0000
0000
0000
0000
0000
0000
0000
0000
0000
0000
0000
0000
0000
0000
0000
,
0000
0000
0000
0000
0000
3003
0000
0000
0000
0000
0000
0000
0000
0000
0000
0000
0000
0000
0000
0000
0000
0000
0000
0000
;

//---------------dance-single - ----------------
#NOTES:
     dance-single:
     :
     Medium:
     8:
     0.486,0.697,0.460,0.000,1.000,734.000,115.000,0.000,0.000,0.000:
0000
0000
0000
0000
,
0000
0000
0000
0000
,
0000
0000
0000
0000
,
0000
0000
0000
0000
,
0000
0000
0000
0000
0010
0000
1000
0000
0000
0010
0000
0000
0000
0000
0100
0000
0010
0000
0000
0100
0000
0000
0000
0000
,
1000
0000
0001
0000
1000
0000
0000
0000
0000
0100
0000
0000
0010
0000
0100
0000
0000
0000
0000
0000
0000
0000
0000
0000
,
0000
0000
0000
0000
,
0000
0000
0000
0000
0000
0000
0000
0000
0000
0000
0000
0001
0000
0100
0000
0000
0001
0000
0000
0000
0100
0000
1000
0000
,
0000
0100
0000
0000
0000
0000
0001
0000
0100
0000
0000
0001
0000
0000
0000
0000
0100
0000
1000
0000
0100
0000
0000
0000
,
0000
0000
0000
0000
,
0000
0000
0000
0000
0000
0000
0000
0000
1001
0000
0000
0000
,
0000
0000
0000
0000
0000
0000
0000
1010
0000
0000
0000
0000
0101
0000
0000
0000
0000
1000
0000
0000
0000
0000
0000
0100
,
0000
0010
0000
0000
0001
0000
0000
0000
0000
1001
0000
0000
0000
1100
0000
0000
0000
0000
0010
0000
1000
0000
0000
0010
,
0000
0000
0000
0000
0011
0000
0000
0000
0000
1100
0000
0000
0000
0000
1000
0000
0100
0000
0000
1000
0000
0000
0000
0101
,
0000
0000
0000
0000
0110
0000
0000
0000
0000
0000
1000
0000
0001
0000
0000
1000
0000
0000
0000
1010
0000
0000
0000
0000
,
0101
0000
0000
0000
0000
1000
0000
0000
0100
0000
1000
0000
0000
0000
0000
0011
0000
0000
0000
0000
1100
0000
0000
0000
,
1000
0000
0000
0010
0000
0001
0000
0000
0000
0000
1001
0000
0000
0000
0000
0000
0000
0000
0000
0000
0000
0000
0000
0000
,
0000
0000
0000
0000
0000
0000
0010
0000
0000
0000
0000
1000
0000
0000
0000
0000
0100
0000
0010
0000
0000
0010
0000
0000
,
0000
0000
0001
0000
0000
0000
0000
1000
0000
0000
0000
0001
0000
0000
0100
0000
0100
0000
0000
0000
0000
1000
0000
0000
,
0000
0000
0100
0000
0000
0000
0000
1000
0000
0000
0010
0000
0010
0000
0000
0000
0000
0010
0000
0000
0000
0000
0001
0000
,
0000
0000
0000
0010
0000
0000
0000
1000
0000
0000
0100
0000
0010
0000
0000
0000
0000
0001
0000
0000
0000
0000
0010
0000
,
0000
1000
0000
1000
0000
0000
0000
0000
0001
0000
0000
0000
0000
0010
0000
0000
0000
0000
1000
0000
0100
0000
0000
0010
,
0000
0000
0000
0000
0001
0000
0000
0000
0000
1000
0000
0000
0000
0000
0010
0000
1000
0000
0000
0010
0000
0000
0000
1000
,
0000
0000
0000
0000
0010
0000
0000
0000
0000
0100
0000
0000
0000
0000
0010
0000
0000
0000
0000
1001
0000
0000
0000
0000
,
0110
0000
0000
0000
0000
1000
0000
0100
0000
0000
1000
0000
0000
0000
1010
0000
0000
0000
0000
0101
0000
0000
0000
0000
,
0001
0000
0000
0100
0000
0001
0000
0000
0000
0000
1000
0000
0100
0000
0000
0001
0000
0000
0000
0000
0001
0000
0100
0000
,
0000
1000
0000
0000
0000
0000
1000
0000
0100
0000
0000
0001
0000
0000
0000
0001
0000
0000
0100
0000
0000
1000
0000
0000
,
0000
0000
1000
0000
0010
0000
0001
0000
0000
0000
0000
0001
0000
0000
0010
0000
1000
0000
0000
0000
0000
1000
0000
0010
,
0000
0000
0001
0000
0000
0000
0000
0001
0000
0010
0000
0000
1000
0000
0000
0000
0010
0000
0000
1000
0000
0000
0100
0000
,
0000
0000
0010
0000
0000
0001
0000
0000
0100
0000
0000
0000
0010
0000
0000
1000
0000
0100
0000
0000
0000
0000
0010
0000
,
0001
0000
0000
0100
0000
0000
0000
0000
1000
0000
0001
0000
0100
0000
0000
1000
0000
0100
0000
0000
0000
0000
0000
0000
,
0000
0000
0000
1000
0000
0000
0001
0000
1000
0000
0010
0000
0000
0100
0000
0000
0000
0000
0000
0000
0000
0000
0000
1000
,
0000
0100
0000
0000
0010
0000
0000
0001
0000
0100
0000
0000
0000
0000
0000
0000
0000
0000
0000
0001
0000
0010
0000
0100
,
0000
0000
1000
0000
0010
0000
0000
0000
0000
0000
0000
0000
1000
0000
0001
0000
0000
1000
0000
0001
0000
0000
1000
0000
,
0010
0000
0000
0000
0000
0000
0000
0000
0000
0000
1000
0000
0001
0000
0000
1000
0000
0001
0000
0000
0010
0000
0000
0000
,
0000
0000
0000
0000
0000
0010
0000
0001
0000
0000
0100
0000
0010
0000
0000
1000
0000
0000
0000
0000
0000
0000
0000
0000
,
0000
0010
0000
1000
0000
0000
0100
0000
0010
0000
0000
1000
0000
0000
0000
0000
0000
0000
0000
0000
0000
1001
0000
0000
,
0000
0000
0000
0000
0000
0000
0000
0000
0000
0000
0000
0000
0000
0000
0000
0000
0000
1000
0000
0010
0000
1000
0000
0000
,
0100
0000
0010
0000
0001
0000
0000
0100
0000
0000
1000
0000
0100
0000
0000
0010
0000
1000
0000
0000
0001
0000
0100
0000
,
0010
0000
0000
0000
,
0000
0000
0000
1001
0000
0000
0000
0000
0000
0000
0000
0000
0000
0000
0000
0000
0000
0000
0000
0000
0000
0000
0000
0010
,
0000
0001
0000
0100
0000
0000
1000
0000
0000
0100
0000
0001
0000
0000
0100
0000
1000
0000
0100
0000
0000
0010
0000
0100
,
0000
0000
1000
0000
0001
0000
0000
0100
0000
0000
0000
0000
0000
0000
0010
0000
0000
0000
0000
0010
0000
0000
0000
0000
,
1001
0000
0000
0000
1100
0000
0000
0000
0000
1000
0000
0000
0100
0000
0000
1000
0000
0000
0000
0000
1000
0000
0010
0000
,
0000
1000
0000
0000
0000
0000
0010
0000
0100
0000
0010
0000
0000
0000
0000
0001
0000
0000
0100
0000
0001
0000
0000
0000
,
0000
0010
0000
0000
0001
0000
0100
0000
0000
0000
0000
0010
0000
0001
0000
0000
0100
0000
0000
0000
0000
0010
0000
0001
,
0000
0010
0000
0000
0001
0000
0000
0100
0000
0001
0000
0100
0000
0000
0000
0000
1000
0000
0100
0000
0000
1000
0000
0000
,
0000
0000
0000
1000
0000
0010
0000
1000
0000
0000
0000
0000
0100
0000
0010
0000
0000
0100
0000
0000
0000
0001
0000
0000
,
0100
0000
0001
0000
0000
0000
0000
0010
0000
0000
1000
0000
0100
0000
0000
0000
0000
0010
0000
1000
0000
0000
0100
0000
,
0000
0000
0000
0010
0000
1000
0000
0010
0000
0000
1000
0000
0000
0100
0000
1000
0000
0000
0100
0000
0000
0000
0000
1001
,
0000
0000
0000
0000
1100
0000
0000
0000
0000
0010
0000
1000
0000
0000
0010
0000
0000
0000
0110
0000
0000
0000
0000
1001
,
0000
0000
0000
0000
0010
0000
0000
0001
0000
0010
0000
0000
0000
0000
0011
0000
0000
0000
0000
0101
0000
0000
0000
0010
,
0000
0000
0100
0000
0010
0000
0000
0000
0000
0000
1001
0000
0000
0000
1010
0000
0000
0000
0000
1000
0000
0000
0100
0000
,
1000
0000
0000
0000
0000
1100
0000
0000
0000
0000
0011
0000
0000
0000
0000
1000
0000
0000
0100
0000
0000
0010
0000
0000
,
0000
1100
0000
0000
0000
0000
1001
0000
0000
0000
0000
0100
0000
1000
0000
0100
0000
0000
0000
0000
0101
0000
0000
0000
,
0000
0110
0000
0000
0000
0000
0000
1000
0000
0001
0000
1000
0000
0000
0000
0000
0110
0000
0000
0000
0000
0000
0000
0000
,
0000
0000
0000
0000
0000
0000
0000
0000
0000
0000
0000
1000
0001
0000
0000
0000
1000
0001
0000
0000
0000
0010
0000
0000
,
0100
0000
0010
0000
0000
0000
0000
0110
0000
0000
0000
0000
0110
0000
0000
0000
0000
1000
0000
0000
0100
0000
1000
0000
,
0000
0000
0000
1100
0000
0000
0000
0000
1100
0000
0000
0000
0000
0010
0000
0000
0100
0000
0010
0000
0000
0000
0011
0000
,
0000
0000
0000
0011
0000
0000
0000
0000
0001
0000
0000
0100
0000
0001
0000
0000
0100
0000
0001
0000
0000
0000
0000
0101
,
0000
0000
0000
0000
0001
0000
0000
0100
0000
0001
0000
0000
0000
0000
0101
0000
0000
0000
0000
0110
0000
0000
0000
0000
,
1000
0000
0001
0000
0000
1000
0000
0000
0000
1010
0000
0000
0000
0000
1100
0000
0000
0000
0000
0000
0010
0000
0100
0000
,
0010
0000
0000
0000
0000
1001
0000
0000
0000
0000
0110
0000
0000
0000
0000
1000
0000
0000
0100
0000
1000
0000
0000
0000
,
1001
0000
0000
0000
0000
1100
0000
0000
0000
0000
0010
0000
0000
0100
0000
0010
0000
0000
0000
0000
0011
0000
0000
0000
,
0000
0000
1100
0000
0000
0000
0010
0000
0000
1000
0000
0010
0000
0000
0000
0000
0010
0000
0000
0100
0000
0010
0000
0000
,
0000
0000
1000
0000
0001
0000
0000
1000
0000
0000
0000
0000
1000
0000
0100
0000
0001
0000
0000
0000
0000
0100
0000
0000
,
0010
0000
0100
0000
0000
0000
0000
1000
0000
0000
0010
0000
0010
0000
0000
0000
0000
0010
0000
0000
0100
0000
0100
0000
,
0000
0000
0000
1000
0000
0001
0000
0000
0001
0000
0000
0000
0001
0000
0000
0100
0000
0000
0100
0000
0000
0000
0000
1000
,
0000
0100
0000
0000
0100
0000
0000
0000
1000
0000
0010
0000
0000
0010
0000
0000
0000
0000
0001
0000
0010
0000
0000
0010
,
0000
0000
0000
0000
1000
0000
0100
0000
0000
0100
0000
0000
0000
0000
1000
0000
0100
0000
0000
1000
0000
0100
0000
1000
,
0000
0000
0000
0000
0000
0000
0000
0000
0000
0000
0100
0000
0001
0000
0000
0100
0000
0001
0000
0100
0000
0000
0000
0000
,
0000
0000
0000
0000
0000
0001
0000
0010
0000
0000
0001
0000
0010
0000
0001
0000
0000
0000
0000
0000
0000
0000
0000
0000
,
0000
1000
0000
0010
0000
1000
0000
0010
0000
0000
1000
0000
0000
0000
0000
0000
0000
0000
0000
0000
1000
0000
0010
0000
,
0001
0000
0000
0010
0000
1000
0000
0000
0000
0000
0000
0000
0000
0000
0000
1000
0000
0000
0100
0000
0001
0000
0000
0100
,
0000
0010
0000
0000
0000
0000
0000
0000
0000
0000
0000
1000
0000
0000
0001
0000
0000
0100
0000
0010
0000
0010
0000
0000
,
0000
0000
0000
0000
0000
0000
0000
1000
0000
0001
0000
0000
1000
0000
0100
0000
0000
0100
0000
0000
0000
0000
0000
0000
,
0000
0110
0000
0000
0000
0000
0000
0000
0000
0000
0000
0000
,
0000
0000
0000
0000
0000
0000
0000
0000
0000
0000
0000
0000
0000
0000
0000
0000
0000
0010
0000
0000
1000
0000
0000
0100
,
0000
0010
0000
0000
0001
0000
0001
0000
0010
0000
0000
0100
0000
0000
1000
0000
0100
0000
0000
0010
0000
0100
0000
1000
,
0000
1000
0000
0000
0000
0000
0000
0000
0000
0000
0000
0000
,
0000
0000
0000
0000
0000
1001
0000
0000
0000
0000
0000
0000
0000
0000
0000
0000
0000
0000
0000
0000
0000
0000
0000
0000
,
0000
0000
0000
0000
0000
0000
0000
0000
0000
0000
0001
0001
,
0000
0010
0000
0100
0000
0000
1000
0000
1000
0000
1000
0000
0000
0100
0000
0000
0010
0000
0010
0000
0001
0000
0000
0010
,
0000
0100
0000
0100
0000
0000
0000
0000
0000
0000
0000
1000
0000
0000
0000
1000
0000
0000
0000
0000
1001
0000
0000
0000
,
0000
0101
0000
0000
0000
0000
0010
0000
0000
1000
0000
0010
0000
0000
0000
0000
0100
0000
0000
0010
0000
0100
0000
0000
,
0000
0000
1000
0000
0000
0001
0000
1000
0000
0000
0000
0000
0010
0000
0000
1000
0000
0010
0000
0000
0000
0000
0010
0000
,
1000
0000
0000
0100
0000
0000
0000
1000
0000
0000
0100
0000
0001
0000
0000
0000
0000
0010
0000
1000
0000
0000
0100
0000
,
0001
0000
0000
0100
0000
0000
1000
0000
0100
0000
0000
0000
0000
0010
0000
1000
0000
0000
0010
0000
0000
0000
0000
0010
,
0000
0001
0000
0010
0000
0000
0000
0000
0000
0001
0000
0100
0000
0000
0001
0000
0000
0000
0100
0000
0000
1000
0000
0100
,
0000
0000
0000
0000
1000
0000
0100
0000
0000
0001
0000
0000
0000
0000
0001
0000
0100
0000
0000
1000
0000
0000
0000
1000
,
0000
0000
0100
0000
0001
0000
0001
0000
0000
0100
0000
0000
1000
0000
0100
0000
0000
0000
0000
1001
0000
0000
0000
0000
,
0000
0101
0000
0000
0000
0000
0010
0000
1000
0000
0000
0010
0000
0000
0000
0110
0000
0000
0000
0000
1010
0000
0000
0000
,
0000
0100
0000
0000
0010
0000
0100
0000
0000
0000
0000
1001
0000
0000
0000
0000
1100
0000
0000
0000
0000
0010
0000
1000
,
0000
0000
0010
0000
0000
0000
0110
0000
0000
0000
0000
1001
0000
0000
0000
0000
0010
0000
0000
1000
0000
1000
0000
0000
,
0000
0000
0110
0000
0000
0000
0000
0011
0000
0000
0000
0000
0010
0000
0100
0000
0000
0100
0000
0000
0000
0000
1010
0000
,
0000
0000
1100
0000
0000
0000
0000
0010
0000
0000
0100
0000
0100
0000
0000
0000
0000
0011
0000
0000
0000
0000
0101
0000
,
0000
0000
0000
1000
0000
0100
0000
0000
0100
0000
0000
0000
0000
1001
0000
0000
0000
0000
0110
0000
0000
0000
0000
1000
,
0000
0100
0000
0000
0100
0000
0000
0000
0011
0000
0000
0000
0000
0000
1100
0000
0000
0000
0000
0010
0000
1000
0000
0100
,
0000
0000
0000
0000
1001
0000
0000
0000
0000
0101
0000
0000
0000
0000
0010
0000
1000
0000
0000
0100
0000
0000
0000
0000
,
1000
0000
0001
0000
0000
1000
0000
0000
0000
1000
0000
0000
0100
0000
0000
1000
0000
0000
0000
0000
0100
0000
0001
0000
,
0100
0000
0000
0000
0000
0100
0000
0000
0010
0000
0100
0000
0000
0000
0000
1000
0000
0000
0010
0000
1000
0000
0000
0000
,
0000
1000
0000
0000
0100
0000
0001
0000
0000
0000
0000
0010
0000
0001
0000
0000
0010
0000
0000
0000
0000
0000
1000
0000
,
0010
0000
1000
0000
0000
0000
1000
0000
0000
0100
0000
1000
0000
0000
0000
0000
0100
0000
0000
0001
0000
0100
0000
0000
,
0000
0000
0010
0000
0100
0000
0000
0010
0000
0000
0000
0000
1000
0000
0001
0000
0000
1000
0000
0000
0000
0000
1000
0000
,
0000
1000
0000
1000
0000
1000
0000
1000
0000
0000
0000
0000
0000
0000
0000
0000
0000
0000
0010
0000
0010
0000
0010
0000
,
0010
0000
0000
0010
0000
0000
0000
0000
0000
0000
0000
0000
0000
0001
0000
0001
0000
0001
0000
0000
0001
0000
0001
0000
,
0000
0000
0000
0000
0000
0000
0000
0000
0100
0000
0000
0100
0000
0100
0000
0000
0100
0000
0000
0100
0000
0000
0000
0000
,
0000
0000
0000
0000
1001
0000
1001
0000
0001
1000
0000
1001
0000
0000
1001
0000
0000
0000
0000
0000
0000
0000
0000
0000
,
0110
0000
0110
0000
0110
0000
0000
0110
0000
0000
0110
0000
0000
0000
0000
0000
0000
0000
0000
0000
1010
0000
0101
0000
,
1010
0000
0000
0101
0000
1010
0000
0000
0000
0000
0000
0000
0000
0000
0000
0011
0000
1100
0000
0000
0011
0000
1100
0000
,
0000
0011
0000
0000
0000
0000
0000
0000
0000
0000
0000
0110
0000
0000
0000
0000
0000
0000
0000
0000
0000
0000
0000
0000
,
0000
0000
0000
0000
0000
0000
0000
1001
0000
0000
0000
0000
0000
0000
0000
0000
1000
0001
0000
0000
0000
0101
0000
0000
,
0000
0000
0010
0000
1000
0000
0000
0010
0000
0000
0000
0010
0000
0000
0100
0000
0010
0000
0000
0000
0000
0000
0100
0000
,
0001
0000
0100
0000
0000
0000
0000
1000
0000
0000
0100
0000
1000
0000
0000
0000
0000
1000
0000
0100
0000
0000
1000
0000
,
0000
0000
0000
0010
0000
1000
0000
0000
0010
0000
0000
0000
0000
1000
0000
0010
0000
1000
0000
0000
0100
0000
0000
0010
,
0000
1000
0000
0000
0100
0000
0000
0000
0010
0000
0000
0001
0000
0010
0000
0000
0000
0000
0010
0000
0100
0000
0000
0010
,
0000
0000
0000
0000
1000
0000
0001
0000
0000
1000
0000
0000
0000
0000
0100
0000
0001
0000
0000
0100
0000
0000
0000
0000
,
0001
0000
0100
0000
1000
0000
0000
0000
0000
1000
0000
0000
0100
0000
0001
0000
0000
0000
0000
1000
0000
0000
0100
0000
,
0001
0000
0001
0000
0000
0100
0000
1000
0000
0000
0100
0000
0000
0000
0000
1001
0000
0000
0000
0000
1100
0000
0000
0000
,
0000
0010
0000
1000
0000
0000
0010
0000
0000
0000
0000
0110
0000
0000
0000
1010
0000
0000
0000
0000
1000
0000
0000
0100
,
0000
1000
0000
0000
0000
0000
0101
0000
0000
0000
0000
1100
0000
0000
0000
0000
0010
0000
0100
0000
0010
0000
0000
0000
,
0000
0000
0011
0000
0000
0000
1100
0000
0000
0000
0000
0010
0000
0000
1000
0000
0010
0000
0000
0000
0000
0110
0000
0000
,
0000
0000
1001
0000
0000
0000
0000
0010
0000
0000
0100
0000
1000
0000
0000
0000
0000
1010
0000
0000
0000
0000
0101
0000
,
0000
0000
0000
0010
0000
0100
0000
0000
0010
0000
0000
0000
1010
0000
0000
0000
0000
1100
0000
0000
0000
0000
0010
0000
,
0000
0100
0000
0100
0000
0000
0000
0000
1001
0000
0000
0000
0000
0000
0000
0000
0000
0000
0000
0000
0000
0000
0000
0000
;

//---------------dance-single - ----------------
#NOTES:
     dance-single:
     :
     Easy:
     6:
     0.319,0.328,0.128,0.012,0.905,522.000,32.000,3.000,0.000,0.000:
0000
0000
0000
0000
,
0000
0000
0000
0000
,
0000
0000
0000
0000
,
0000
0000
0000
0000
,
0000
0000
0000
0000
0000
0000
0000
0000
0000
0000
0000
1000
0000
0000
0000
0000
0000
0000
0000
0000
0000
0000
0000
0000
0000
0000
0100
0000
0000
0000
0000
0000
0000
0000
0000
0000
0000
0000
0010
0000
0000
0000
0000
0000
0000
0000
0000
0000
0000
0000
0000
0000
1000
0000
0000
0000
0000
0000
0000
0000
0000
0000
0000
0000
,
0000
0100
0000
0000
0000
0000
0000
0000
0000
0000
0000
0000
0000
0000
0000
0010
0000
0000
0000
0000
0000
0000
0000
0000
0000
0000
0000
0001
0000
0000
0000
0000
0000
0000
0000
0000
0000
0000
0000
0000
1001
0000
0000
0000
0000
0000
0000
0000
0000
0000
0000
0000
0000
0000
0000
0000
0000
0000
0000
0000
0000
0000
0000
0000
,
0000
0000
0000
0010
0000
0000
0000
0000
0000
0000
0000
0000
0000
0000
0000
0000
0000
0000
0000
0000
0000
0000
0000
0000
0000
0000
0000
0000
1000
0000
0000
0000
0000
0000
0000
0000
0000
0000
0000
0000
0000
0000
0000
0000
0000
0000
0000
0000
0000
0000
0000
0000
0000
0000
0000
0000
0010
0000
0000
0000
0000
0000
0000
0000
,
0000
0000
0000
0000
0000
0000
0000
0000
0000
0000
0000
0000
0000
0000
0000
0000
0000
0000
0001
0000
0000
0000
0000
0000
0000
0000
0000
0000
0000
0000
0010
0000
0000
0000
0000
0000
0000
0000
0000
0000
0000
0000
0000
0010
0000
0000
0000
0000
0000
0000
0000
0000
0000
0000
0000
0000
0100
0000
0000
0000
0000
0000
0000
0000
,
0000
0000
0000
0000
0000
0100
0000
0000
0000
0000
0000
0000
0000
0000
0000
0000
0000
0000
1000
0000
0000
0000
0000
0000
0000
0000
0000
0000
0000
0000
0000
1000
0000
0000
0000
0000
0000
0000
0000
0000
0000
0000
0000
0000
0000
0100
0000
0000
0000
0000
0000
0000
0000
0000
0000
0000
0000
1100
0000
0000
0000
0000
0000
0000
,
0000
0000
0000
0000
0000
0000
0000
0000
0000
0000
0000
0000
0000
0000
0000
0000
0000
0000
0000
0010
0000
0000
0000
0000
0000
0000
0000
0000
0000
0000
0000
0000
0000
0000
0000
0000
0000
0000
0000
0000
0000
0000
0000
0000
0000
1000
0000
0000
0000
0000
0000
0000
0000
0000
0000
0000
0000
0000
0000
0000
0100
0000
0000
0000
,
0000
0000
0000
0000
0000
0000
0000
0000
0010
0000
0000
0000
0000
0000
0000
0000
0000
0000
0000
0000
0000
0000
0001
0000
0000
0000
0000
0000
0000
0000
0000
0000
0000
0000
0000
0010
0000
0000
0000
0000
0000
0000
0000
0000
0000
0000
0000
0000
0100
0000
0000
0000
0000
0000
0000
0000
0000
0000
0000
0000
0000
0000
0000
0000
,
0000
0000
0000
0000
0000
0000
0000
0000
0000
1000
0000
0000
0000
0000
0000
0000
0000
0000
0000
0000
0000
0000
0000
0001
0000
0000
0000
0000
0000
0000
0000
0000
0000
0000
0000
0000
0000
0010
0000
0000
0000
0000
0000
0000
0000
0000
0000
0000
0000
0000
0100
0000
0000
0000
0000
0000
0000
0000
0000
0000
0000
0000
0000
1000
,
0000
0000
0000
0000
0000
0000
0000
0000
0000
0000
0000
0010
0000
0000
0000
0000
0000
0000
0000
0000
0000
0000
0000
0000
0000
0100
0000
0000
0000
0000
0000
0000
0000
0000
0000
0000
0000
0000
1000
0000
0000
0000
0000
0000
0000
0000
0000
0000
0000
0000
0000
0000
0001
0000
0000
0000
0000
0000
0000
0000
0000
0000
0000
0000
,
0000
0000
0001
0000
0000
0000
0000
0000
0000
0000
0000
0000
0000
0000
1000
0000
0000
0000
0000
0000
0000
0000
0000
0000
0000
0000
0000
0000
0000
0000
0000
0000
0000
0000
0000
0000
0000
0000
0000
0010
0000
0000
0000
0000
0000
0000
0000
0000
0000
0000
0000
0000
0000
0000
0000
0000
0000
0000
0000
0000
0000
0000
0000
0000
,
0000
0000
0100
0000
0000
0000
0000
0000
0000
0000
0000
0000
0000
0000
0000
0000
0000
0000
0000
0000
0000
0000
0000
0000
0000
0000
0000
0000
0000
0000
0000
0000
0000
0000
0000
0000
0000
0000
0000
0000
0000
1000
0000
0000
0000
0000
0000
0000
0000
0000
0000
0000
0000
0000
0010
0000
0000
0000
0000
0000
0000
0000
0000
0000
,
0000
0000
1000
0000
0000
0000
0000
0000
0000
0000
0000
0000
0000
0000
0000
0000
0000
0000
0000
0000
0000
0000
0000
0000
0000
0000
0000
0000
0000
0000
0000
0000
0000
0000
0000
0000
0000
0000
0000
0000
0000
0000
0000
0000
0000
0000
1000
0000
0000
0000
0000
0000
0000
0000
0000
0000
0000
0100
0000
0000
0000
0000
0000
0000
,
0000
0000
0010
0000
0000
0000
0000
0000
0000
0001
0000
0000
0000
0000
0000
0000
1001
0000
0000
0000
0000
0000
0000
0000
0000
0000
0000
0000
0000
0000
0000
0000
,
0000
0000
0000
0000
0000
0000
0000
0000
0000
0000
0000
0000
0000
0000
0000
0000
0000
0000
0000
0010
0000
0000
0000
0000
0000
0000
0000
0000
0000
0000
0000
0000
0000
1000
0000
0000
0000
0000
0000
0000
0000
0000
0000
0000
0000
0000
0010
0000
0000
0000
0000
0000
0000
0000
0000
0000
0000
0000
0000
0000
0100
0000
0000
0000
,
0000
0000
0000
0000
0000
0000
0000
0000
0000
0010
0000
0000
0000
0000
0000
0000
0000
0000
0000
0000
0000
0000
0100
0000
0000
0000
0000
0000
0000
0000
0000
0000
0000
0000
0000
0000
0001
0000
0000
0000
0000
0000
0000
0000
0000
0000
0000
0000
0000
0100
0000
0000
0000
0000
0000
0000
0000
0000
0000
0000
0000
0010
0000
0000
,
0000
0000
0000
0000
0000
0000
0000
0000
0000
0000
0000
0001
0000
0000
0000
0000
0000
0000
0000
0000
0000
0000
0000
0000
1000
0000
0000
0000
0000
0000
0000
0000
0000
0000
0000
0000
0000
0100
0000
0000
0000
0000
0000
0000
0000
0000
0000
0000
0000
0000
1000
0000
0000
0000
0000
0000
0000
0000
0000
0000
0000
0000
0010
0000
,
0000
0000
0000
0000
0000
0000
0000
0000
0000
0000
0000
0000
0100
0000
0000
0000
0000
0000
0000
0000
0000
0000
0000
0000
0000
1000
0000
0000
0000
0000
0000
0000
0000
0000
0000
0000
0000
0000
0001
0000
0000
0000
0000
0000
0000
0000
0000
0000
0000
0000
0000
1000
0000
0000
0000
0000
0000
0000
0000
0000
0000
0000
0000
0000
,
0000
0100
0000
0000
0000
0000
0000
0000
0000
0000
0000
0000
0000
0000
0010
0000
0000
0000
0000
0000
0000
0000
0000
0000
0000
0000
0000
0000
1000
0000
0000
0000
0000
0000
0000
0000
0000
0000
0000
0000
0010
0000
0000
0000
0000
0000
0000
0000
0000
0000
0000
0000
0000
0000
1000
0000
0000
0000
0000
0000
0000
0000
0000
0000
,
0000
0000
0000
0100
0000
0000
0000
0000
0000
0000
0000
0000
0000
0000
0000
0010
0000
0000
0000
0000
0000
0000
0000
0000
0000
0000
0000
0000
1000
0000
0000
0000
0000
0000
0000
0000
0000
0000
0000
0000
0000
0000
1000
0000
0000
0000
0000
0000
0000
0000
0000
0000
0000
0000
0000
0100
0000
0000
0000
0000
0000
0000
0000
0000
,
0000
0000
0000
0000
0000
0100
0000
0000
0000
0000
0000
0000
0000
0000
0000
0000
0010
0000
0000
0000
0000
0000
0000
0000
0000
0000
0000
0000
0000
0000
0010
0000
0000
0000
0000
0000
0000
0000
0000
0000
0000
0000
0000
1000
0000
0000
0000
0000
0000
0000
0000
0000
0000
0000
0000
0000
0101
0000
0000
0000
0000
0000
0000
0000
,
0000
0000
0000
0000
0000
0000
0000
0010
0000
0000
0000
0000
0000
0000
0000
0000
0000
0000
0000
0100
0000
0000
0000
0000
0000
0000
0000
0000
0000
0000
0000
0000
1000
0000
0000
0000
0000
0000
0000
0000
0000
0000
0000
0000
0000
1100
0000
0000
0000
0000
0000
0000
0000
0000
0000
0000
0000
0000
0000
0010
0000
0000
0000
0000
,
0000
0000
0000
0000
0000
0000
0000
0000
0100
0000
0000
0000
0000
0000
0000
0000
0000
0000
0000
0000
1000
0000
0000
0000
0000
0000
0000
0000
0000
0000
0000
0000
0000
0000
0100
0000
0000
0000
0000
0000
0000
0000
0000
0000
0000
0000
0010
0000
0000
0000
0000
0000
0000
0000
0000
0000
0000
0000
0000
0001
0000
0000
0000
0000
,
0000
0000
0000
0000
0000
0000
0000
0000
0000
0100
0000
0000
0000
0000
0000
0000
0000
0000
0000
0000
0000
0000
0000
0010
0000
0000
0000
0000
0000
0000
0000
0000
0000
0000
0000
1000
0000
0000
0000
0000
0000
0000
0000
0000
0000
0000
0000
0000
0100
0000
0000
0000
0000
0000
0000
0000
0000
0000
0000
0000
0000
0010
0000
0000
,
0000
0000
0000
0000
0000
0000
0000
0000
0000
0000
0001
0000
0000
0000
0000
0000
0000
0000
0000
0000
0000
0000
0000
0000
0010
0000
0000
0000
0000
0000
0000
0000
0000
0000
0000
0000
0000
0100
0000
0000
0000
0000
0000
0000
0000
0000
0000
0000
0000
0000
0100
0000
0000
0000
0000
0000
0000
0000
0000
0000
0000
0000
0000
0000
,
1000
0000
0000
0000
0000
0000
0000
0000
0000
0000
0000
0000
0000
0100
0000
0000
0000
0000
0000
0000
0000
0000
0000
0000
0000
0001
0000
0000
0000
0000
0000
0000
0000
0000
0000
0000
0000
0000
0000
0010
0000
0000
0000
0000
0000
0000
0000
0000
0000
0000
0000
0001
0000
0000
0000
0000
0000
0000
0000
0000
0000
0000
0000
0000
,
0000
0010
0000
0000
0000
0000
0000
0000
0000
0000
0000
0000
0000
0000
0010
0000
0000
0000
0000
0000
0000
0000
0000
0000
0000
0000
0000
0010
0000
0000
0000
0000
0000
0000
0000
0000
0000
0000
0000
0000
0000
1000
0000
0000
0000
0000
0000
0000
0000
0000
0000
0000
0000
0000
0100
0000
0000
0000
0000
0000
0000
0000
0000
0000
,
0000
0000
0100
0000
0000
0000
0000
0000
0000
0000
0000
0000
0000
0000
0000
0100
0000
0000
0000
0000
0000
0000
0000
0000
0000
0000
0000
0000
0010
0000
0000
0000
0000
0000
0000
0000
0000
0000
0000
0000
0000
0000
0100
0000
0000
0000
0000
0000
0000
0000
0000
0000
0000
0000
0000
1001
0000
0000
0000
0000
0000
0000
0000
0000
,
0000
0000
0000
0000
0000
0000
0000
0000
0000
0100
0000
0000
0000
0000
0000
0010
0000
0000
0000
0000
0000
1001
0000
0000
0000
0000
0000
0000
0000
0000
0000
0000
,
0000
0000
0000
0000
0000
0000
1000
0000
0000
0000
0000
0000
0000
0000
0000
0000
0000
0000
0000
0001
0000
0000
0000
0000
0000
0000
0000
0000
0000
0000
0000
0110
0000
0000
0000
0000
0000
0000
0000
0000
0000
0000
0000
0000
0000
0000
0000
0000
0000
0000
0000
0000
0000
0000
0000
0000
0000
0000
1000
0000
0000
0000
0000
0000
,
0000
0000
0000
0000
0000
0000
0000
0000
0001
0000
0000
0000
0000
0000
0000
0000
0000
0000
0000
0000
0000
0110
0000
0000
0000
0000
0000
0000
0000
0000
0000
0000
0000
0000
0000
0000
0000
0000
0000
0000
0000
0000
0000
0000
0000
0000
0000
0001
0000
0000
0000
0000
0000
0000
0000
0000
0000
0000
0000
1000
0000
0000
0000
0000
,
0000
0000
0000
0000
0000
0000
0000
0100
0000
0000
0000
0000
0000
0000
0000
0000
0000
0000
0000
0000
0000
0000
0000
0000
0000
0000
0000
0000
0000
0000
0000
0000
0000
0000
0000
1000
0000
0000
0000
0000
0000
0000
0000
0000
0000
0000
0000
0000
0000
0001
0000
0000
0000
0000
0000
0000
0000
0000
0000
0000
0000
0000
0000
0100
,
0000
0000
0000
0000
0000
0000
0000
0000
0000
0000
0000
0000
0000
0000
0000
0000
0000
0000
0000
0000
0000
0000
0000
0000
0000
0100
0000
0000
0000
0000
0000
0000
0000
0000
0000
0000
0000
0000
0100
0000
0000
0000
0000
0000
0000
0000
0000
0000
0000
0000
0101
0000
0000
0000
0000
0000
0000
0000
0000
0000
0000
0000
0000
0000
,
0000
0000
0000
0000
0000
0000
0000
0000
0000
0000
0000
0000
0000
0010
0000
0000
0000
0000
0000
0000
0000
0000
0000
0000
0000
0010
0000
0000
0000
0000
0000
0000
0000
0000
0000
0000
0000
0000
1010
0000
0000
0000
0000
0000
0000
0000
0000
0000
0000
0000
0000
0000
0000
0000
0000
0000
0000
0000
0000
0000
0000
0000
0000
0000
,
1000
0000
0000
0000
0000
0000
0000
0000
0000
0000
0000
0000
0000
0000
0000
0000
1000
0000
0000
0000
0000
0000
0000
0000
0000
0000
0000
0000
0000
1000
0000
0000
0000
0000
0000
0000
0000
0000
0000
0000
0000
0000
0000
0000
1000
0000
0000
0000
0000
0000
0000
0000
0000
0000
0000
0000
1000
0000
0000
0000
0000
0000
0000
0000
,
0000
0000
0000
0010
0000
0000
0000
0000
0000
0000
0000
0000
0000
0000
0000
0100
0000
0000
0000
0000
0000
0000
0000
0000
0000
0000
0000
0000
0010
0000
0000
0000
0000
0000
0000
0000
0000
0000
0000
0000
0000
0000
1000
0000
0000
0000
0000
0000
0000
0001
0000
0000
0000
0000
0000
0000
1000
0000
0000
0000
0000
0000
0000
0001
,
0000
0000
0000
0000
0000
1000
0000
0000
0000
0000
0000
0001
0000
0000
0000
0000
0000
0000
0000
0000
0000
0000
0000
0000
0000
0000
0000
0000
0000
0000
0000
0010
0000
0000
0000
0000
0000
0000
0000
0000
0000
0000
0000
0000
0000
0010
0000
0000
0000
0000
0000
0000
0000
0000
0000
0000
0000
0100
0000
0000
0000
0000
0000
0000
,
0000
0000
0000
0000
0000
0000
0000
0100
0000
0000
0000
0000
0000
0000
0000
0000
0000
0000
0000
1001
0000
0000
0000
0000
0000
0000
0000
0000
0000
0000
0000
0000
0000
0010
0000
0000
0000
0000
0000
0000
0000
0000
0000
0000
0000
0000
1000
0000
0000
0000
0000
0000
0000
0000
0000
0000
0000
0000
0000
0100
0000
0000
0000
0000
,
0000
0000
0000
0000
0000
0000
0000
0010
0000
0000
0000
0000
0000
0000
0000
0000
0000
0000
0000
0000
0001
0000
0000
0000
0000
0000
0000
0000
0000
0000
0000
0000
0000
0010
0000
0000
0000
0000
0000
0000
0000
0000
0000
0000
0000
0000
0000
1000
0000
0000
0000
0000
0000
0000
0000
0000
0000
0000
0000
0000
0000
1000
0000
0000
,
0000
0000
0000
0001
0000
0000
0000
0000
0000
0000
1000
0000
0000
0000
0000
0000
0001
0000
0000
0000
0000
0000
0000
1000
0000
0000
0000
0000
0000
0001
0000
0000
0000
0000
0000
0000
0000
0000
0000
0000
0000
0000
0000
0000
0000
0000
0000
0000
0010
0000
0000
0000
0000
0000
0000
0000
0000
0000
0000
0000
0000
0100
0000
0000
,
0000
0000
0000
0000
0000
0000
0000
0000
0000
0000
1000
0000
0000
0000
0000
0000
0000
0000
0000
0000
0000
0000
0000
0000
1000
0000
0000
0000
0000
0000
0000
0000
0000
0000
0000
0000
0000
0010
0000
0000
0000
0000
0000
0000
0000
0000
0000
0000
0000
0000
0100
0000
0000
0000
0000
0000
0000
0000
0000
0000
0000
0000
0000
1000
,
0000
0000
0000
0000
0000
0000
0000
0000
0000
0000
0000
0000
0100
0000
0000
0000
0000
0000
0000
0000
0000
0000
0000
0000
0000
0010
0000
0000
0000
0000
0000
0000
0000
0000
0000
0000
0000
0000
0000
0100
0000
0000
0000
0000
0000
0000
0000
0000
0000
0000
0000
0000
0000
1000
0000
0000
0000
0000
0000
0000
0000
0000
0000
0000
,
0001
0000
0000
0000
0000
0000
0000
0000
0000
0000
0000
0000
0000
0000
1000
0000
0000
0000
0000
0000
0000
0000
0000
0000
0000
0000
0000
0101
0000
0000
0000
0000
0000
0000
0000
0000
0000
0000
0000
0000
0000
0001
0000
0000
0000
0000
0000
0000
0000
0000
0000
0000
0000
0000
0000
1100
0000
0000
0000
0000
0000
0000
0000
0000
,
0000
0000
0000
0010
0000
0000
0000
0000
0000
0000
0000
0000
0000
0000
0000
0000
0100
0000
0000
0000
0000
0000
0000
0000
0000
0000
0000
0000
1000
0000
0000
0000
0000
0000
0000
0000
0000
0000
0000
0000
0000
0010
0000
0000
0000
0000
0000
0000
0000
0000
0000
0000
0000
0000
0000
1000
0000
0000
0000
0000
0000
0000
0000
0000
,
0000
0000
0000
0000
1000
0000
0000
0000
0000
0000
0000
0000
0000
0000
0000
0000
0000
0000
0001
0000
0000
0000
0000
0000
0000
0000
0000
0000
0000
0000
0001
0000
0000
0000
0000
0000
0000
0000
0000
0000
0000
0000
0000
0010
0000
0000
0000
0000
0000
0000
0000
0000
0000
0000
0000
0000
0000
0010
0000
0000
0000
0000
0000
0000
,
0000
0000
0000
0000
0000
0100
0000
0000
0000
0000
0000
0000
0000
0000
0000
0000
0000
0000
0100
0000
0000
0000
0000
0000
0000
0000
0000
0000
0000
0000
0000
0000
0000
1000
0000
0000
0000
0000
0000
0000
0000
0000
0000
0000
0000
0100
0000
0000
0000
0000
0000
0000
0000
0000
0000
0000
0000
0000
0000
1000
0000
0000
0000
0000
,
0000
0000
0000
0000
0000
0000
0000
0000
0100
0000
0000
0000
0000
0000
0000
0000
0000
0000
0000
0000
0000
0010
0000
0000
0000
0000
0000
0000
0000
0000
0000
0000
0000
0000
0100
0000
0000
0000
0000
0000
0000
0000
0000
0000
0000
0000
0010
0000
0000
0000
0000
0000
0000
0000
0000
0000
0000
0000
0000
0000
1000
0000
0000
0000
,
0000
0000
0000
0000
0001
0000
0000
0000
0000
0000
0000
0000
0000
0000
0000
0000
0000
0010
0000
0000
0000
0000
0000
0000
0000
0000
0000
0000
0000
0000
0000
0100
,
0000
0000
0000
0000
0000
0000
0000
0000
0000
0000
0000
0000
0000
0000
0000
0000
0000
0000
0000
0000
0000
0000
0000
0010
0000
0000
0000
0000
0000
0000
0000
0000
0000
0000
0000
0000
0000
0000
0000
0000
0000
0000
0000
0000
0000
0000
0000
0000
0000
0000
0000
1000
0000
0000
0000
0000
0000
0000
0000
0000
0000
0000
0000
0000
,
1000
0000
0000
0000
0000
0000
0000
0000
0000
0000
0000
0000
0000
0001
0000
0000
0000
0000
0000
0000
0000
0000
0000
0000
0000
0000
0001
0000
0000
0000
0000
0000
0000
0000
0000
0000
0000
0000
0000
0000
1000
0000
0000
0000
0000
0000
0000
0000
0000
0000
0000
0000
0000
0000
0000
0000
0000
0000
0000
0000
0000
0000
0000
0000
,
0000
0010
0000
0000
0000
0000
0000
0000
0000
0000
0000
0000
0000
0000
0000
0000
0000
0000
0000
0000
0000
0000
0000
0000
0000
0000
0000
1000
0000
0000
0000
0000
0000
0000
0000
0000
0000
0000
0000
0000
0000
0000
0000
0000
0000
0000
0000
0000
0000
0000
0000
0000
0000
0000
0000
0000
0000
0000
0000
0000
0000
0000
0000
0000
,
0000
0000
0000
0000
0000
0010
0000
0000
0000
0000
0000
0000
0000
0000
0000
0000
0000
0100
0000
0000
0000
0000
0000
0000
0000
0000
0000
0000
0000
1000
0000
0000
0000
0000
0000
0000
0000
0000
0000
0000
0000
0000
0000
0100
0000
0000
0000
0000
0000
0000
0000
0000
0000
0000
0000
0000
0000
0010
0000
0000
0000
0000
0000
0000
,
0000
0000
0000
0000
0000
0000
1000
0000
0000
0000
0000
0000
0000
0000
0000
0000
0000
0000
0000
0001
0000
0000
0000
0000
0000
0000
0000
0000
0000
0000
0000
0100
0000
0000
0000
0000
0000
0000
0000
0000
0000
0000
0000
0000
0010
0000
0000
0000
0000
0000
0000
0000
0000
0000
0000
0000
1001
0000
0000
0000
0000
0000
0000
0000
,
0000
0000
0000
0000
0000
0000
0000
0000
0000
0000
0000
0000
0000
0000
0000
0000
0000
0000
0000
0000
0000
0000
0000
0000
0000
0000
0000
0000
0000
0000
0000
0000
0000
0000
0000
0000
0000
0000
0000
0000
0000
0000
0000
0000
0000
0000
0010
0000
0000
0000
0000
0000
0000
0000
0000
0000
0000
0000
0000
1000
0000
0000
0000
0000
,
0000
0000
0000
0000
0000
0000
0000
0000
0100
0000
0000
0000
0000
0000
0000
0000
0000
0000
0000
0000
0010
0000
0000
0000
0000
0000
0000
0000
0000
0000
0000
0000
0000
0000
0000
0001
0000
0000
0000
0000
0000
0000
0000
0000
0000
0000
0000
0000
0010
0000
0000
0000
0000
0000
0000
0000
0000
0000
0000
0000
0000
0100
0000
0000
,
0000
0000
0000
0000
0000
0000
0000
0000
0000
0000
0010
0000
0000
0000
0000
0000
0000
0000
0000
0000
0000
0000
0000
1000
0000
0000
0000
0000
0000
0000
0000
0000
0000
0000
0000
0000
0100
0000
0000
0000
0000
0000
0000
0000
0000
0000
0000
0000
0000
0000
0010
0000
0000
0000
0000
0000
0000
0000
0000
0000
0000
0000
0000
0001
,
0000
0000
0000
0000
0000
0000
0000
0000
0000
0000
0000
0010
0000
0000
0000
0000
0000
0000
0000
0000
0000
0000
0000
0000
0100
0000
0000
0000
0000
0000
0000
0000
0000
0000
0000
0000
0000
0000
0010
0000
0000
0000
0000
0000
0000
0000
0000
0000
0000
0000
0000
0100
0000
0000
0000
0000
0000
0000
0000
0000
0000
0000
0000
0000
,
1000
0000
0000
0000
0000
0000
0000
0000
0000
0000
0000
0000
0000
0001
0000
0000
0000
0000
0000
0000
0000
0000
0000
0000
0000
0000
0000
1000
0000
0000
0000
0000
0000
0000
0000
0000
0000
0000
0000
0000
0001
0000
0000
0000
0000
0000
0000
0000
0000
0000
0000
0000
0000
1000
0000
0000
0000
0000
0000
0000
0000
0000
0000
0000
,
0000
0010
0000
0000
0000
0000
0000
0000
0000
0000
0000
0000
0000
0000
1000
0000
0000
0000
0000
0000
0000
0000
0000
0000
0000
0000
0000
0000
0100
0000
0000
0000
0000
0000
0000
0000
0000
0000
0000
0000
0000
0010
0000
0000
0000
0000
0000
0000
0000
0000
0000
0000
0000
0000
0000
1000
0000
0000
0000
0000
0000
0000
0000
0000
,
0000
0000
0000
0000
0001
0000
0000
0000
0000
0000
0000
0000
0000
0000
0000
0000
0000
0100
0000
0000
0000
0000
0000
0000
0000
0000
0000
0000
0000
0000
0010
0000
0000
0000
0000
0000
0000
0000
0000
0000
0000
0000
0000
1000
0000
0000
0000
0000
0000
0000
0000
0000
0000
0000
0000
0000
1000
0000
0000
0000
0000
0000
0000
0000
,
0000
0000
0000
0000
0000
1000
0000
0000
0000
0000
0000
0000
0000
0000
0000
0000
0000
1001
0000
0000
0000
0000
0000
0000
0000
0000
0000
0000
0000
0000
0000
0000
0010
0000
0000
0000
0000
0000
0000
0000
0000
0000
0000
0000
0000
1000
0000
0000
0000
0000
0000
0000
0000
0000
0000
0000
0000
0100
0000
0000
0000
0000
0000
0000
,
0000
0000
0000
0000
0000
0000
0101
0000
0000
0000
0000
0000
0000
0000
0000
0000
0000
0000
0000
0000
0000
0010
0000
0000
0000
0000
0000
0000
0000
0000
0000
0000
0000
1000
0000
0000
0000
0000
0000
0000
0000
0000
0000
0000
0000
1100
0000
0000
0000
0000
0000
0000
0000
0000
0000
0000
0000
0000
0000
0010
0000
0000
0000
0000
,
0000
0000
0000
0000
0000
0000
0000
0100
0000
0000
0000
0000
0000
0000
0000
0000
0000
0000
0000
0000
1000
0000
0000
0000
0000
0000
0000
0000
0000
0000
0000
0000
0000
0000
0100
0000
0000
0000
0000
0000
0000
0000
0000
0000
0000
0000
0010
0000
0000
0000
0000
0000
0000
0000
0000
0000
0000
0000
0000
0000
0001
0000
0000
0000
,
0000
0000
0000
0000
0000
0000
0000
0000
0000
0010
0000
0000
0000
0000
0000
0000
0000
0000
0000
0000
0000
0000
0000
0000
1000
0000
0000
0000
0000
0000
0000
0000
0000
0000
0000
0000
0010
0000
0000
0000
0000
0000
0000
0000
0000
0000
0000
0000
0000
0010
0000
0000
0000
0000
0000
0000
0000
0000
0000
0000
0000
0000
1000
0000
,
0000
0000
0000
0000
0000
0000
0000
0000
0000
0000
0000
0100
0000
0000
0000
0000
0000
0000
0000
0000
0000
0000
0000
0000
0000
0001
0000
0000
0000
0000
0000
0000
0000
0000
0000
0000
0000
0010
0000
0000
0000
0000
0000
0000
0000
0000
0000
0000
0000
0000
0010
0000
0000
0000
0000
0000
0000
0000
0000
0000
0000
0000
0000
0000
,
1000
0000
0000
0000
0000
0000
0000
0000
0000
0000
0000
0000
0000
0001
0000
0000
0000
0000
0000
0000
0000
0000
0000
0000
0000
0000
1000
0000
0000
0000
0000
0000
0000
0000
0000
0000
0000
0000
0000
0100
0000
0000
0000
0000
0000
0000
0000
0000
0000
0000
0000
0000
0010
0000
0000
0000
0000
0000
0000
0000
0000
0000
0000
0000
,
0000
0000
0001
0000
0000
0000
0000
0000
0000
0000
0000
0000
0000
0000
0010
0000
0000
0000
0000
0000
0000
0000
0000
0000
0000
0000
0000
0000
0100
0000
0000
0000
0000
0000
0000
0000
0000
0000
0000
0000
0000
0010
0000
0000
0000
0000
0000
0000
0000
0000
0000
0000
0000
0000
0000
1000
0000
0000
0000
0000
0000
0000
0000
0000
,
0000
0000
0000
0001
0000
0000
0000
0000
0000
0000
0000
0000
0000
0000
0000
0000
1000
0000
0000
0000
0000
0000
0000
0000
0000
0000
0000
0000
0000
0000
0000
0000
0000
0000
0000
0000
0000
0000
0000
0000
0000
0000
0000
0000
1000
0000
0000
0000
0000
0000
0000
0000
0000
0000
0000
0000
0001
0000
0000
0000
0000
0000
0000
0000
,
0000
0000
0000
0000
0000
1000
0000
0000
0000
0000
0000
0000
0000
0000
0000
0000
0000
0000
0000
0000
0000
0000
0000
0000
0000
0000
0000
0000
0000
0000
0000
0010
0000
0000
0000
0000
0000
0000
0000
0000
0000
0000
0000
0000
0000
0100
0000
0000
0000
0000
0000
0000
0000
0000
0000
0000
0000
0010
0000
0000
0000
0000
0000
0000
,
0000
0000
0000
0000
0000
0000
0000
0000
0000
0000
0000
0000
0000
0000
0000
0000
0000
0000
0000
0000
1000
0000
0000
0000
0000
0000
0000
0000
0000
0000
0000
0000
0000
0100
0000
0000
0000
0000
0000
0000
0000
0000
0000
0000
0000
0000
1000
0000
0000
0000
0000
0000
0000
0000
0000
0000
0000
0000
0000
0000
0000
0000
0000
0000
,
0000
0000
0000
0000
0000
0000
0000
0000
0001
0000
0000
0000
0000
0000
0000
0000
0000
0000
0000
0000
0000
0000
0010
0000
0000
0000
0000
0000
0000
0000
0000
0000
0000
0000
0000
0100
0000
0000
0000
0000
0000
0000
0000
0000
0000
0000
0000
0000
0000
0000
0000
0000
0000
0000
0000
0000
0000
0000
0000
0000
0000
0000
1000
0000
,
0000
0000
0000
0000
0000
0000
0000
0000
0000
0000
0000
0100
0000
0000
0000
0000
0000
0000
0000
0000
0000
0000
0000
0001
0000
0000
0000
0000
0000
0000
0000
0000
0000
0000
0000
0000
0000
0000
0000
0000
0000
0000
0000
0000
0000
0000
0000
0000
0000
0000
1000
0000
0000
0000
0000
0000
0000
0000
0000
0000
0000
0000
0010
0000
,
0000
0000
0000
0000
0000
0000
0000
0000
0000
0000
0000
0000
0110
0000
0000
0000
0000
0000
0000
0000
0000
0000
0000
0000
0000
0000
0000
0000
0000
0000
0000
0000
0000
0000
0000
0000
0000
0000
1000
0000
0000
0000
0000
0000
0000
0000
0000
0000
0000
0000
0000
0100
0000
0000
0000
0000
0000
0000
0000
0000
0000
0000
0000
0101
,
0000
0000
0000
0000
0000
0000
0000
0000
0000
0000
0000
0000
0000
0000
0000
0000
0000
0000
0000
0000
0000
0000
0000
0000
0000
0010
0000
0000
0000
0000
0000
0000
0000
0000
0000
0000
0000
0000
0000
0000
0000
0000
0000
0000
0000
0000
0000
0000
0000
0000
0000
0000
0000
0000
0000
0000
0000
0000
0000
0000
0000
0000
0000
0000
,
0000
0000
0000
0000
,
0000
0000
0000
0000
1000
0000
0000
0000
0000
0000
0000
0000
0000
0000
0000
0000
0000
0100
0000
0000
0000
0000
0000
0000
0000
0000
0000
0000
0000
0010
0000
0000
0000
0000
0000
0000
0000
0000
0000
0000
0000
0000
0000
0001
0000
0000
0000
0000
0000
0000
0000
0000
0000
0000
0000
0000
0000
0010
0000
0000
0000
0000
0000
0001
,
0000
0000
0000
0000
0000
0000
0010
0000
0000
0000
0000
0000
0001
0000
0000
0000
0000
0000
0000
0010
0000
0000
0000
0000
0000
0001
0000
0000
0000
0000
0000
0000
0000
0000
0000
0000
0000
0000
0000
0000
0000
0000
0000
0000
0010
0000
0000
0000
0000
0000
0000
0000
0000
0000
0000
0000
0000
0000
0000
0000
0000
0000
0000
0000
,
0000
0000
0000
0000
0000
0000
0000
0000
0100
0000
0000
0000
0000
0000
0000
0000
0000
0000
0000
0000
0000
0000
0000
0000
0000
0000
0000
0000
0000
0000
0000
0000
0000
0000
0000
0010
0000
0000
0000
0000
0000
0000
0000
0000
0000
0000
0000
0000
0000
0000
0000
0000
0000
0000
0000
0000
0000
0000
0000
0000
0000
0000
0000
0000
,
0000
0000
0000
0000
,
0000
0000
0000
0000
0000
0000
0000
0000
0000
0000
0000
0001
0000
0000
0000
0000
0000
0000
0000
0000
0000
0000
0000
0000
0010
0000
0000
0000
0000
0000
0000
0000
0000
0000
0000
0000
0000
0100
0000
0000
0000
0000
0000
0000
0000
0000
0000
0000
0000
1000
0000
0000
0000
0000
0000
0000
0000
0000
0000
0000
0000
0000
0000
0000
,
1000
0000
0000
0000
0000
0000
0100
0000
0000
0000
0000
0000
1000
0000
0000
0000
0000
0000
0000
0100
0000
0000
0000
0000
0000
1000
0000
0000
0000
0000
0000
0100
0000
0000
0000
0000
0000
0000
0000
0000
0000
0000
0000
0000
0000
0000
0000
0000
0000
0000
0010
0000
0000
0000
0000
0000
0000
0000
0000
0000
0000
0000
0000
0000
,
0000
0000
0000
0000
0000
0000
0000
0000
0000
0000
0000
0000
1000
0000
0000
0000
0000
0000
0000
0000
0000
0000
0000
0000
0000
0000
0000
0000
0100
0000
0000
0000
0000
0000
0000
0000
0000
0000
0000
0010
0000
0000
0000
0000
0000
0000
0000
0000
0000
0000
0000
0000
0000
0001
0000
0000
0000
0000
0000
0000
0000
0000
0000
0000
,
0000
0000
0000
0010
0000
0000
0000
0000
0000
0000
0000
0000
0000
0000
0000
1000
0000
0000
0000
0000
0000
0000
0000
0000
0000
0000
0000
0000
0000
0100
0000
0000
0000
0000
0000
0000
0000
0000
0000
0000
0000
0000
0010
0000
0000
0000
0000
0000
0000
0000
0000
0000
0000
0000
0000
0000
1000
0000
0000
0000
0000
0000
0000
0000
,
0000
0000
0000
0000
0001
0000
0000
0000
0000
0000
0000
0000
0000
0000
0000
0000
0000
1000
0000
0000
0000
0000
0000
0000
0000
0000
0000
0000
0000
0000
0101
0000
0000
0000
0000
0000
0000
0000
0000
0000
0000
0000
0000
0000
0010
0000
0000
0000
0000
0000
0000
0000
0000
0000
0000
0000
0000
0110
0000
0000
0000
0000
0000
0000
,
0000
0000
0000
0000
0000
0000
0000
1000
0000
0000
0000
0000
0000
0000
0000
0000
0000
0000
0000
0100
0000
0000
0000
0000
0000
0000
0000
0000
0000
0000
0000
0000
0010
0000
0000
0000
0000
0000
0000
0000
0000
0000
0000
0000
1000
0000
0000
0000
0000
0000
0000
0000
0000
0000
0000
0000
0000
0000
0010
0000
0000
0000
0000
0000
,
0000
0000
0000
0000
0000
0000
0000
0001
0000
0000
0000
0000
0000
0000
0000
0000
0000
0000
0000
0001
0000
0000
0000
0000
0000
0000
0000
0000
0000
0000
0000
0000
0001
0000
0000
0000
0000
0000
0000
0000
0000
0000
0000
0000
0000
0000
0010
0000
0000
0000
0000
0000
0000
0000
0000
0000
0000
0000
0000
0100
0000
0000
0000
0000
,
0000
0000
0000
0000
0000
0000
0000
0000
0000
0100
0000
0000
0000
0000
0000
0000
0000
0000
0000
0000
0000
0000
0100
0000
0000
0000
0000
0000
0000
0000
0000
0000
0000
0000
0000
1000
0000
0000
0000
0000
0000
0000
0000
0000
0000
0000
0000
0000
1010
0000
0000
0000
0000
0000
0000
0000
0000
0000
0000
0000
0000
0000
0010
0000
,
0000
0000
0000
0000
0000
0000
0000
0000
0000
0000
0000
0110
0000
0000
0000
0000
0000
0000
0000
0000
0000
0000
0000
0000
0000
1000
0000
0000
0000
0000
0000
0000
0000
0000
0000
0000
0100
0000
0000
0000
0000
0000
0000
0000
0000
0000
0000
0000
0000
0000
0010
0000
0000
0000
0000
0000
0000
0000
0000
0000
0000
0000
1001
0000
,
0000
0000
0000
0000
0000
0000
0000
0000
0000
0000
0000
0000
0000
0000
0000
0000
0000
0000
0000
0000
0000
0000
0000
0000
0000
0000
0010
0000
0000
0000
0000
0000
0000
0000
0000
0000
0000
0000
0000
1000
0000
0000
0000
0000
0000
0000
0000
0000
0000
0000
0000
0000
1000
0000
0000
0000
0000
0000
0000
0000
0000
0000
0000
0000
,
0100
0000
0000
0000
0000
0000
0000
0100
0000
0000
0000
0000
0000
0001
0000
0000
0000
0000
0000
0000
0001
0000
0000
0000
0000
0000
0010
0000
0000
0000
0000
0000
,
0000
0000
1000
0000
0000
0000
0000
0000
0000
0000
0000
0000
0000
0000
0000
0001
0000
0000
0000
0000
0000
0000
0000
0000
0000
0000
0000
0000
0001
0000
0000
0000
0000
0000
0000
0000
0000
0000
0000
0000
0000
1000
0000
0000
0000
0000
0000
0000
0000
0000
0000
0000
0000
0000
0000
0000
0000
0000
0000
0000
0000
0000
0000
0000
,
0000
0000
0000
0000
0010
0000
0000
0000
0000
0000
0000
0000
0000
0000
0000
0000
0000
1000
0000
0000
0000
0000
0000
0000
0000
0000
0000
0000
0000
0000
0000
0100
0000
0000
0000
0000
0000
0000
0000
0000
0000
0000
0000
0000
0000
0000
0000
0000
0000
0000
0000
0000
0000
0000
0000
0000
0000
0001
0000
0000
0000
0000
0000
0000
,
0000
0000
0000
0000
0000
0000
1000
0000
0000
0000
0000
0000
0000
0000
0000
0000
0000
0000
0000
0010
0000
0000
0000
0000
0000
0000
0000
0000
0000
0000
0000
1000
0000
0000
0000
0000
0000
0000
0000
0000
0000
0000
0000
0000
0000
0000
0000
0000
0000
0000
0000
0000
0000
0000
0000
0000
0000
0000
0000
0000
0000
0000
0000
0000
,
0000
0000
0000
0000
0000
0000
0000
0010
0000
0000
0000
0000
0000
0000
0000
0000
0000
0000
0000
0000
0100
0000
0000
0000
0000
0000
0000
0000
0000
0000
0000
0000
0000
0000
1000
0000
0000
0000
0000
0000
0010
0000
0000
0000
0000
0000
0000
1000
0000
0000
0000
0000
0000
0000
0000
0000
0000
0000
0000
0000
0000
1001
0000
0000
,
0000
0000
0000
0000
0000
0000
0000
0000
0000
0000
0000
0000
0000
0000
0000
0000
0000
0000
0000
0000
0000
0000
0000
0010
0000
0000
0000
0000
0000
0000
0000
0000
0000
0000
0000
0000
0010
0000
0000
0000
0000
0000
0000
0000
0000
0000
0000
0000
0000
0110
0000
0000
0000
0000
0000
0000
0000
0000
0000
0000
0000
0000
1000
0000
,
0000
0000
0000
0000
0000
0000
0000
0000
0000
0000
0000
0100
0000
0000
0000
0000
0000
0000
0000
0000
0000
0000
0000
0010
0000
0000
0000
0000
0000
0000
0000
0000
0000
0000
0000
0000
0000
0011
0000
0000
0000
0000
0000
0000
0000
0000
0000
0000
0000
0000
0000
0010
0000
0000
0000
0000
0000
0000
0000
0000
0000
0000
0000
0000
,
0100
0000
0000
0000
0000
0000
0000
0000
0000
0000
0000
0000
1100
0000
0000
0000
0000
0000
0000
0000
0000
0000
0000
0000
0000
0010
0000
0000
0000
0000
0000
0000
0000
0000
0000
0000
0000
0000
0000
0100
0000
0000
0000
0000
0000
0000
0000
0000
0000
0000
0000
1000
0000
0000
0000
0000
0000
0000
0000
0000
0000
0000
0000
0000
,
0100
0000
0000
0000
0000
0000
0000
0010
0000
0000
0000
0000
0000
0001
0000
0000
0000
0000
0000
0000
0010
0000
0000
0000
0000
0000
0010
0000
0000
0000
0000
0000
,
0000
0000
0100
0000
0000
0000
0000
0000
0000
0000
0000
0000
0000
0000
0000
0000
0100
0000
0000
0000
0000
0000
0000
0000
0000
0000
0000
0000
0000
1000
0000
0000
0000
0000
0000
0000
0000
0000
0000
0000
1000
0000
0000
0000
0000
0000
0000
0000
0000
0000
0000
0000
0000
0000
0010
0000
0000
0000
0000
0000
0000
0000
0000
0000
,
0000
0000
0000
0000
0100
0000
0000
0000
0000
0000
0000
0000
0000
0000
0000
0000
1000
0000
0000
0000
0000
0000
0000
0000
0000
0000
0000
0000
0000
0001
0000
0000
0000
0000
0000
0000
0000
0000
0000
0000
0000
0000
0000
0010
0000
0000
0000
0000
0000
0000
0000
0000
0000
0000
0000
1000
0000
0000
0000
0000
0000
0000
0000
0000
,
0000
0000
0000
0000
0010
0000
0000
0000
0000
0000
0000
0000
0000
0000
0000
0000
0000
0001
0000
0000
0000
0000
0000
0000
0000
0000
0000
0000
0000
0000
0000
0000
1000
0000
0000
0000
0000
0000
0000
0000
0000
0000
0000
0000
0000
0100
0000
0000
0000
0000
0000
0000
0000
0000
0000
0000
0000
0001
0000
0000
0000
0000
0000
0000
,
0000
0000
0000
0000
0000
0000
0000
0100
0000
0000
0000
0000
0000
0000
0000
0000
0000
0000
0000
0000
0000
0010
0000
0000
0000
0000
0000
0000
0000
0000
0000
0000
0000
0010
0000
0000
0000
0000
0000
0000
0000
0000
0000
0000
0000
0000
0110
0000
0000
0000
0000
0000
0000
0000
0000
0000
0000
0000
0000
0000
0000
0000
0000
0000
,
0000
0000
0000
0000
0000
0000
0000
0000
0000
0000
1000
0000
0000
0000
0000
0000
0000
0000
0000
0000
0000
1000
0000
0000
0000
0000
0000
0000
0000
0000
0000
0000
0000
0000
0000
1001
0000
0000
0000
0000
0000
0000
0000
0000
0000
0000
0000
0000
0000
0000
0000
0000
0000
0000
0000
0000
0000
0000
0000
0000
0000
0000
0000
1000
,
0000
0000
0000
0000
0000
0000
0000
0000
0000
0000
0000
0001
0000
0000
0000
0000
0000
0000
0000
0000
0000
0000
0000
0100
0000
0000
0000
0000
0000
0000
0000
0000
0000
0000
0000
0000
0000
0000
0000
0000
0000
0000
0000
0000
0000
0000
0000
0000
0000
0000
0000
0001
0000
0000
0000
0000
0000
0000
0000
0000
0000
0000
0000
0000
,
1000
0000
0000
0000
0000
0000
0000
0000
0000
0000
0000
0000
0100
0000
0000
0000
0000
0000
0000
0000
0000
0000
0000
0000
0000
0000
0000
0000
0000
0000
0000
0000
0000
0000
0000
0000
0000
0000
0000
1000
0000
0000
0000
0000
0000
0000
0000
0000
0000
0000
0000
0000
0100
0000
0000
0000
0000
0000
0000
0000
0000
0000
0000
0000
,
0010
0000
0000
0000
0000
0000
0000
0000
0000
0000
0000
0000
0000
0000
0000
0000
0000
0000
0000
0000
0000
0000
0000
0000
0000
0000
0000
0001
0000
0000
0000
0000
0000
0000
0000
0000
0000
0000
0000
0000
0010
0000
0000
0000
0000
0000
0000
0000
0000
0000
0000
0000
0000
0000
0100
0000
0000
0000
0000
0000
0000
0000
0000
0000
,
0000
0000
0000
0000
0000
0000
0000
0000
0000
0000
0000
0000
0000
0000
0000
0000
0000
1000
0000
0000
0000
0000
0000
0000
0000
0000
0000
0000
0000
0000
1000
0000
0000
0000
0000
0000
0000
0000
0000
0000
0000
0000
1000
0000
0000
0000
0000
0000
0000
0000
0000
0000
0000
0000
0000
0000
0000
0000
0000
0000
0000
0000
0000
0000
,
0000
0000
0000
0000
0000
0000
0001
0000
0000
0000
0000
0000
0000
0000
0000
0000
0000
0001
0000
0000
0000
0000
0000
0000
0000
0000
0000
0000
0000
0000
0000
0001
0000
0000
0000
0000
0000
0000
0000
0000
0000
0000
0000
0000
0000
0000
0000
0000
0000
0000
0000
0000
0000
0000
0000
0000
0000
0000
0010
0000
0000
0000
0000
0000
,
0100
0000
0000
0000
0000
0000
0000
0000
0000
0000
0000
0000
0000
0000
0000
0000
0000
0000
0000
0000
0000
0000
0000
0000
0000
0000
0000
0000
0000
0000
0000
0000
0000
0000
0000
0000
0000
0000
0000
0000
0000
0000
0000
0000
0000
0000
0000
0010
0000
0000
0000
0000
0000
0000
0000
0000
0000
0000
0000
0000
0000
0000
0000
0000
,
0000
0000
0000
0000
0000
0000
0000
0000
0000
0000
1000
0000
0000
0000
0000
0000
0000
0000
0000
0000
0000
0000
0001
0000
0000
0000
0000
0000
0000
0000
0000
0000
0000
0010
0000
0000
0000
0000
0000
0000
0000
0000
0000
0000
0000
0000
0100
0000
0000
0000
0000
0000
0000
0000
0000
0000
0000
0000
0000
0000
1000
0000
0000
0000
,
0000
0000
0000
0000
0000
0000
0000
0000
0100
0000
0000
0000
0000
0000
0000
0000
0000
0000
0000
0000
0000
0010
0000
0000
0000
0000
0000
0000
0000
0000
0000
0000
0000
0000
0000
0001
0000
0000
0000
0000
0000
0000
0000
0000
0000
0000
0000
0000
0000
0010
0000
0000
0000
0000
0000
0000
0000
0000
0000
0000
0000
0000
0100
0000
,
0000
0000
0000
0000
0000
0000
0000
0000
0000
0000
0000
1000
0000
0000
0000
0000
0000
0000
0000
0000
0000
0000
0000
1000
0000
0000
0000
0000
0000
0000
0000
0000
0000
0000
0000
0000
0001
0000
0000
0000
0000
0000
0000
0000
0000
0000
0000
0000
0000
0000
0001
0000
0000
0000
0000
0000
0000
0000
0000
0000
0000
0000
0000
0000
,
0001
0000
0000
0000
0000
0000
0100
0000
0000
0000
0000
0000
0001
0000
0000
0000
0000
0000
0000
0100
0000
0000
0000
0000
0000
0001
0000
0000
0000
0000
0000
0000
0100
0000
0000
0000
0000
0001
0000
0000
0000
0000
0000
0000
0000
0000
0000
0000
0000
0000
0000
0000
0010
0000
0000
0000
0000
0000
0000
0000
0000
0000
0000
0000
,
0000
0010
0000
0000
0000
0000
0000
0000
0000
0000
0000
0000
0000
0000
0100
0000
0000
0000
0000
0000
0000
0000
0000
0000
0000
0000
0000
0100
0000
0000
0000
0000
0000
0000
0000
0000
0000
0000
0000
0000
0000
1000
0000
0000
0000
0000
0000
0000
0000
0000
0000
0000
0000
0000
1000
0000
0000
0000
0000
0000
0000
0000
0000
0000
,
0000
0000
0000
0100
0000
0000
0000
0000
0000
0000
0000
0000
0000
0000
0000
0100
0000
0000
0000
0000
0000
0000
0000
0000
0000
0000
0000
0000
0000
1000
0000
0000
0000
0000
0000
0000
0000
0000
0000
0000
0000
0000
0100
0000
0000
0000
0000
0000
0000
0000
0000
0000
0000
0000
0000
0010
0000
0000
0000
0000
0000
0000
0000
0000
,
0000
0000
0000
0001
0000
0000
0000
0000
0000
0000
0000
0000
0000
0000
0000
0000
0000
0000
1000
0000
0000
0000
0000
0001
0000
0000
0000
0000
0000
0000
0000
1000
0000
0000
0000
0000
0000
0001
0000
0000
0000
0000
0000
1000
0000
0000
0000
0000
0000
0000
0000
0100
0000
0000
0000
0000
0000
1000
0000
0000
0000
0000
0000
0000
,
0000
0000
0000
0000
0000
0000
0010
0000
0000
0000
0000
0000
0000
0000
0000
0000
0000
0000
0000
0000
0000
0000
0000
0000
0000
0000
0000
0000
0000
0000
0000
0000
0000
1000
0000
0000
0000
0000
0000
0000
0000
0000
0000
0000
0000
0000
0000
0000
0000
0000
0000
0000
0000
0000
0000
0000
0000
0000
0000
0000
0010
0000
0000
0000
,
0000
0000
0000
0000
0000
0000
0000
0000
0000
0000
0000
0000
0000
0000
0000
0000
0000
0000
0000
0000
0000
0000
1000
0000
0000
0000
0000
0000
0000
0000
0000
0000
0000
0000
0000
0000
0000
0000
0000
0000
0000
0000
0000
0000
0000
0000
0000
0000
0010
0000
0000
0000
0000
0000
0000
0000
0000
0000
0000
0000
0000
1000
0000
0000
,
0000
0000
0000
0000
0000
0000
0000
0000
0000
0000
0001
0000
0000
0000
0000
0000
0000
0000
0000
0000
0000
0000
0000
0000
0001
0000
0000
0000
0000
0000
0000
0000
0000
0000
0000
0000
1000
0000
0000
0000
0000
0000
0000
0000
0000
0000
0000
0000
0000
0000
0000
0000
0000
0000
0000
0000
0000
0000
0000
0000
0000
0000
0000
0010
,
0000
0000
0000
0000
0000
0000
0000
0000
0000
0000
0000
0000
0000
0000
0000
0000
0000
0000
0000
0000
0000
0000
0000
0000
0100
0000
0000
0000
0000
0000
0000
0000
0000
0000
0000
0000
0000
0000
0000
0000
0000
0000
0000
0000
0000
0000
0000
0000
0000
0000
0000
1000
0000
0000
0000
0000
0000
0000
0000
0000
0000
0000
0000
0000
,
0000
0100
0000
0000
0000
0000
0000
0000
0000
0000
0000
0000
0000
0010
0000
0000
0000
0000
0000
0000
0000
0000
0000
0000
0000
0000
0001
0000
0000
0000
0000
0000
0000
0000
0000
0000
0000
0000
0000
0000
0000
0000
0000
0000
0000
0000
0000
0000
0000
0000
0000
0000
0000
0000
0000
0000
0000
0000
0000
0000
0000
0000
0000
0000
,
0000
1000
0000
0000
0000
0000
0000
0000
0100
0000
0000
0000
0000
0000
0010
0000
0000
0000
0000
0000
0001
0000
0000
0000
0000
0000
0000
1000
0000
0000
0000
0000
0000
0000
0100
0000
0000
0000
0000
0000
0000
0010
0000
0000
0000
0000
0000
0000
0000
0000
0000
0000
0000
0000
0000
2002
0000
0000
0000
0000
0000
0000
0000
0000
,
0000
0000
0000
0000
0000
0000
0000
0000
0000
0000
0000
0000
0000
0000
0000
0000
0000
0000
0000
0000
0000
0000
0000
0000
3003
0000
0000
0000
0000
0000
0000
0000
0000
0000
0000
0000
0000
0000
0000
0000
0000
0000
0020
0000
0000
0000
0000
0000
0000
0000
0000
0000
0000
0000
0000
0000
0000
0030
0000
0000
0000
0000
0000
0000
;

//---------------dance-single - ----------------
#NOTES:
     dance-single:
     :
     Challenge:
     12:
     0.657,0.730,0.000,0.000,1.000,1149.000,0.000,0.000,0.000,0.000:
0000
0000
0000
0000
,
0000
0000
0000
0000
,
0000
0000
0000
0000
,
0000
0000
0000
0000
,
0000
0000
0000
0000
0000
1000
0000
0000
0000
0100
0000
0000
0010
0000
0000
0000
1000
0000
0000
0001
0000
0000
0100
0000
0000
0000
0100
0000
0000
1000
0000
0000
,
0100
0000
0000
0010
0000
0000
0000
1000
0000
0000
0001
0000
0000
0100
0000
0000
0010
0000
0000
0000
1000
0000
0000
1000
0000
0000
0100
0000
0000
0010
0000
0000
,
0001
0000
0000
0000
0010
0000
0000
0000
0000
0000
0100
0000
0000
1000
0000
0000
0000
0001
0000
0000
0010
0000
0000
0000
1000
0000
0000
0000
0000
0000
1000
0000
,
0000
0000
0000
0000
0000
0100
0000
0000
0010
0000
0000
0000
1000
0000
0000
0010
0000
1000
0010
0000
0000
0000
1000
0000
0000
0100
0000
0000
0010
0000
0000
0010
,
0000
0000
0001
0000
0000
0010
0000
0000
0000
0100
0000
0000
1000
0000
0000
0001
0000
0000
0000
0100
0000
0000
0010
0000
0000
1000
0000
0000
1000
0000
0000
0000
,
0100
0000
0010
0000
0000
0000
0001
0000
0000
0000
0000
0000
0000
0010
0000
0000
0000
0000
0000
1000
0000
0000
0000
0000
0000
0000
0001
0000
0000
0000
1000
0010
,
0000
1000
0000
0010
0000
1000
0010
0000
0100
0000
0010
0100
0000
0010
0000
0100
0000
0000
0100
0000
1000
0000
0100
1000
0100
0000
0000
1000
0000
0000
0100
0000
,
0000
0010
0000
0000
0000
0001
0000
0000
0100
0000
0000
0010
0000
0000
1000
0000
0000
0000
0000
0000
0000
1000
0000
0000
0000
0100
0000
0000
0010
0000
0000
0001
,
0000
0000
0010
0000
0000
0000
0100
0000
0000
1000
0000
0000
1000
0000
0000
0010
0000
0000
0000
1000
0000
0000
0010
0000
0000
0100
0000
0000
0000
0001
0000
0000
,
0001
0000
0000
0010
0000
0000
0000
0000
0000
0000
0001
0000
0000
0010
0000
0000
0001
0000
0000
0010
0000
0000
0001
0000
0000
0000
0100
0000
0000
0001
0000
0000
,
0000
0100
0000
0000
1000
0000
0000
0100
0000
0000
0000
1000
0000
0000
0100
0000
0000
1000
0000
0000
0010
0000
0000
0000
1000
0000
0000
0000
0000
0000
0010
0000
,
0000
0000
0100
0000
0000
0010
0000
0000
0100
0000
0000
1000
0000
0000
0001
0000
0000
0000
1000
0000
0000
0010
0000
0000
0000
1000
0000
0000
0001
0000
0000
0000
,
0100
0000
0000
0010
0000
0000
1000
0000
0000
1000
0000
0000
0000
0000
0000
0000
0001
0000
0100
0000
0001
0100
0000
0001
0100
0000
0010
0000
0100
0010
0000
0100
,
0000
0010
0100
0010
0000
0100
0010
0100
0000
0010
1000
0000
0000
0010
0000
0000
1000
0000
0000
0000
0100
0000
0000
0010
0000
0000
0001
0000
0000
0000
0100
0000
,
0000
0100
0000
0000
0000
0000
0000
0000
1000
0000
0000
0001
0000
0000
1000
0000
0000
0010
0000
0000
1000
0000
0000
0000
0100
0000
0000
0010
0000
0000
0000
0001
,
0000
0000
0010
0000
0000
0100
0000
0000
0000
1000
0000
0000
0010
0000
0000
0100
0000
0000
1000
0000
0000
1000
0000
0000
0000
0000
0000
0000
0100
0000
0000
0000
,
0010
0000
0000
0001
0000
0000
0100
0000
0000
0000
0010
1000
0000
0010
0000
0000
1000
0000
0000
0100
0000
0000
0000
0010
0000
0000
0001
0000
0000
0010
0000
0000
,
0100
0000
0000
0000
1000
0000
0000
0100
0000
0000
0100
0000
0000
0000
0000
0000
0000
1000
0000
0000
0001
0000
0000
1000
0000
0000
0010
0000
0000
0000
1000
0000
,
0000
0100
0000
0000
0100
0000
0000
0000
0010
0000
0000
1000
0000
0000
0001
0000
0000
1000
0000
0000
0001
0000
0000
0000
1000
0000
0000
0010
0000
0000
1000
0000
,
0000
0001
0000
0100
0000
0001
0100
0000
0001
0100
0000
0010
0000
0100
0010
0100
0000
0010
0000
0100
0010
0100
0000
0010
1000
0000
0010
1000
0010
0000
0000
0000
,
0000
0000
0000
1000
0000
0000
0000
0000
0000
1000
0000
0000
0000
0100
0000
0000
0010
0000
0000
0001
0000
0000
0010
0000
0000
0000
0000
0000
0000
0100
0000
0000
,
0001
0000
0000
0010
0000
0000
0000
0100
0000
1000
0000
0000
0000
0010
0000
0000
0000
1000
0000
0000
0100
0000
0000
0010
0000
0000
1000
0000
0100
1000
0000
0000
,
0100
0000
0000
0000
0010
0000
0000
0000
0001
0000
0000
0010
0000
0000
0001
0000
0000
0000
0010
0000
0000
0100
0000
0001
0100
0000
0000
0010
0000
0000
0000
0100
,
0000
0000
1000
0000
0000
0001
0000
0000
0000
1000
0000
0000
0010
0000
0000
1000
0000
0000
0000
0100
0000
0000
0010
0000
0000
1000
0000
0000
0100
0000
0000
1000
,
0000
0100
0010
0000
0000
0000
0100
0000
0000
1000
0000
0000
0001
0000
0000
0000
0010
0000
0000
0100
0000
0000
1000
0000
0000
0010
0000
0000
1000
0000
0010
0000
,
1000
0000
0000
0100
0000
0000
0000
0010
0000
0000
0100
0000
0000
0001
0000
0000
0000
0100
0000
0000
0001
0000
0000
0001
0000
0100
0000
1000
0000
0000
0001
0000
,
0000
0100
0000
0000
0010
0000
0000
0100
0000
0000
0000
0000
0000
0000
1000
0000
0000
0100
0000
0000
0001
0000
0000
0100
0000
0000
0000
1000
0000
0000
0100
0000
,
0000
0001
0000
0000
0000
0100
0000
0000
1000
0000
0000
0000
0100
0000
0000
0001
0000
0000
0100
0000
0000
0000
1000
0000
0000
0100
0000
0000
0010
0000
0000
0100
,
0000
0000
0010
0000
0000
1000
0000
0000
0000
0010
0000
0000
0001
0000
0000
0010
0000
0000
0000
1000
0000
0000
0010
0000
0000
0000
0001
0000
0000
0010
0000
0000
,
1000
0000
0000
0010
0000
0000
0000
0001
0000
0000
0010
0000
0000
0100
0000
0010
0100
0000
0000
0000
1000
0000
0000
0100
0000
0000
0000
0010
0000
0000
1000
0000
,
0000
0000
0001
0000
0010
0000
0000
0000
0001
0000
0000
0001
0000
0000
0010
0000
0000
0000
0100
0000
0000
1000
0000
0000
0100
0000
0000
0010
0000
0000
0000
1000
,
0000
0000
0001
0000
0000
0000
0100
0000
0010
0000
0000
1000
0000
0010
0000
1000
0000
0010
0000
1000
0000
0000
0100
0000
0000
0010
0000
0000
0001
0000
0000
0010
,
0000
0000
0100
0000
0000
0000
0001
0100
0000
0001
0000
0000
0010
0000
0000
0000
0100
0000
0000
1000
0000
0000
0100
0000
0000
0010
0000
0000
0000
0100
0000
0000
,
0010
0000
0000
0000
0000
0000
0000
0000
0000
0000
0000
0000
0000
0000
0000
0000
0000
0000
0000
0000
0000
0000
0000
0000
0000
0000
0000
1000
0000
0000
1000
0000
,
0000
0100
0000
0000
0000
0100
0000
0000
0010
0000
0100
0000
1000
0000
0001
0000
0000
0010
0000
0000
0000
0100
0000
0000
1000
0000
0000
0100
0000
0000
0000
0010
,
0000
0000
0001
0000
0000
0100
0000
0000
0010
0000
0000
0000
1000
0000
0010
1000
0000
0000
0000
0100
0000
0000
0000
0000
0000
0000
0010
0000
0000
0000
0000
0001
,
0000
0010
0000
0001
0000
0000
0010
0000
0000
0000
0100
0000
0000
0000
0000
0000
0100
0000
0000
0000
0000
0000
0000
0100
0000
0000
0000
0000
0000
0100
0000
0000
,
0000
0000
0000
0000
1000
0000
0000
0001
0000
0000
1000
0000
0000
0010
0000
0000
0000
1000
0010
0000
0000
0000
1000
0000
0100
0000
0000
0010
0000
0000
0001
0000
,
0000
0000
0010
0000
0000
1000
0000
0000
0001
0000
0000
0100
0000
0000
0010
0000
0000
0000
0000
0000
0000
0000
0000
0000
0000
1000
0010
0000
0000
0100
0010
0000
,
0100
0000
0010
1000
0000
0010
0000
0100
0010
0000
0100
0010
0000
0100
0000
0000
0000
0000
0000
1000
0000
0000
0100
0000
0000
0010
0000
0000
0001
0000
0000
0000
,
0010
0000
0000
0100
0000
0000
1000
0000
0000
1000
0000
0000
0010
0000
0000
0000
0100
0000
0000
0010
0000
0000
0100
0000
0000
0000
1000
0000
0000
0100
0000
0000
,
0001
0000
0000
0100
0000
0000
0000
0001
0000
0000
0100
0000
0000
0000
0010
0000
0000
0000
0000
0100
0000
1000
0000
0000
0100
0000
0000
1000
0000
0000
0000
0000
,
0000
0000
1000
0000
0000
0010
0000
0000
0100
0000
0000
0010
0000
0000
0000
0001
0000
0000
1000
0100
0000
0001
0000
0000
0000
0100
0000
0000
1000
0000
0000
0100
,
0000
0000
0001
0000
0000
0100
0000
0000
1000
0000
0000
0000
0100
0000
0000
0001
0000
0000
0100
0000
0000
0000
1000
0000
0000
0100
0000
0000
1000
0000
0000
0000
,
0100
0000
0000
0001
0000
0000
0100
0000
0000
0001
0000
0000
0000
0100
0000
0000
0010
0000
0000
0100
0000
0000
0000
0100
0000
0000
0000
1000
0001
0000
1000
0000
,
0000
0010
0000
0000
1000
0000
0000
0000
1000
0000
0100
0010
0000
0000
1000
0000
0000
0001
0000
0000
0100
0000
0000
0010
0000
0000
1000
0000
0000
0000
0001
0000
,
0000
0000
0000
0000
0000
0001
0000
0000
0001
0000
0000
0010
0000
0000
0010
0000
0000
0100
0000
0000
0000
0100
0000
0000
1000
0000
0000
1000
0000
0000
0100
0000
,
0000
0000
0100
0000
0000
0010
0000
0000
0010
0000
0000
0001
0000
0000
0000
0001
0000
0000
1000
0000
0000
1000
0000
0000
0000
0100
0000
0000
0100
0000
0000
0010
,
0000
0000
0010
0000
0000
0000
0001
0000
0000
0001
0000
0000
0000
0010
0000
0000
0010
0000
0000
0100
0000
0000
0100
0000
0000
0000
1000
0000
0000
1000
0000
0000
,
0000
0001
0000
0000
1000
0000
0010
1000
0000
0000
0000
1000
0000
0000
0100
0000
0000
0010
0000
0000
0001
0000
0000
0000
0010
0000
0000
0100
0000
0000
1000
0000
,
0000
0100
0000
0000
0010
0000
0000
0000
1000
0000
0000
0001
0000
0000
0000
0100
0000
0000
0010
0000
0000
0000
1000
0000
0000
0001
0000
0001
0000
0000
0000
0010
,
0000
0000
0100
0000
0000
0000
1000
0000
0000
0100
0000
0000
0010
0000
0000
1000
0000
0000
0000
0001
0000
0000
0100
0000
0000
0000
0000
0000
0000
0010
0000
1000
,
0010
0000
1000
0000
0010
1000
0000
0010
0100
0000
0010
0000
0100
0010
0000
0100
0010
0000
0100
0010
0000
0100
0010
0100
0000
0000
1000
0000
0000
0000
0100
0000
,
0000
0010
0000
0000
0000
0001
0000
0000
0100
0000
0000
1000
0000
0000
1000
0000
0000
0000
0000
0000
0010
0000
0000
0000
1000
0000
0000
0010
0000
0000
0001
0000
,
0000
0010
0000
0000
0000
0100
0000
0000
1000
0000
0000
0000
0100
0000
0000
0010
0000
0000
1000
0000
0000
0001
0000
0000
0000
0100
0000
0000
0010
0000
0000
1000
,
0000
0000
1000
0000
0000
0000
0000
0000
1000
0000
0000
0000
0010
0000
0000
1000
0000
0000
0001
0000
0000
0000
1000
0000
0100
0001
0000
0000
0000
0100
0000
0000
,
1000
0000
0000
0100
0010
0000
0000
0000
0000
0000
1000
0000
0000
0001
0000
0000
0010
0000
0000
0000
0100
0000
0000
1000
0000
0000
0000
0100
0000
0000
0000
0000
,
0000
0010
0000
0000
0000
0000
0000
1000
0000
0000
0001
0000
0000
0001
0000
0000
0000
0000
0000
0000
1000
0000
0000
0010
0000
0000
0000
1000
0000
0000
0000
0100
,
0000
0000
0010
0000
0000
1000
0000
0000
0001
0000
0000
0100
0000
0000
0001
0000
0100
0000
0001
0100
0000
0001
0100
0000
0001
0100
0000
0001
0100
0000
0001
0000
,
0100
0001
0100
0000
0001
0100
0000
0001
0100
0000
0010
0000
0000
0000
0000
0000
0100
0000
0000
0000
0000
0000
1000
0000
0000
0100
0000
0000
0000
0010
0000
0000
,
0000
0000
0000
1000
0000
0000
0000
0000
0000
0000
0100
0000
0000
0000
0000
0000
0000
0010
0000
0000
0100
0000
0000
0100
0000
0000
0000
0000
0000
0000
1000
0000
,
0000
0001
0000
0000
1000
0000
0000
0000
0010
1000
0100
0000
0000
0010
0000
0000
0000
0001
0000
0000
0000
0000
0000
0000
0010
0000
0000
0001
0000
0000
0000
0010
,
0000
0001
0000
0010
0000
0100
0000
0000
1000
0000
0010
0000
0000
0000
0000
0000
0000
0000
1000
0000
0000
0010
0000
0000
1000
0000
0000
0000
0100
0000
0000
0010
,
0000
0000
0100
0000
0000
0100
0000
0000
0000
0000
0000
0000
1000
0000
0000
0000
0001
0000
0001
0000
0000
0000
0010
0000
0000
0100
0000
0000
1000
0000
0000
0000
,
1000
0000
0000
0000
0000
0000
0010
0000
0000
0000
1000
0000
0000
0010
0000
0000
0000
0001
0000
0000
0100
0000
0000
0010
0000
0000
1000
0000
0000
0000
0000
0000
,
0000
0001
0000
0000
0010
0000
0100
0000
1000
0000
0000
0100
0000
0000
0010
0000
0000
0100
0000
0000
1000
0000
0000
0000
0000
0000
0000
1000
0000
0000
0010
0000
,
0000
1000
0000
0000
0000
0010
0000
0000
0100
0000
0000
0000
0010
0000
0000
0100
0000
0000
0010
0000
0000
0100
0000
0000
0000
0001
0000
0000
0100
0000
0000
0001
,
0000
0000
0100
0000
0000
0000
0001
0000
0000
0010
0000
0000
0001
0000
0000
0010
0000
0000
0000
0001
0000
0000
1000
0000
0000
0000
0100
0000
0000
1000
0000
0000
,
0100
0000
0000
0010
0000
0000
0000
0100
0000
0000
0010
0000
0000
0100
0000
0000
0010
0000
0000
0000
1000
0000
0000
0001
0000
0000
0000
1000
0000
0000
0001
0000
,
0000
1000
0000
0000
0010
0000
1000
0000
0010
1000
0000
0010
1000
0000
0010
0000
0000
0000
0100
0000
0000
1000
0000
0000
0100
0000
0000
0010
0000
0000
0100
0000
,
0001
0000
0100
0001
0100
0000
0001
0000
0000
0010
0000
0000
0100
0000
0000
1000
0000
0000
0100
0000
0000
0010
0000
0000
1000
0000
0100
0010
0000
0000
0000
1000
,
0000
0000
0100
0000
0000
0000
0010
0000
0000
0000
0000
0000
0001
0000
0000
0010
0000
0000
0000
0100
0000
0000
0100
0000
0000
0000
0010
0000
0000
1000
0000
0000
,
0010
0000
0000
0100
0000
0000
0010
0000
0000
0100
0000
0000
0001
0000
0000
0000
0000
0000
0000
0000
0000
0000
0000
0000
0000
0000
0000
0000
0000
0000
0000
0000
,
0000
0000
0000
0000
,
0000
0001
0000
0000
0000
0010
0000
0000
0100
0000
0000
1000
0000
0000
0000
0010
1000
0000
0000
0000
1000
0000
0100
0000
0000
0010
0000
0000
0001
0000
0000
0010
,
0000
0000
0000
0100
0000
0000
1000
0000
0000
0100
0000
0000
0010
0000
0000
0000
0100
0000
0000
0001
0000
0000
0001
0000
0000
0000
0000
0000
0000
0001
0000
0000
,
0000
0000
0000
0000
0010
0000
0000
1000
0010
0000
1000
0000
0000
0000
0100
0000
0000
0010
0000
0000
0000
0000
0000
0000
0000
0000
0000
0000
0000
0000
0000
0000
,
0000
0000
0000
0000
,
0000
0000
1000
0000
0000
0100
0000
0000
0010
0000
0000
0000
0001
0000
0000
0010
0000
0000
0100
0000
1000
0000
0000
1000
0000
0100
0000
0000
0010
0000
0000
1000
,
0000
0000
0000
0001
0000
0000
0100
0000
0000
0010
0000
0000
0000
0100
0000
0000
0001
0000
0000
0100
0000
0000
0000
0000
0000
0000
1000
0000
0000
0000
0000
0000
,
0000
0000
0000
0000
0000
0000
0010
0000
0000
0000
0000
0000
0000
1000
0000
0000
0000
0000
0000
0000
1000
0000
0000
0100
0000
0000
0010
0000
0000
0000
0001
0000
,
0000
1000
0000
0000
0100
0000
0000
0010
0000
0000
0000
0000
0000
0000
0001
0000
0000
0000
0010
0000
0000
0100
0000
0000
1000
0000
0000
0010
0000
0000
0000
0100
,
0000
0000
1000
0000
0000
0000
0000
0000
1000
0000
0000
0100
0000
0000
0100
0000
0000
0000
0000
0000
0010
0000
0100
0000
0000
0001
0000
0000
0001
0000
0000
0000
,
0000
0000
0000
0010
0000
0000
0001
0000
0000
0010
0000
0000
0000
0100
0000
1000
0000
0000
0000
1000
0000
0000
0010
0000
0000
0000
0000
0000
0000
1000
0000
0000
,
0001
0000
0000
0010
0000
0000
0000
1000
0000
0000
0100
0000
0000
0010
0000
0000
0001
0000
0000
0000
0000
0000
0000
1000
0000
0000
0001
0000
0000
0000
1000
0000
,
0000
0010
0000
0000
1000
0000
0000
0000
0100
0000
0000
0100
0000
0000
0000
0000
0000
1000
0000
0000
0000
0100
0000
0000
1000
0000
0000
0000
0000
0010
0000
0100
,
0000
0000
0010
0000
0000
0100
0000
0000
0000
0000
1000
0000
0001
0000
0000
1000
0000
0000
0010
0000
0000
1000
0000
0000
0000
0100
0000
0000
0010
0000
0000
0001
,
0000
0000
0000
0000
0000
0000
1000
0000
0000
0000
0010
0000
0000
1000
0000
0010
0000
0000
0000
0100
0000
0000
0010
0000
0000
0000
0100
0000
0000
0001
0000
0000
,
1000
0000
0100
0010
0000
0000
0000
0001
0000
0000
0010
0000
0000
0100
0000
0000
0000
1000
0000
0000
0010
0000
0000
1000
0000
0000
0000
0001
0000
0000
1000
0000
,
0000
0001
0000
0000
1000
0000
0000
0000
0010
0000
0000
1000
0000
0000
0001
0000
0000
0000
1000
0000
0001
0000
0000
0000
1000
0000
0000
0100
0000
0000
1000
0000
,
0000
0000
0100
0000
0000
0000
0010
0001
0000
0010
0000
0000
0100
0000
0000
0000
1000
0000
0000
0100
0000
0000
0010
0000
0000
0001
0000
0000
0100
0000
0000
0000
,
0010
0000
0001
0000
0000
0000
0010
0000
0000
0000
0001
0000
0000
0010
0000
0000
0001
0000
0000
0100
0000
0000
0001
0000
0000
0000
0100
0000
0000
0001
0000
0000
,
0100
0000
0000
0000
0001
0000
0000
1000
0000
0000
0001
0000
0000
0000
1000
0000
0000
0001
0000
0000
1000
0000
0000
0010
0000
0000
0100
0000
0000
0000
0010
0000
,
0000
0100
0000
0000
1000
0000
0000
0000
0100
0000
0000
0010
0000
0000
1000
0000
0010
0000
1000
0000
0000
0100
0000
0000
0010
0000
0000
0000
0000
0000
0000
0001
,
0000
0000
0010
0000
0000
1000
0000
0000
0000
0100
0000
0000
0010
0000
0000
0000
0100
0000
0000
1000
0000
0000
0000
0000
0000
0100
0000
0000
0010
0000
0000
0000
,
1000
0000
0000
0001
0000
0000
0100
0000
0000
0000
0000
0000
0000
1000
0000
0000
0100
0000
0000
1000
0000
0000
0010
0000
0100
0010
0000
0000
0000
0100
0000
0000
,
1000
0000
0000
0000
0000
0000
0000
1000
0000
0000
0001
0000
0000
0000
0100
0000
0000
0010
0100
0000
0010
0000
0000
0001
0000
0000
0010
0000
0000
0000
0000
0000
,
0000
1000
0000
0000
0100
0000
0000
0000
1000
0000
0000
0100
0000
0000
0100
0000
0000
0010
0000
0000
0010
0000
0000
0000
0000
0000
0000
0001
0000
0000
0010
0000
,
0000
0010
0000
0000
0000
0100
0000
0000
1000
0000
0000
0010
0000
0000
0000
0010
0000
0000
0000
0000
0000
0000
1000
0000
0000
0010
0000
1000
0000
0010
0000
0000
,
0100
0000
0000
0010
0000
0000
0000
1000
0000
0000
0100
0000
0000
0000
0000
0000
0010
0000
0000
0000
0001
0010
0000
0001
0000
0000
0000
0100
0000
0010
0000
0000
,
0000
1000
0000
0000
1000
0000
0000
0000
0000
0000
0000
1000
0000
0000
0100
0000
0000
0010
0000
0000
0001
0000
0000
1000
0000
0000
0000
0000
0000
0000
0000
0000
,
0000
0000
0000
0000
0000
0001
0000
0000
0010
0000
0000
0100
0000
0000
1000
0000
0000
0000
0100
0000
0000
0000
0000
0000
0000
0000
0000
0000
0000
0000
0000
1000
,
0000
0000
0100
0000
0000
0001
0000
0000
0100
0000
0000
0000
1000
0000
0000
0000
0000
0000
0000
0000
0000
0000
0000
0000
0000
0001
0000
0000
0010
0000
0000
1000
,
0000
0000
0000
0010
0000
0000
0001
0000
0000
0000
0000
0000
0000
0000
0000
0000
1000
0000
0000
0001
0000
0000
1000
0000
0000
0001
0000
0000
0010
0000
0000
0000
,
0100
0000
0000
0000
0000
0000
0000
0000
0000
0000
0100
0000
0000
0010
0000
0000
0000
0100
0000
0000
1000
0000
0000
0001
0000
0000
0000
0100
0000
0000
0000
0000
,
0000
0000
0000
0000
1000
0000
0000
0000
0010
0000
1000
0010
0000
0000
1000
0000
0000
0000
0100
0000
0000
0010
0000
0000
0000
0000
0000
0000
0000
0000
0000
0001
,
0000
0000
0010
0000
0001
0000
0010
0000
0000
0100
0000
0000
1000
0000
0000
0100
0000
0000
0010
0000
0000
1000
0000
0000
0000
0001
0000
0000
0000
0100
0000
0010
,
0000
0000
0000
0000
0000
0000
0000
0000
0000
0000
0000
0000
0000
0000
0000
0000
0000
0000
0000
0000
0000
0000
0000
1000
0000
0000
0000
0000
0000
0000
0000
0000
,
0000
0000
0000
0000
0010
0000
0000
0000
0000
0000
0001
0000
0000
0000
0000
0000
0000
1000
0000
0000
0001
0000
0000
1000
0000
0000
0000
0100
0000
0000
0010
0000
,
0000
1000
0000
0000
0000
0100
0000
0000
0100
0000
0000
1000
0000
0000
0001
0000
0000
0000
1000
0000
0000
0001
0000
0000
1000
0000
0000
0010
0000
0000
0010
0000
,
0000
0000
0010
0000
0000
0000
1000
0000
0000
0100
0000
0000
0000
0010
0000
0000
0000
0000
1000
0100
0000
0000
0010
0000
0000
0001
0000
0000
0000
0000
0000
0000
,
0001
0000
0000
0010
0000
0000
0000
0100
0000
0000
1000
0000
0000
0010
0000
0000
0000
1000
0100
0010
0000
0000
0000
1000
0000
0000
0100
0000
0000
0010
0000
0000
,
0000
1000
0000
0000
0001
0000
0000
0010
0000
0000
0010
0000
0001
0000
0100
0000
0000
1000
0000
0000
0010
0000
0000
0000
1000
0000
0010
0000
0000
0000
0010
0000
,
1000
0000
0100
0000
0000
0010
0000
0000
1000
0000
0000
0000
0000
0000
0001
0000
0000
0000
1000
0000
0010
0000
0000
0000
0000
0000
0000
0010
1000
0000
0000
0100
,
0000
0000
0010
0000
0000
0000
0000
0010
0000
0001
0000
0000
0100
0000
0000
1000
0000
0000
0010
0000
0000
0000
1000
0000
0000
0001
0000
0000
0100
0000
0000
0000
,
0000
0000
0000
1000
0000
0000
0001
0000
0000
1000
0000
0000
0000
0100
0000
0000
0010
0000
0000
1000
0000
0000
0000
0100
0000
0000
0100
0000
0000
0000
0000
0000
,
1000
0000
0000
0000
0001
0000
0010
0000
0000
0000
0100
0000
0000
1000
0000
0000
0100
0000
0000
0000
0010
0000
0000
0000
1000
0000
0000
0001
0000
0000
0100
0000
,
0000
0010
0000
0000
1000
0000
0000
0000
0100
0000
0000
0100
0000
0000
0010
0000
0000
0000
0000
0000
0000
1000
0000
0000
0000
0001
0000
0000
1000
0000
0000
0010
,
0000
0000
1000
0000
0000
0100
0000
0000
0000
0100
0000
0000
0010
0000
0000
0000
0001
0000
0000
0010
0000
0000
1000
0000
0000
0001
0000
0000
0000
1000
0000
0000
,
0001
0000
0000
0100
0000
0000
0000
0000
0000
0000
0001
0000
0000
0000
0100
0000
0000
0001
0000
0000
1000
0000
0000
0001
0000
0000
1000
0000
0000
0000
0001
0000
,
0000
0100
0000
0000
0010
0000
0000
1000
0000
0000
0001
0000
0000
0000
0100
0000
0000
0010
0000
0000
1000
0000
0000
0000
0000
0000
0000
0000
1000
0001
0000
1000
,
0001
0000
0100
0000
0001
0100
0000
0001
0100
0000
0001
0000
1000
0001
1000
0000
0001
1000
0000
0010
1000
0010
1000
0000
0000
0000
0000
0000
0000
0000
0000
0000
;
