#TITLE:The Heir of the Black Throne;
#SUBTITLE:The Storm Master (2007);
#ARTIST:Ekzistencia;
#TITLETRANSLIT:;
#SUBTITLETRANSLIT:;
#ARTISTTRANSLIT:;
#CREDIT:;
#BANNER:heiroftheblackthrone-banner.png;
#BACKGROUND:heiroftheblackthrone-bg.png;
#LYRICSPATH:;
#CDTITLE:CDTitle.gif;
#MUSIC:09_ekzistencia-the_heir_of_the_black_throne.mp3;
#OFFSET:-0.030;
#SAMPLESTART:61.728;
#SAMPLELENGTH:12.000;
#SELECTABLE:YES;
#BPMS:0.000=170.013,80.000=166.593,82.000=152.773,87.000=149.193,92.000=144.333,93.000=132.113,93.250=127.894,93.500=115.674,93.750=101.054,94.000=115.094,96.000=169.715,219.500=163.895,220.000=139.675,220.500=83.016,224.000=170.017,434.000=85.802,436.000=170.017,468.000=159.398,470.000=145.198,480.000=155.838,494.000=133.358,495.500=133.578;
#STOPS:;
#BGCHANGES:;
// cache tags:
#FIRSTBEAT:0.500;
#LASTBEAT:500.000;
#SONGFILENAME:Songs/Astronomic Metal Collection 2/(Charlo) The Heir of the Black Throne/The Heir of the Black Throne.sm;
#HASMUSIC:1;
#HASBANNER:1;
#MUSICLENGTH:190.537;
// end cache tags

//---------------dance-single - ----------------
#NOTES:
     dance-single:
     :
     Hard:
     12:
     1.000,1.000,0.897,0.388,1.000,1317.000,171.000,74.000,0.000,0.000:
0000
0100
0010
0100
2002
0000
3003
0000
,
1000
0000
0100
0000
0010
0000
0100
0000
0010
0000
0001
0000
1000
0010
0100
0000
,
0001
0010
0100
1000
0220
0000
0330
0000
,
1000
0000
0001
0000
0100
0000
0010
0000
1000
0000
0001
0000
1000
0100
0010
0000
,
1001
0010
0100
1000
0010
0100
0010
1000
0200
0000
0000
0300
0011
0000
1100
0000
,
1001
0010
0100
1000
0010
0100
0001
0010
0100
1000
0001
0100
0001
1000
0010
0100
,
0001
0010
0100
0010
0001
1000
0010
1000
0100
0010
0100
1000
0001
1000
0010
0100
,
0010
1000
0100
0010
0001
0100
0010
1000
0100
0010
0100
1000
0001
0100
0001
1000
,
0220
0000
0000
0330
0001
0000
1000
0010
0202
0000
0000
0303
1000
0000
0110
0000
,
1100
0010
0200
0000
0000
0300
0010
0001
0010
0100
1000
0001
0010
0001
1000
0100
,
1000
0100
0010
0000
0000
0000
0001
0010
2002
0000
0000
3003
0000
0000
0110
0000
,
0101
1000
0020
0000
0000
0000
0130
0000
1001
0010
0100
1000
0010
0100
0001
0010
,
1001
0100
0010
0000
0011
0100
1000
0000
,
1010
0100
0010
0001
0100
0000
0000
0000
,
0101
1000
0010
0000
0101
0010
0100
0000
,
0110
0000
1000
0100
1000
0000
0001
0010
0001
0000
0000
0000
0000
0000
0000
0000
,
1001
0000
0100
0000
1000
0000
0000
0000
0101
0010
0100
0010
0001
0100
0010
1000
,
0220
0000
0000
0000
0000
0000
0000
0000
0000
0000
0000
0000
0000
0000
0000
0330
,
1001
0000
0010
0000
0100
0000
0000
0000
1010
0100
1000
0100
0010
0001
1000
0010
,
1000
0000
0110
0000
1000
0010
0100
0001
,
0110
1000
0101
0000
0011
1000
1001
0000
,
0110
0000
0000
0000
0000
0000
0000
0000
0000
0000
0000
0000
0000
0000
0000
0000
0000
0000
0000
0000
0000
0000
0000
0000
1000
0000
0000
0000
0000
0000
0000
0000
0000
0000
0000
0000
0000
0000
0000
0000
0000
0000
0000
0000
0000
0000
0000
0000
0001
0000
0000
0000
1000
0000
0000
0000
0000
0000
0000
0000
0100
0000
0000
0000
0000
0000
0000
0000
0000
0000
0000
0000
1000
0000
0000
0000
0000
0000
0000
0000
0000
0001
0000
0000
0000
0000
0000
0000
0000
0000
0000
0000
0000
0000
0000
0000
0100
0000
0000
0000
0000
0000
0000
0000
0000
0000
0000
0000
0000
0000
0000
0000
0000
0000
0000
0000
0000
0000
0000
0000
0000
0000
0000
0000
0000
0000
0000
0000
0000
0000
0000
0000
0000
0000
0000
0000
0000
0000
0000
0000
0000
0000
0000
0000
0000
0000
0000
0000
0000
0000
0000
0000
0000
0000
0000
0000
0000
0000
0000
0000
0000
0000
0000
0000
0000
0000
0000
0000
0000
0000
0000
0000
0000
0000
0000
0000
0000
0000
0000
0000
0000
0000
0000
0000
0000
0000
0000
0000
0000
0000
0000
0000
,
1001
0100
0011
0000
1001
0010
1100
0000
,
0110
0000
0000
0000
0000
0000
0000
0000
1000
0000
0000
0000
0000
0000
0000
0000
0100
0000
0000
0000
0010
0000
0000
0000
0001
0000
0000
0000
1000
0000
0000
0000
0000
0100
0000
0000
0000
0000
0000
0000
0000
0000
0000
0000
0000
0000
0000
0000
0000
0000
0000
0000
0000
0000
0000
0000
0000
0000
0000
0000
0000
0000
0000
0000
,
0110
0001
1000
0010
1000
0100
0010
0100
1000
0001
0100
0010
1000
0010
0100
0001
,
0010
0001
1000
0010
1000
0100
0010
0001
0100
0010
0100
0001
0010
0100
0010
0001
,
1000
0010
1000
0001
0010
0001
1000
0100
1000
0001
0100
0001
0010
0100
1000
0010
,
2200
0000
0000
3300
2002
0000
0000
3003
0220
0000
0000
0000
0000
0000
0000
0330
,
1100
0010
0001
0100
0010
0100
0001
0010
0001
1000
0010
1000
0100
0010
0100
1000
,
0001
0010
0001
0100
0010
1000
0100
1000
0010
0100
0001
0010
0001
1000
0010
0100
,
0001
1000
0001
0100
0010
1000
0100
0010
0100
1000
0001
0010
0100
0010
0001
0100
,
0010
1000
0100
0010
0001
1000
0010
0100
0010
1000
0001
1000
0100
0010
0100
1000
,
0202
0000
0000
0000
0000
0303
1000
0001
0220
0000
0000
0000
0000
0000
0000
0330
,
1001
0010
0200
0000
0000
0300
0010
0001
1000
0010
0100
0010
1000
0100
0010
0100
,
1000
0001
0220
0000
0000
0330
0001
0010
2200
0000
0000
3300
0202
0303
0000
0000
,
0110
0001
2000
0000
0000
0000
3100
0010
0001
0010
0100
1000
0001
1000
0100
0010
,
1001
0100
0010
0100
1000
0001
0100
0010
1100
0001
0010
0100
1000
0001
0010
0001
,
0110
1000
0001
0100
0010
1000
0100
0010
1001
0100
0010
0100
1000
0001
1000
0010
,
1100
0010
0001
0010
0100
1000
0100
0010
1001
0010
0100
1000
0010
0100
0010
1000
,
0101
0010
0100
0010
0001
1000
0010
0100
0010
1000
0100
0010
0100
1000
0001
0100
,
1010
0001
0100
0010
1000
0100
0010
0001
0110
1000
0001
0010
0001
1000
0010
1000
,
0101
0010
0100
1000
0001
0100
0010
1000
0011
1000
0100
0010
0001
0100
0010
0100
,
1001
0010
0100
1000
0001
0100
0010
1000
0110
0001
0010
0100
1000
0010
0100
0010
,
1100
0001
0010
0100
1000
0001
1000
0100
0010
0001
1000
0001
0100
0010
1000
0100
,
0010
0001
0100
0000
0010
1000
0100
0000
,
0010
0001
0100
0010
1000
0000
0000
0000
,
0010
0100
0010
0000
1000
0100
1000
0000
,
0110
0001
1010
0100
1001
0000
0000
0000
,
0001
0000
0100
0000
0010
0000
0000
0000
1000
0010
0100
0001
0010
0001
0100
0010
,
2000
0000
0002
3003
,
0010
0000
1000
0000
0100
0000
0000
0000
0010
0001
0100
0010
0100
0001
0010
0100
,
0022
0000
0033
0000
1000
1000
0010
0010
,
1100
0010
0101
0000
1001
0010
1100
0000
,
0210
0000
0001
0300
2010
0100
0001
0010
0100
0000
0100
0000
0010
0000
0010
3000
,
0101
1000
0110
0000
1100
0100
1001
0000
,
0000
0000
0000
0110
0000
0000
0000
0000
0000
0000
0000
0000
0000
0000
0000
0000
0000
0000
0000
0000
0000
0000
0000
0000
0000
0000
0000
0000
0001
0000
0000
0000
0000
0000
0000
0000
0000
0000
0000
0000
0000
0000
0000
0000
0000
0000
0000
0000
0000
0000
0000
0000
0000
0000
0220
0000
0000
0000
0000
0000
0000
0000
0000
0000
0000
0000
0000
0000
0000
0000
0000
0000
0000
0000
0000
0000
0000
0000
0000
0000
0000
0000
0000
0000
0000
0000
0000
0000
0000
0000
0000
0000
0000
0000
0000
0000
0000
0000
0000
0000
0000
0000
0000
0000
0000
0000
0000
0000
0000
0000
0000
0000
0000
0000
0000
0000
0000
0000
0000
0000
0000
0000
0000
0000
0000
0000
0000
0000
0000
0000
0000
0000
0000
0000
0000
0000
0000
0000
0000
0000
0000
0000
0000
0000
0000
0000
0000
0000
0000
0000
0000
0000
0000
0000
0000
0000
0000
0000
0000
0000
0000
0000
0000
0000
0000
0000
0000
0000
0000
0000
0000
0000
0000
0000
0000
0000
0000
0000
0000
0000
0330
0000
0000
0000
0000
0000
0000
0000
0000
0000
0000
0000
,
1001
0010
0100
0010
0001
1000
0010
1000
0110
0001
1000
0010
1000
0100
0010
0001
,
1100
0010
0100
0001
0100
0010
1000
0100
0011
1000
0010
0100
0010
1000
0001
0100
,
1010
0001
0100
0010
1000
0100
0010
0001
0110
1000
0100
0010
0100
1000
0001
0010
,
1100
0001
0100
0010
1000
0100
0010
0001
0100
0010
1000
0100
1000
0001
0100
0001
,
1100
0010
0001
1000
0100
0010
0001
1000
0110
0001
1000
0001
0100
0010
0100
0001
,
1010
0100
0010
0001
1000
0010
0100
0010
1001
0100
0010
0001
0100
0010
0100
0001
,
0110
1000
0100
1000
0001
0100
0001
0010
1100
0010
0100
0001
0010
0100
1000
0001
,
0110
1000
0100
0010
0100
1000
0001
0100
0010
0100
0001
0010
0100
1000
0010
0100
,
0001
0010
0001
0000
1000
0000
0010
0000
0110
0000
1000
0000
0001
0000
0100
0000
,
1010
0100
0010
0001
0110
1000
0001
0010
,
1100
0010
0001
1000
0201
0010
1000
0301
,
1000
0000
0000
0001
0010
0100
1000
0001
0010
0100
1000
0001
0010
0100
1000
0001
0010
0100
1000
0001
0100
0010
1000
0001
,
1100
0010
0001
0100
1001
0010
0100
0010
,
1100
0001
1000
0010
0101
0010
1000
0100
,
1010
0001
0100
0010
1100
0010
0001
0100
,
0011
0011
0011
0011
0011
0011
0011
0011
,
0011
0011
0011
0011
0011
0011
0011
0011
,
0012
0000
2003
0000
,
3020
0000
0230
0000
,
2300
0000
0000
0000
,
3002
0000
0000
0000
0000
0000
0000
0000
0103
0000
0010
0100
0010
0100
0010
0000
,
2000
0000
3020
0000
,
0230
0000
0302
0000
,
0020
0000
0000
0000
0000
0000
0000
0033
0010
0000
0100
0000
0010
0000
0000
0000
,
0100
0010
0001
0010
1001
0000
1100
0000
,
1000
0100
0010
0100
1000
0001
0010
0100
1000
0001
0100
0010
0100
0001
1000
0100
,
0010
0100
1000
0001
1000
0010
0100
0010
1000
0001
1000
0100
0010
0100
1000
0001
,
0100
0010
1000
0100
0010
0100
1000
0001
0010
0100
0010
0001
0100
0010
1000
0100
,
0010
0100
1000
0001
0100
0010
0100
0001
0010
0100
1000
0010
0100
0001
0010
0100
,
1000
0001
1000
0100
0010
0001
0100
0010
1000
0100
0010
0001
1000
0010
1000
0100
,
0010
0100
1000
0001
0100
0010
0100
0001
0010
0100
1000
0001
0010
0100
0010
0001
,
1000
0100
0010
0001
1000
0010
0100
0001
0010
0100
1000
0010
0100
0010
1000
0100
,
1001
0010
0100
0010
0100
0010
1001
0100
0010
0100
0010
0100
1001
0000
0000
0000
,
1000
0010
0100
0001
0010
0100
1000
0001
0100
0001
1000
0100
1000
0001
0010
0100
,
1000
0001
0100
0001
1000
0100
0010
0100
1000
0001
0010
0001
0100
0010
1000
0100
,
0010
0100
1000
0001
0100
0010
0100
0001
0010
0100
1000
0001
0100
0001
1000
0100
,
0010
0100
1000
0001
0100
0010
1000
0010
0100
0001
0010
0100
0010
0001
1000
0010
,
0100
0010
1000
0100
0010
0001
0100
0010
1000
0100
1000
0001
0100
0010
1000
0001
,
0010
0100
1000
0001
0100
0001
0010
0100
1000
0010
0100
0010
1000
0100
0010
0100
,
1000
0010
1000
0100
0010
0001
0100
0010
1000
0100
0010
0001
0010
0100
1000
0010
,
0100
0000
0000
0000
,
1001
0100
0110
0000
0101
1000
0110
0000
,
1001
0000
0010
0000
1100
0000
0001
0000
1100
0010
0001
1000
0010
1000
0100
0010
,
0101
1000
0110
0000
0101
1000
0011
0000
,
0110
0000
1000
0000
1001
0000
0001
0000
0110
0001
0010
0100
0010
0001
1000
0010
,
1100
0010
1001
0000
0011
0100
1001
0000
,
0110
0001
1000
0010
1000
0100
0010
0001
0110
1000
0100
0010
0100
1000
0001
0100
,
1010
0100
0110
0000
1001
0100
0011
1100
,
0110
0001
1000
0010
0100
0010
1000
0100
0010
0001
0100
0010
0100
0001
0010
0001
,
1100
0010
0001
0100
0010
0100
0001
0010
0001
1000
0010
1000
0100
0010
0001
0100
,
0010
1000
0100
0010
0001
1000
0010
1000
0001
0100
0010
1000
0010
0100
0001
0010
,
0100
1000
0010
1000
0100
0010
0001
1000
0010
1000
0100
0010
0100
1000
0001
0100
,
1010
0100
0011
1000
0020
0000
0000
0030
,
1001
0100
0010
0100
1000
0001
0100
0010
2200
0000
0000
3300
1001
0000
0011
0000
,
0110
0001
1000
0010
1000
0100
0010
0001
0110
1000
0001
0010
0001
1000
0010
1000
,
0101
0010
0100
1000
0001
0100
0010
1000
0011
1000
0100
0010
0001
1000
0010
1000
,
0110
0001
1000
0001
0010
0100
1000
0010
0100
0001
0010
0001
1000
0010
1000
0100
,
0011
1000
0010
1000
0100
0010
0001
1000
0011
0100
1000
0010
0100
0001
0010
0100
,
1001
0010
0100
0010
0001
1000
0010
1000
0110
0001
1000
0001
0010
0100
0010
0001
,
1100
0010
0001
0100
0010
0100
0001
0010
1100
0001
0010
0001
1000
0100
0010
0001
,
1010
0100
0010
0001
0100
0010
0100
0001
0110
1000
0100
0010
0001
0010
0100
1000
,
0020
0000
0230
0000
,
2300
0000
0000
0000
0000
0000
0000
0000
0000
0000
0000
0000
0000
0000
0000
0000
0000
0000
0000
0000
0000
0000
0000
0000
0000
0000
0000
0000
0000
0000
0000
0000
0000
0000
0000
0000
0000
0000
0000
0000
0000
0000
0000
0000
0000
0000
0000
0000
0000
0000
0000
0000
0000
0000
0000
0000
0000
0000
0000
0000
0000
0000
0000
0000
0000
0000
0000
0000
0000
0000
0000
0000
0000
0000
0000
0000
0000
0000
0000
0000
0000
0000
0000
0000
3000
0000
0000
0000
0001
0000
0000
0000
0000
0010
0000
0000
0000
0000
0000
0000
0000
0000
0000
0000
0002
0000
0000
0000
0000
0000
0000
0000
0000
0000
0000
0000
0000
0000
0000
0000
0000
0000
0000
0000
0000
0000
0000
0000
0000
0000
0000
0000
0000
0000
0000
0000
0000
0000
0000
0000
0000
0000
0000
0000
0000
0000
0000
0000
0000
0000
0000
0000
0000
0000
0000
0000
0003
0000
0000
0000
0000
0000
0000
0000
0000
0000
0000
0000
0000
0000
0000
0000
0000
0000
0000
0000
0000
0000
0000
0000
0000
0000
0000
0000
0000
0000
0000
0000
0000
0000
0000
0000
,
0200
0000
0320
0000
,
0230
0000
0300
0000
,
2000
0000
3002
0000
,
0023
0000
0230
0000
,
2300
0000
3200
0000
0000
0000
0000
0000
0000
0000
0000
0000
0320
0000
0230
0000
0000
0000
0000
0000
0000
0320
0000
0000
,
0032
0003
0020
0000
0000
0000
0000
0000
,
0030
0000
0000
0000
;
