#TITLE:One Winged Angel;
#SUBTITLE:(Final Fantasy Advent Children version);
#ARTIST:植松伸夫;
#TITLETRANSLIT:;
#SUBTITLETRANSLIT:;
#ARTISTTRANSLIT:Nobuo Uematsu;
#CREDIT:Darkmage/Arch0wl;
#BANNER:onewingedangelac-bn.png;
#BACKGROUND:onewingedangelac-bg.png;
#LYRICSPATH:;
#CDTITLE:arch0wldarkmagetitle.png;
#MUSIC:onewingedangelac.ogg;
#OFFSET:1.581;
#SAMPLESTART:73.710;
#SAMPLELENGTH:15.660;
#SELECTABLE:YES;
#BPMS:0.000=123.000;
#STOPS:94.500=0.244
;
#BGCHANGES:0.000=onewingedangelac-bg.png=1.000=0=0=1,
4.000=onewingedangelac.avi=1.000=0=0=0,
738.500=onewingedangelac-bg.png=1.000=0=0=1,
99999=-nosongbg-=1.000=0=0=0 // don't automatically add -songbackground-
;
// cache tags:
#FIRSTBEAT:4.000;
#LASTBEAT:738.500;
#SONGFILENAME:Songs/Archmage and Dark0wl Hammer of Thor UltraHyperMegaPack/OWA Advent Children/onewingedangelac.sm;
#HASMUSIC:1;
#HASBANNER:1;
#MUSICLENGTH:105.000;
// end cache tags

//---------------dance-single - Darkmage----------------
#NOTES:
     dance-single:
     Darkmage:
     Challenge:
     14:
     1.000,1.000,1.000,1.000,1.000,1990.000,474.000,223.000,0.000,20.000:
0000
0000
0000
0000
,
1100
1010
1100
1010
,
0101
0011
0101
0011
,
1010
0000
0101
0000
1000
0100
0010
0000
0101
0000
1010
0000
0110
0000
1001
0000
,
0011
0000
1100
0000
0001
0010
0100
0000
1100
0000
0011
0000
0110
0000
1001
0000
,
0101
0011
0101
0011
,
1100
1010
1100
1010
,
1000
0100
0010
0001
1000
0010
0100
0001
0010
0100
1000
0001
1000
0100
0010
0001
1000
0010
0100
0001
0010
0100
1000
0001
,
1000
0100
0010
0001
1000
0010
0100
0001
0010
0100
1000
0001
0011
0000
0110
0000
1100
0000
0011
0000
0110
0000
0011
0000
,
0101
1010
1100
1010
,
0101
0010
0000
0002
0000
0000
0003
1000
,
0010
0100
0001
0000
2000
0000
0000
0000
,
0000
0000
3100
0010
0001
0000
1000
0100
0010
0000
0000
0000
0101
0000
0000
0000
,
1010
0000
0000
0000
0101
0000
0000
0000
1010
0000
0001
0010
0100
0000
0010
0100
,
1000
0000
0000
0000
0101
0000
0000
0000
1010
0000
0001
1000
0100
0000
0000
0000
,
0011
0000
0000
0101
0100
0100
0110
0000
0000
1010
1000
1000
,
1100
0000
0000
0011
0001
0001
0101
0000
0000
1010
0010
0010
,
0110
0000
0000
0101
0100
0100
1100
0000
0000
1010
0010
0010
,
0011
0000
0000
1001
0001
1000
1001
0000
0000
1010
1000
0001
,
1000
0000
0010
0000
0100
0000
0001
0000
0100
0000
0010
0000
2000
0000
0000
0000
0000
0000
0000
0000
0000
0000
0000
0000
0000
0000
0000
0000
0000
0000
0000
0000
0000
0000
0000
0000
3000
0000
0000
0000
0000
0000
0001
0000
0000
0010
0000
0000
,
0100
0000
0000
0000
0000
0000
0000
0000
0000
0000
0000
0000
0000
0000
0000
0000
0000
0000
0000
0000
0000
0000
0000
0000
1000
0000
0000
0000
0000
0000
0000
0000
0000
0000
0000
0000
0000
0000
0000
0000
0000
0000
0000
0000
0000
0000
0000
0000
0010
0000
0000
0000
0000
0000
0000
0000
0000
0000
0000
0000
0000
0000
0000
0000
0000
0000
0000
0000
0000
0000
0000
0000
0100
0000
0000
0000
0000
0000
0000
0000
0000
0000
0000
0000
0000
0000
0000
0000
0000
0000
0000
0000
0000
0000
0000
0000
0001
0000
0000
0000
0000
0000
0000
0000
0000
0000
0000
0000
0000
0000
0000
0000
0000
0000
0000
0000
0000
0000
0000
0000
1000
0000
0000
0000
0000
0000
0010
0000
0000
0000
0000
0000
1000
0000
0000
0000
0000
0000
0010
0000
0000
0000
0000
0000
1000
0000
0000
0000
0000
0000
0000
0000
0001
0000
0000
0000
0000
0000
0000
0000
0100
0000
0000
0000
0000
0000
0000
0000
0001
0000
0000
0000
0000
0000
0000
0000
0100
0000
0000
0000
0000
0000
0000
0000
0001
0000
0000
0000
0000
0000
0000
0000
,
2010
0100
3010
1000
0102
0013
0110
2001
,
3010
1200
0310
0012
1003
0110
0102
0103
,
1020
0031
0201
1300
0110
2001
0010
0000
,
0010
0000
0000
0000
0010
0000
0000
0000
3001
0010
0001
0010
0100
0010
0100
0010
,
0100
1000
0100
1000
0010
1000
0010
1000
0101
0000
1020
0000
0000
0000
0230
0000
,
0000
0000
0000
0000
0000
0000
0320
0000
1030
0000
0100
0010
0002
0000
0000
0000
,
1000
1000
1000
1000
,
1000
0000
0000
0000
0000
0000
1000
0000
0000
0003
0000
0000
1001
0000
0000
0000
0000
0000
1000
0100
1000
0100
1000
0100
,
1001
0000
0000
0000
0000
0000
0000
0000
0000
0000
0000
0000
1001
0000
0000
0000
0000
0000
0100
0001
0100
0001
0100
0001
,
1001
0000
0000
0000
0000
0000
0100
0000
0000
0000
0000
0000
1010
0000
0000
0000
0000
0000
0100
0010
0100
0010
0100
0010
,
1010
0000
0000
0000
0000
0000
0000
0000
0000
0000
0000
0000
0101
0000
0000
0000
0000
0000
0010
0001
0010
0001
0010
0001
,
0101
0000
0000
0101
0000
0000
0010
0000
0000
0100
0000
0000
1010
0000
0000
0000
0000
0000
0100
0001
1000
0100
1000
0001
,
1001
0000
0000
0000
0012
0103
2010
3100
,
1001
0000
0110
0000
0011
0000
0101
0000
0110
0000
1100
0000
1010
0100
0010
0001
1000
0010
0100
0001
0010
0100
1000
0100
,
0001
0100
0010
0001
1000
0010
0100
0001
0010
0100
0010
0001
1000
0010
0100
0001
0010
0001
0100
0010
1000
0001
0100
0010
,
1010
0110
0101
0011
1001
0100
1010
0100
,
1001
0010
0101
1000
1010
0010
0101
0010
,
1001
0000
0100
0010
1000
0001
0100
0010
1001
0000
0100
0000
1010
0000
0100
0000
,
1001
0110
0101
0010
0101
0110
2010
3010
,
1100
0011
0201
0310
1001
1000
1010
1000
,
1001
0101
0011
0001
0101
0110
2010
3010
,
0101
0000
0000
1010
0000
0000
0201
0000
0000
0301
0000
0000
1000
0100
0010
0001
0000
0000
1001
0000
0000
0100
0000
0000
,
0100
0000
0100
0000
0100
0000
0100
0000
0010
0000
0101
0000
0000
1010
0000
0001
,
0100
0000
0000
0000
0000
0000
0010
0000
0000
1000
0000
0000
0000
0000
0000
0001
0000
0000
0100
0000
0000
0000
0000
0000
0001
0000
0010
0000
0100
0000
1000
0000
0000
0000
0000
0000
1001
0000
0000
0000
0000
0000
0010
0000
0000
0000
0000
0000
,
0010
0010
0010
0010
0100
0010
0101
1010
,
0001
0100
0000
0010
1000
0100
0010
0001
1001
0000
0010
0000
0101
0000
0010
0000
,
1100
0011
0101
0010
1100
1010
0102
0013
,
1100
0011
2010
3100
0011
1000
0110
0001
,
1010
0110
0011
1000
0101
0110
1020
0130
,
1010
0000
0000
0101
0000
0000
0021
0000
0000
0031
0000
0000
1000
0010
0100
0001
0000
0000
1001
0000
0000
1000
0000
0000
,
1000
0000
0000
0000
0000
0000
1000
0000
0000
0000
0000
0000
1010
0000
0000
0000
0110
0000
0000
0000
0101
0000
0000
0000
0011
0000
0000
0000
0000
0000
0101
0000
0000
0000
0000
0000
0000
0000
0000
1010
0000
0000
0000
0000
0000
0001
0000
0000
,
0100
0000
0010
1000
0000
0001
0010
0000
0011
0000
0110
0000
1001
0000
0001
0000
,
0001
0000
0000
0000
0000
0000
0001
0000
0000
0000
0000
0000
0101
0000
0000
0000
0110
0000
0000
0000
1010
0000
0000
0000
1100
0000
0000
0000
0000
0000
1000
0000
0000
0000
0000
0000
1000
0000
0000
0100
0000
0000
1000
0000
0000
0010
0000
0000
,
0100
0001
0010
0001
0100
0010
1000
0100
1001
0000
1000
0000
1020
0000
1030
0000
,
1200
1300
1002
1003
1000
1000
1010
1000
,
1000
1000
1010
1000
0001
0001
0021
0031
,
0201
0301
2001
3001
0001
0001
0011
0001
,
0001
0001
0011
0001
1000
1000
1020
1030
,
1002
1003
1200
1300
1000
1000
2020
3030
,
0220
0330
0000
0022
0033
0000
0110
0000
1100
0000
1000
0000
0021
0000
0001
0000
,
0001
0000
0031
0000
0201
0000
0310
0000
1010
0000
1000
0100
0010
0000
0001
0010
,
0100
1000
0100
0010
0001
1000
0010
0100
0001
0010
0100
1000
0011
0000
0000
0001
0000
0000
0101
0000
0000
0010
0000
0000
,
1010
0110
0101
0010
1100
1010
0102
0013
,
1100
0011
2001
3100
0011
1000
0110
0001
,
1010
0110
0101
0010
1100
0011
2100
3010
,
0101
0010
0201
0301
1010
0110
0101
1000
,
1000
0000
2000
0000
3100
0000
0200
0000
0310
0000
1010
0000
0000
0101
0000
0010
,
1000
0000
0000
0000
0000
0000
0001
0000
0000
0100
0000
0000
0010
0000
1000
0000
0001
0000
0010
0000
0100
0000
1000
0000
1001
0000
0000
0000
0000
0000
0101
0000
0000
0000
0000
0000
1010
0000
0000
0000
0000
0000
0010
0000
0000
0000
0000
0000
,
0010
0020
0130
0200
0301
0001
1001
1010
,
1000
0010
0000
0100
0001
1000
0001
0100
2001
0000
3010
0000
1002
0000
0013
0000
,
2001
3010
1002
0013
2001
3100
1002
0103
,
2001
3100
1002
0103
1010
1000
0011
0001
,
1000
0000
0000
0000
0000
0000
0100
0000
0000
0000
0000
0000
0010
0000
0000
0000
0000
0000
0001
0000
0000
0000
0000
0000
1000
0000
0000
0000
0000
0000
0000
0000
0100
0000
0000
0000
0000
0000
0000
0000
0010
0000
0000
0000
0000
0000
0000
0000
0001
0000
0000
0000
0000
0000
0000
0000
0000
0000
0000
0000
0000
0000
0000
0000
0000
0000
0000
0000
0000
0000
0000
0000
0000
0000
0000
0000
0000
0000
0000
0000
0000
0000
0000
0000
0000
0000
0000
0000
0000
0000
0000
0000
0000
0000
0000
0000
1010
0000
0000
0000
0000
0000
0000
0000
0000
0000
0000
0000
0000
0000
0000
0000
0000
0000
0000
0000
0000
0000
0000
0000
0000
0000
0000
0000
0000
0000
0000
0000
0000
0000
0000
0000
0000
0000
0000
0000
0000
0000
0000
0000
0000
0000
0000
0000
0000
0000
0000
0000
0000
0000
0000
0000
0000
0000
0000
0000
0000
0000
0000
0000
0000
0000
0000
0000
0000
0000
0000
0000
0000
0000
0000
0000
0000
0000
0000
0000
0000
0000
0000
0000
0000
0000
0000
0000
0000
0000
0000
0000
0000
0000
0000
0000
,
0000
0000
0000
0000
0000
0000
0000
1000
0001
0000
0000
0000
0000
0000
0000
0000
0101
0000
0000
0000
0000
0000
0000
0000
1001
0000
0000
0000
0000
0000
0000
0000
,
1010
0000
1100
0000
1001
0000
2000
3200
,
0320
0032
0023
0230
2300
3200
0302
0203
,
0320
0032
0023
0230
0302
0203
2300
3020
,
0230
0000
0302
0000
0000
0000
0003
0000
0000
0000
0000
0000
2000
0000
3002
0003
,
2020
0000
3030
0202
0303
0000
0022
0033
1100
0000
0000
0000
0020
0000
0032
0000
,
2003
3020
0000
0000
0000
0030
0101
0110
,
1010
1100
0011
1010
1001
0000
2010
3010
,
0102
0103
0021
0031
1200
1300
1010
0000
,
0100
0000
1010
0000
0100
0000
0011
0101
,
1010
0000
2200
0000
0000
0000
0000
0000
0000
0000
0000
3300
0011
0000
1100
0000
,
2020
3030
0000
0220
0330
0000
0101
0000
0022
0000
0033
0000
1100
0000
1010
0000
,
0220
0330
0000
0202
0303
0000
1010
0000
1001
0000
0000
0000
1010
0000
0101
0000
,
1000
0000
0100
0000
0010
0000
0001
0000
0000
1000
0000
0000
0100
0000
0000
0010
0000
0000
0001
0000
0000
1000
0000
0000
0001
0000
0000
0000
0000
0000
1000
0000
0000
0000
0000
0000
0001
0000
0000
0000
0000
0000
1000
0000
0000
0000
0000
0000
,
0001
0010
0100
0000
1000
0000
0100
0000
0001
0010
0100
0000
1000
0000
0100
0000
,
0010
0001
1000
0001
1000
0010
0100
0001
,
1000
0100
0010
0000
0001
0000
0010
0000
1000
0100
0010
0000
0001
0000
0010
0000
,
0100
0000
0000
0000
0010
0000
0000
0001
1000
0000
0000
0000
1010
0000
0000
0000
0101
0000
0000
0000
0011
0000
0000
0000
1100
0000
0000
0000
1010
0000
0000
0000
,
0101
0110
1010
0000
1100
0000
0011
0000
1100
0110
0011
0000
0101
0000
1010
0000
,
0110
0011
1100
1010
0101
0011
1001
1010
,
0110
0000
1001
0000
0110
0000
0000
0000
1010
0000
0000
0000
0101
0000
0000
0000
1001
0000
0110
0000
1001
0000
0000
0000
1100
0000
0000
0000
0011
0000
0000
0001
,
1000
0000
0010
0000
0100
0000
0000
0000
0110
0000
1000
0000
0100
0010
0001
0000
,
0101
0000
0000
0110
0000
0000
1010
0000
1001
0000
0000
0000
0200
0000
0320
0000
,
2030
0000
0000
3002
0000
0000
0203
0000
0320
0000
0030
0000
1010
0000
0110
0000
,
0101
0000
0000
0011
0000
0000
1100
0000
1010
0000
0000
0000
2002
0000
0000
0000
,
0000
0000
0000
0000
0000
0000
0000
3003
1010
0000
0000
1010
0000
0000
1010
0000
,
0000
1010
0000
1010
0001
0010
0100
1000
0012
0000
1003
0010
0100
0010
1000
0010
,
0100
0010
1000
0010
0100
0010
1000
0010
0100
0010
1000
0010
0100
0010
1000
0010
,
0100
0000
0010
0000
1000
0000
0010
0000
0000
0100
0000
0000
0010
0000
0000
1000
0000
0000
0010
0000
0100
0000
0001
0000
0100
0000
0000
0010
0000
0000
0100
0000
0000
0001
0000
0000
0100
0000
0000
0010
0000
0000
0100
0000
0000
0001
0000
0000
,
0100
0010
0100
0001
0100
0010
0100
0001
0110
0000
0110
1010
0000
1100
1001
0000
,
0110
0000
0000
0101
0000
0000
0010
0000
0001
0000
1000
0000
0010
0000
0100
0000
0001
0000
0010
0000
0001
0000
0100
0000
0020
0000
0000
0000
0000
0000
0130
0000
0000
1000
0000
0000
0100
0000
0000
0010
0000
0000
0100
0000
0000
1000
0000
0000
,
0100
0010
0100
1000
0100
0010
0100
1000
0100
0010
0100
1000
0100
0010
0100
1000
,
0100
0000
0010
0000
0100
0000
1000
0000
0000
0100
0000
0000
0010
0000
0000
0100
0000
0000
1000
0000
0100
0000
0010
0000
0001
0000
0000
0010
0000
0000
0100
0000
0000
0010
0000
0000
0001
0000
0000
0010
0000
0000
0100
0000
0000
0010
0000
0000
,
0001
0010
0100
0010
0001
0010
0100
0010
0001
0010
0100
0010
0001
0010
0100
0010
,
0001
1000
0010
0100
0001
1000
0100
0010
0101
0010
0001
1000
0010
0100
0001
0010
,
1100
0010
0001
1000
0010
0100
0001
1000
0110
0001
1000
0010
0100
0001
0010
0100
,
1010
0100
0001
0100
0010
1000
0100
0010
0011
0100
1000
0010
0100
0001
0100
0010
,
1010
0100
0010
1000
0100
0010
0001
1000
0101
0010
1000
0100
0010
0001
0010
0100
,
1000
0000
0010
0000
1000
0000
0010
0000
0000
0100
0000
0000
0001
0000
0000
0100
0000
0000
0010
0000
0100
0000
0010
0000
1000
0000
0000
0010
0000
0000
0100
0000
0000
0001
0000
0000
0010
0000
0000
0100
0000
0000
1000
0000
0000
0100
0000
0000
,
0011
1000
0010
0100
1010
0100
0010
1000
0101
0010
0001
1000
0010
0100
0001
1000
,
0110
0001
1000
0010
0101
0010
0001
1000
0011
0100
1000
0010
0100
0010
1000
0001
,
1010
0100
0010
0001
1100
0010
0001
1000
0110
0001
0100
0010
1000
0010
0100
0001
,
0100
0000
0000
0010
0000
0000
1000
0000
0010
0000
1000
0000
0010
0000
0000
0100
0000
0000
0001
0000
0100
0000
0001
0000
0100
0000
0000
0010
0000
0000
1000
0000
0000
0001
0000
0000
1000
0000
0000
0100
0000
0000
1000
0000
0000
0010
0000
0000
,
0101
0010
1000
0100
1000
0010
0100
0001
1100
0010
0001
0100
0010
1000
0010
0100
,
0011
1000
0010
0100
0001
0010
0001
0100
1010
0100
0010
1000
0100
1000
0010
0100
,
0011
0100
1000
0001
0100
0010
1000
0001
1100
0010
0001
1000
0010
0100
0001
1000
,
0001
0000
0010
0000
0001
0000
0010
0000
0000
0100
0000
0000
1000
0000
0000
0001
0000
0000
0100
0000
0010
0000
1000
0000
0010
0000
0000
0100
0000
0000
0001
0000
0000
0100
0000
0000
0010
0000
0000
1000
0000
0000
0100
0000
0000
1000
0000
0000
,
0011
0100
1000
0001
1100
0010
0001
1000
0110
0001
0100
0010
1000
0100
1000
0010
,
0101
0010
0100
1000
0011
0100
1000
0010
1100
0010
0100
0010
1000
0010
0100
0010
,
1000
0010
0100
0010
1000
0010
0100
0010
1000
0010
0100
0010
1000
0010
0100
0010
,
1000
0100
1000
0010
0100
0001
0010
0001
1010
0000
0110
0000
0101
0010
0001
0100
,
0010
1000
0010
0100
0001
0100
0010
1000
0100
1000
0010
0100
0001
1000
0100
1000
,
0010
0000
0100
0000
0010
0000
0100
0000
0000
0001
0000
0000
1000
0000
0000
0010
0000
0000
0100
0000
0001
0000
0100
0000
0011
0000
0000
0000
0000
0000
1100
0000
0000
0000
0000
0000
0011
0000
0000
1000
0000
0000
0010
0000
0000
0100
0000
0000
,
0001
0010
0001
0100
0010
1000
0100
1000
0010
0100
0001
1000
0100
1000
0001
0010
,
0001
0000
0000
0100
0000
0000
0010
0000
1000
0000
0010
0000
1000
0000
0000
0001
0000
0000
0100
0000
0010
0000
0100
0000
1010
0000
0000
0000
0000
0000
0101
0000
0000
0000
0000
0000
1010
0000
0000
0100
0000
0000
1000
0000
0000
0010
0000
0000
,
0100
0010
1000
0001
0010
0001
0100
0010
1000
0100
1000
0010
0100
0001
0010
0001
,
1000
0000
0010
0000
1000
0000
0001
0000
0000
0100
0000
0000
0010
0000
0000
1000
0000
0000
0001
0000
0010
0000
0001
0000
1001
0000
0000
0000
0000
0000
0110
0000
0000
0000
0000
0000
0101
0000
0000
0000
0000
0000
1010
0000
0000
0100
0000
0000
,
0001
0100
0010
1000
0100
1000
0010
0100
0010
1000
0001
0010
0100
0010
0001
1000
,
0010
0100
0001
0010
0100
1000
0100
0010
0002
0000
2003
0000
3020
0000
0230
0000
,
0302
0000
0000
0000
0000
0000
0000
0000
0000
0000
0000
0000
2003
0000
0000
3001
0010
0100
1000
0001
1000
0100
0010
0001
,
1000
0001
0010
0100
1000
0001
1000
0100
0010
0001
1000
0001
0020
0000
0000
0230
0000
0000
2300
0000
0000
3002
0000
0000
,
0203
0000
0000
0000
0000
0000
0320
0000
0000
0000
0000
0000
2030
0000
0000
0000
0000
0000
3002
0000
0000
0023
0000
0000
0230
0000
0000
0300
0000
0000
2000
0000
3200
0000
0320
0000
0032
0000
0003
2000
0000
0000
3200
0000
0000
0320
0000
0000
,
0032
0000
0000
0003
1010
0200
0302
0000
,
0023
0000
0000
0000
0000
0000
0230
1000
,
2300
0000
0000
0000
0000
0000
0000
0000
0000
0000
0000
0000
3001
0010
0100
1000
0001
1000
0100
0010
0001
1000
0001
0010
,
0100
1000
0001
1000
0100
0010
0001
1000
0001
0010
0100
1000
0001
0100
0010
0100
0001
1000
0100
0010
0100
1000
0001
0100
,
0010
0000
0100
0000
1000
0000
0100
0000
0001
0000
1000
0000
0100
0000
0010
0000
0100
0000
0001
0000
0100
0000
1000
0000
0001
0000
0000
0100
0000
0000
0010
0000
0000
0100
0000
0000
0001
0000
0000
0010
0000
0000
0100
0000
0000
0010
0000
0000
,
0001
0100
0010
0100
0001
0010
0100
0010
0100
1000
0100
0010
0100
1000
0010
0100
,
0010
1000
0100
0010
0100
1000
0010
0100
0001
1000
0001
1000
0100
0010
0001
1000
,
0001
1000
0001
0010
0100
1000
0001
1000
0001
1000
0100
0010
0001
1000
0001
1000
,
0001
0010
0100
1000
0001
1000
0001
1000
0010
0100
0001
0010
0100
0010
0100
0010
,
0100
1000
0100
0010
0100
0010
0100
0010
0001
0010
0100
0010
0100
0010
1000
0010
,
0100
0010
0100
0001
0100
0010
0100
0010
0100
1000
0001
0100
0001
1000
0100
1000
,
0001
0100
0001
1000
0001
0010
0001
1000
0010
1000
0100
1000
0001
0100
0001
1000
,
0010
0000
0000
1000
0000
0000
0001
0000
0000
0010
0000
0000
0001
0000
0000
1000
0000
0000
0010
0000
0000
0100
0000
0000
0001
0000
0010
0000
0001
0000
0100
0000
0010
0000
1000
0000
0010
0000
1000
0000
0100
0000
0010
0000
0001
0000
0100
0000
,
0001
1000
0100
1000
0010
0100
0001
0010
0001
0100
0010
1000
0010
0100
0001
0100
0010
1000
0100
1000
0001
0010
0001
0100
,
0010
0000
1000
0000
0010
0000
0100
0000
0001
0000
0010
0000
0001
0000
0100
0000
0010
0000
1000
0000
0001
0000
0010
0000
0100
0000
0000
1000
0000
0000
0100
0000
0000
0000
0000
0000
0010
0000
0000
0000
0000
0000
0001
0000
0000
0000
0000
0000
,
0010
0000
0100
0000
1000
0000
1000
0000
1000
0000
1000
0100
0010
0001
0010
0100
,
1000
0100
0010
0001
1000
1010
1010
0100
,
0011
0011
0100
1001
1001
0100
1010
1010
,
0100
0000
0011
0000
0011
0000
0100
0000
0011
0110
1100
0000
0002
0023
0230
0000
,
2300
0000
3200
0000
0320
0000
0032
0000
0023
0000
0001
0000
0001
0000
0032
2003
,
3020
0000
0000
0230
0000
0000
0302
0000
0000
2003
0000
0000
3200
0000
0000
0000
0000
0000
0320
0000
0000
0000
0000
0000
0032
0000
0000
0000
0000
0000
1003
0000
0100
0000
0010
0000
0011
0000
0000
0000
0000
0000
0000
0000
0000
0000
0000
0000
,
0101
0000
0000
0000
0000
0000
0000
0000
0000
0000
0000
0000
1010
0000
0000
0000
0000
0000
0000
0000
0000
0101
0000
0000
0000
0000
0000
0000
0000
0000
0110
0000
0000
0000
0000
0000
1000
0000
0001
0000
1000
0000
0001
0000
1000
0000
0001
0000
,
1000
0001
1000
0001
1000
0001
1000
0001
1000
0001
1000
0001
1000
0000
0000
0000
0000
0000
1010
0000
0000
0000
0000
0000
,
0110
0000
0000
0000
0000
0000
0000
0000
0000
0000
0000
0000
0101
0000
0000
0000
0000
0000
0000
0000
0000
0110
0000
0000
0000
0000
0000
0000
0000
0000
1100
0000
0000
0000
0000
0000
0001
0000
1000
0000
0001
0000
1000
0000
0001
0000
1000
0000
,
0001
0000
1000
0000
0001
0000
1000
0000
0001
0000
1000
0000
0001
0000
1000
0000
0001
0000
1000
0000
0001
0000
1000
0000
0001
0000
0000
1000
0000
0000
0001
0000
0000
1000
0000
0000
0201
0000
0000
0000
0000
0000
0310
0000
0000
0000
0000
0000
,
2010
3001
0210
1300
0011
0000
1200
0301
,
0021
1030
0210
0301
1001
0000
0210
1300
,
0120
0031
2010
3001
0011
0000
1200
0310
,
2010
0000
3100
0000
0021
0000
0130
0000
0110
0000
1000
0010
0201
0000
0310
0000
,
2010
3100
0021
0130
1001
0010
1200
0301
,
1020
0031
0210
0301
0110
0000
2010
3100
,
0012
0103
1002
0103
1010
0000
0021
0130
,
1020
0000
0130
0000
0201
0000
0310
0000
0110
0000
1001
0110
2001
0000
0000
0000
,
3022
0233
2320
3032
,
2023
3230
0322
2033
,
3220
0332
2023
3032
,
0223
0000
2330
0000
3202
0000
2313
3002
,
0113
0000
0000
0000
0000
0000
0201
0000
0000
0320
0000
0000
1130
0000
0000
0000
0000
0000
0001
1000
0001
0010
0100
1000
,
0001
1000
0100
0010
0001
1000
0001
0010
0100
1000
0001
1000
0100
0010
0001
1000
0001
0010
1200
0000
0000
0320
0000
0000
,
0131
0000
0000
0000
0000
0000
1020
0000
0000
0230
0000
0000
0311
0000
0000
0000
0000
0000
0001
0010
0100
1000
0100
0010
,
0100
1000
0100
0010
0001
0010
0100
0010
0001
0010
0100
1000
0100
0010
0001
0010
0100
1000
0101
0000
0000
1010
0000
0000
,
1001
0000
0010
0100
0011
0011
1010
1010
,
1100
0000
0000
0000
0000
0000
0000
0000
0000
0101
0000
0000
1010
0000
0000
0000
0000
0000
1000
0000
0100
0000
0010
0000
0001
0000
0100
0000
0010
0000
0100
0000
1000
0000
0100
0000
1010
0000
0000
0000
0000
0000
0101
0000
0000
0000
0000
0000
,
1001
0000
0010
0100
1100
1100
0011
0011
,
1010
0000
0000
0000
0000
0000
0101
0000
0000
0011
0000
0000
1100
0000
0000
0000
0000
0000
0001
0000
0010
0000
0100
0000
1000
0000
0100
0000
0010
0000
0100
0000
0001
0000
0100
0000
2002
0000
0000
0000
0000
0000
0000
0000
0000
0000
0000
0000
,
0000
0000
0000
3003
0000
0000
1000
0010
0100
0010
1000
0010
0100
0010
1000
0010
0100
0010
0100
0001
0100
0010
0100
0001
,
0100
0010
0100
0001
0100
0010
0100
0001
1000
0010
0100
0001
1000
0010
0100
0001
1000
0010
0100
0001
0010
0100
1000
0100
,
0010
0001
1000
0100
0010
0001
1000
0100
0010
0001
1000
0100
0010
0001
1000
0100
0010
0001
1001
0000
0000
0000
0000
0000
,
1100
0011
2002
0000
0000
3003
0000
0000
;

//---------------dance-single - Arch0wl----------------
#NOTES:
     dance-single:
     Arch0wl:
     Hard:
     11:
     1.000,1.000,1.000,1.000,1.000,1641.000,233.000,106.000,0.000,36.000:
0000
0000
0000
0000
,
1000
0010
1000
0010
,
1000
0010
1000
0010
,
0100
0001
1000
0001
0100
0001
1000
0001
,
0100
0001
1000
0001
0100
0001
1000
0001
,
0010
0001
0010
0001
,
0010
0001
0010
0001
,
1000
0010
1000
0010
0100
0010
0100
0010
1000
0100
1000
0100
0010
0100
0010
0100
,
1000
0000
0000
0001
0000
0000
1000
0000
0000
0001
0000
0000
0100
0000
0000
0001
0000
0000
0100
0000
0000
0001
0000
0000
1000
0000
0000
0000
0100
0000
0000
0000
0010
0000
0000
0000
0001
0000
0000
0000
0100
0000
0000
0000
0010
0000
0000
0000
,
1000
0010
1000
0010
,
1000
0100
0010
0002
1000
0003
0010
0100
,
1000
0100
0010
0000
2000
0000
0010
3000
,
1000
0000
0001
0100
0010
0000
0100
0001
1000
0000
0000
0000
1001
0000
0000
0000
,
0110
0000
0000
0000
1000
0000
0000
0000
0010
0000
0100
0001
1000
0000
0001
0100
,
0010
0000
0000
0000
1000
0000
0000
0000
0010
0000
0100
0001
1000
0000
0000
0000
,
0001
0000
0000
0010
0010
0010
0100
0000
0000
0100
0100
0100
,
1000
0000
0000
1000
1000
1000
0010
0000
0000
0010
0010
0010
,
0100
0000
0000
0100
0100
0100
0001
0000
0000
0001
0001
0001
,
0010
0000
0000
0010
0010
0010
0100
0000
0000
0100
0100
0100
,
2000
0000
0000
0000
0000
0000
0000
0000
0000
0000
0000
0000
0000
0000
3001
0010
,
0100
0000
1000
0000
0100
0000
0010
0000
0001
0000
1000
0010
0100
0001
0010
0100
,
1100
0010
0001
0010
1100
0010
0001
1100
,
0001
0110
1000
0011
0100
0001
1100
0001
,
0110
1000
0011
0100
0110
2001
0010
0000
,
3001
0000
0000
0000
0010
0000
0000
0000
0100
0001
0100
0001
0010
0100
0010
0100
,
1000
0001
1000
0001
0100
0010
0100
0010
1000
0000
0100
0000
0000
0000
0020
0000
,
0000
0000
0030
0001
1010
0000
0010
1000
,
0100
0020
0000
0000
0000
0000
0000
0000
,
0000
0000
0000
0000
2032
0000
3003
0010
,
2012
0000
3003
0000
0220
0000
0330
0100
,
0122
0000
1033
0000
2020
0000
3030
0010
,
2210
0000
3300
0000
0220
0000
0330
0100
,
0101
0102
0000
0003
2002
0000
3003
0010
,
2012
0000
3003
0000
0210
0000
0310
1000
,
1100
0000
1100
0000
1000
0100
0010
0001
2001
0000
0000
0000
3000
0000
0010
0000
,
2210
0000
3300
0000
0210
0000
0301
0010
,
0110
0110
0110
0110
1000
1000
1000
1000
,
2000
3000
0100
0100
0200
0300
0010
0010
,
0021
0000
0030
0001
1000
0100
0010
0001
0021
0000
0031
0000
2001
0000
3001
0000
,
0012
0013
0110
0100
0110
0110
2110
3000
,
0110
0110
2110
3000
1020
1030
1002
1003
,
2010
3010
0110
0100
0110
0110
0112
0003
,
0110
0110
0112
0003
1010
1010
1011
1000
,
1000
0000
1000
0000
1000
0000
1000
0000
0200
0000
0310
0000
0000
0010
0000
0010
,
0001
0000
0001
1000
0000
1000
0100
0000
0110
0000
0110
0000
0111
0000
0100
0000
,
0100
0100
0100
0100
2000
3100
0010
0010
,
0010
0001
0000
1000
0010
0100
0001
0010
0021
0000
0031
0000
2001
0000
3001
0000
,
0012
0013
0110
0100
0110
0110
2110
3000
,
0110
0110
2110
3000
1020
1030
1002
1003
,
2010
3010
0110
0100
0110
0110
0112
0003
,
0110
0110
0112
0003
1010
1010
1011
1000
,
1000
0000
0000
0000
0000
0000
1000
0000
0000
0000
0000
0000
0100
0000
0000
0000
0100
0000
0000
0000
0100
0000
0000
0000
0010
0000
0000
0000
0000
0000
0001
0000
0000
0000
0000
0000
0000
0000
0000
0001
0000
0000
0000
0000
0000
0001
0000
0000
,
1000
0000
1000
0100
0000
0100
0010
0000
0110
0000
0110
0000
0111
0000
0100
0000
,
0100
0000
0000
0000
0000
0000
0100
0000
0000
0000
0000
0000
0010
0000
0000
0000
0010
0000
0000
0000
0010
0000
0000
0000
0001
0000
0000
0000
0000
0000
0010
0000
0000
0000
0000
0000
0001
0000
0000
0010
0000
0000
0100
0000
0000
1000
0000
0000
,
0010
0100
0001
0010
0100
1000
0001
0010
0100
0000
0100
0000
0120
0000
0100
0000
,
0100
0100
0131
0100
0100
0100
0100
0100
,
0100
0100
0100
0100
0100
0100
0120
0100
,
0100
0100
1130
0100
0100
0100
0100
0100
,
0100
0100
0100
0100
0100
0100
0120
0100
,
0100
0100
0131
0100
0100
0100
0101
0100
,
0110
0000
0100
1000
0100
0000
0110
0000
0101
0000
0100
0000
0120
0000
0100
0000
,
0100
0000
0100
0000
1130
0000
0100
0000
1000
0000
0001
0100
1000
0000
0100
0010
,
1000
0000
1000
0000
1000
0100
0010
0001
0021
0000
0031
0000
2001
0000
3001
0000
,
0012
0013
0110
0100
0110
0110
2110
3000
,
0110
0110
2110
3000
1020
1030
1002
1003
,
2010
3010
0110
0010
0110
0110
0112
0003
,
0110
0110
0112
0003
0101
0101
1101
0001
,
0010
0000
0001
0000
0010
0000
0001
0000
0010
0000
0100
0000
0000
0100
0000
0100
,
1000
0000
1000
0001
0000
0001
0010
0000
0110
0000
0110
0000
1110
0000
0100
0000
,
1000
0100
1000
0100
1000
0100
0010
0010
,
0010
0100
0000
0100
1000
0001
0010
0100
1100
0000
1000
0000
1000
0000
1000
0000
,
1001
0001
0001
0001
0011
0010
0110
0100
,
1100
1000
1000
1000
0110
0001
0110
1000
,
0220
0330
1001
0000
0200
0000
0000
0000
,
0000
0310
1000
0100
,
1000
0000
0100
0000
1000
0000
0100
1000
,
0010
0100
0001
0010
0100
2000
0000
0000
,
0000
0000
0000
0000
3000
0000
0001
0100
,
0010
2000
0000
0000
3000
0000
0001
0100
,
0020
0000
0030
0200
0000
0300
0002
0000
2003
0000
0000
0000
0000
0000
0000
0000
,
0000
0000
0000
0000
,
0000
0000
3000
0000
1010
0000
1001
0001
,
0101
0100
0110
0010
1010
1000
1100
0000
,
0110
0000
1100
0000
0110
0000
0011
0001
,
0101
0001
1001
0000
0101
0000
1001
1000
,
1100
0000
0000
0100
0010
0000
0010
0000
0011
0000
0000
0000
0101
0000
0000
0000
,
0011
0000
0101
0000
0011
0000
0101
0001
,
0011
0000
0001
0010
0100
1000
0010
0000
0100
0000
0001
0000
0100
0000
0001
0000
,
1000
0100
1000
0000
0010
0000
0100
0000
0001
0010
0001
0000
1000
0000
0100
0000
,
0010
0001
0010
0001
1000
0010
1000
0010
,
0100
0001
0100
0000
0010
0000
1000
0000
0001
0100
0001
0000
0010
0000
0100
0000
,
1000
0010
1000
0010
0100
0001
0100
0001
,
0010
0100
0010
0000
0001
0000
0100
0000
0010
1000
0010
0000
0100
0000
0001
0000
,
1000
0100
1000
0100
0010
0001
0010
0001
,
1000
0010
1000
0000
0001
0000
0100
0000
0010
1000
0010
0000
0100
0000
0001
0010
,
0100
0000
0100
0000
0100
0000
0000
0000
0100
0000
0100
0000
0100
0010
0001
0000
,
0011
0000
0000
0110
0000
0000
1100
0000
1002
0000
0000
0000
0010
0000
1000
0000
,
0010
0000
0000
0100
0000
0000
1003
0000
1010
0000
0000
0000
0100
0000
0001
0000
,
1001
0000
0000
1100
0000
0000
0110
0000
0011
0000
0000
0000
1022
0000
0000
0000
,
0000
0000
0000
0000
0000
0000
0000
0000
1033
0000
0000
0100
0000
0000
0010
0000
,
0000
0001
0000
0001
0100
0010
1000
0100
0010
0000
0001
0010
0001
0010
0001
0010
,
0001
0010
0001
0010
0001
0010
0001
0010
0001
0010
0001
0010
0001
0010
0001
0010
,
0100
1000
0001
0010
0001
0010
0100
0000
1000
0010
1000
0010
1000
0010
1000
0010
,
1000
0010
1000
0010
1000
0010
1000
0010
1000
0000
0010
1000
0000
0010
1000
1000
,
0010
1000
0000
0010
0100
0001
0010
0100
1000
0000
0001
0100
0001
0100
0001
0100
,
0001
0100
0001
0100
0001
0100
0001
0100
0001
0100
0001
0100
0001
0100
0001
0100
,
0010
1000
0001
0100
0001
0100
0010
0000
1000
0100
1000
0100
1000
0100
1000
0100
,
1000
0100
1000
0100
1000
0100
1000
0100
1000
0100
1000
0100
1000
0100
1000
0100
,
0010
0001
1000
0010
0100
0001
1000
0100
0010
0001
0010
0001
0010
0001
0010
0001
,
1000
0010
1000
0010
1000
0010
1000
0010
0100
0001
0100
0001
0100
0001
0100
0001
,
0010
0100
0010
0100
0010
0100
0010
0100
1000
0010
1000
0010
1000
0010
1000
0010
,
0100
0001
0100
0001
0100
0001
0100
0001
1000
0100
1000
0100
1000
0100
1000
0100
,
0010
0001
1000
0100
1000
0100
0010
0000
0001
1000
0001
1000
0001
1000
0001
1000
,
0010
0100
0010
0100
0001
0010
0001
0010
0100
1000
0100
1000
0100
1000
0100
1000
,
0001
0100
0001
0100
0010
1000
0010
1000
0100
0010
0100
0010
0100
0010
0100
0010
,
0001
1000
0001
1000
0010
0100
0010
0100
0001
0010
0001
0010
0001
0010
0001
0010
,
0001
0010
0100
0000
1000
0100
0010
0000
0100
1000
0100
1000
0100
1000
0100
1000
,
0001
0100
0001
0100
0001
0100
0001
0100
0010
1000
0010
1000
0010
1000
0010
1000
,
0100
0010
0100
0010
0100
0010
0100
0010
0001
0100
0001
0100
0001
0100
0001
0100
,
0010
1000
0010
1000
0010
1000
0010
1000
0001
0010
0001
0010
0001
0010
0001
0010
,
0100
1000
0001
0010
0001
0010
0100
0000
1000
0001
1000
0001
1000
0001
1000
0001
,
0100
0010
0100
0010
1000
0100
1000
0100
0010
0001
0010
0001
0010
0001
0010
0001
,
1000
0010
1000
0010
0100
0001
0100
0001
0010
0100
0010
0100
0010
0100
0010
0100
,
0010
0100
0010
0100
0010
0100
0010
0100
0010
0100
0010
0100
0010
0100
0010
0100
,
0010
0100
1000
0000
0001
0010
0100
0000
1000
0001
1000
0010
1000
0100
1000
0100
,
1000
0100
1000
0001
1000
0010
1000
0100
1000
0010
1000
0001
1000
0100
1000
0100
,
0010
0001
1000
0100
1000
0100
0010
0000
0001
1000
0001
0100
0001
0010
0001
0010
,
0001
0010
0001
1000
0001
0100
0001
0010
0001
0100
0001
1000
0001
0010
0001
0010
,
0001
0010
0100
0000
1000
0100
0010
0000
0100
1000
0100
0010
0100
0001
0100
0001
,
0100
0001
0100
1000
0100
0010
0100
0001
0100
0010
0100
1000
0100
0010
0100
0010
,
0001
1000
0100
0010
0100
0010
0001
0000
0010
0001
0010
0100
0010
1000
0010
1000
,
0010
1000
0010
0001
0010
0100
0010
1000
0010
0100
0010
0100
0010
0001
0010
0100
,
0010
0100
1000
0000
0001
0010
0200
0000
2300
0000
0000
0000
0000
0000
3200
0000
,
0320
0000
0000
0000
0000
0000
0000
0000
0031
0000
1000
0100
0010
0001
1000
0100
,
0010
0001
1000
0100
0010
0001
1000
0100
0010
0000
0100
0000
1000
0000
0100
0010
,
0001
0000
1000
0000
0010
0000
0100
0001
0020
0000
0030
0010
0001
0100
0010
1000
,
0200
0000
0300
2000
,
3020
0000
0030
2000
,
3002
0000
0000
0000
0000
0000
0000
0000
1003
0000
0001
0010
0100
1000
0100
0010
,
0001
0100
0010
1000
0001
0010
0100
1000
0001
0100
0001
0010
0100
1000
0100
0010
,
0001
0010
0100
1000
0001
0100
0010
1000
0100
0010
0100
0010
0100
0010
0100
0010
,
0100
0010
0100
0010
0100
0010
0100
0010
0001
0100
0001
0100
0001
0100
0001
0100
,
0001
0100
0001
0100
0001
0100
0001
0100
0010
1000
0010
0100
0001
0100
0010
1000
,
0100
0010
0100
0010
0001
1000
0001
1000
0100
0010
0100
0010
0100
1000
0100
0010
,
0100
1000
0010
1000
0010
0100
0001
0010
0001
0100
0010
1000
0100
1000
0010
0100
,
0010
1000
0100
0010
0001
0100
0010
0100
0001
0010
0001
0100
0010
1000
0100
0010
,
0001
0100
0010
0100
0001
1000
0001
1000
0010
0100
0010
0100
0010
0100
0001
1000
,
0100
0010
0100
0010
0100
1000
0001
0010
0100
1000
0010
1000
0001
0010
0100
1000
,
0100
0010
0001
0010
0100
1000
0001
2001
0000
0000
0000
0000
0000
0000
0000
0000
,
0000
0000
0000
0000
,
0000
0000
0000
0000
0000
0000
0000
0000
3001
0010
0100
0000
1000
0000
0100
0000
,
0010
0000
0001
0000
0010
0000
0000
0000
0000
0000
0001
0100
0010
1000
0010
0100
,
0001
1000
0100
0010
1001
0100
0100
1001
,
0010
0010
1001
0100
0100
1001
0010
0010
,
1001
0000
0100
0000
0100
0000
1001
0000
0010
0100
0010
0000
0001
0010
0100
0000
,
1000
0000
0100
0000
0010
0000
0001
0000
0010
0000
0000
0000
0000
0000
0001
0100
,
0010
1000
0010
0100
0001
0000
1000
0000
0100
0000
0010
0000
0110
0000
0000
0000
,
0011
0000
0000
0000
0110
0000
0000
1100
0000
0000
1010
0000
2022
0000
0000
0000
,
0000
0000
3033
1010
,
0110
0000
0000
0000
1010
0000
0000
0110
0000
0000
0101
0000
2202
0000
0000
0000
,
0000
0000
3303
0000
0001
0010
0100
1000
0001
0010
0001
0010
0100
0000
1000
0000
,
0100
1000
0001
0010
0001
0000
1000
0010
,
1000
0010
0100
0001
0100
0000
0001
0010
,
0001
0010
0100
1000
0100
0000
0010
0001
,
0010
0001
1000
0100
1000
0000
0010
0100
,
0010
0100
0001
0010
0001
0000
1000
0001
,
1000
0001
0010
0100
0010
0000
0100
1000
,
0100
1000
0010
0100
0010
0000
1000
0001
,
1000
0000
0001
0000
0100
0000
0010
0000
0100
0000
0001
0010
0110
0000
1000
0000
,
0110
1000
0101
0010
0101
0000
1001
0010
,
1001
0010
1100
0001
1100
0000
1001
0010
,
1001
0010
0101
1000
0101
0000
0110
0001
,
0110
0001
1010
0100
1010
0000
0011
1100
,
0011
0100
1001
0110
1001
0000
1100
0011
,
1100
0001
1010
0101
1010
0000
0101
1010
,
0101
1000
0011
1100
0011
0000
1010
0001
,
1010
0001
1100
0010
1100
0000
1100
1100
,
2101
0000
0000
3100
0100
0100
0100
0100
,
1000
0000
0000
1000
0100
0010
0001
0000
1000
0010
0100
0001
0101
0000
0101
0000
,
1201
0000
0000
0301
0001
0001
0001
0001
,
1000
0000
0100
1000
0000
0100
1000
0001
0010
0100
1000
0010
2020
0000
0000
0000
,
0000
0030
3200
0000
0000
0000
0320
0000
,
0000
0000
0000
0000
0032
0000
0000
0000
0000
0000
0000
0000
1003
0100
0010
0001
,
1000
0010
0100
0001
1000
0100
0010
0001
1000
0010
0100
0001
1000
0000
0000
0000
,
1010
1010
1021
0000
0000
0030
0000
0000
;
