#TITLE:E1M1;
#SUBTITLE:;
#ARTIST:m1dlet;
#TITLETRANSLIT:;
#SUBTITLETRANSLIT:;
#ARTISTTRANSLIT:;
#CREDIT:The Cosmic Pope;
#BANNER:Bn-e1m1.png;
#BACKGROUND:Bg-e1m1.png;
#LYRICSPATH:;
#CDTITLE:;
#MUSIC:E1M1.ogg;
#OFFSET:-0.072;
#SAMPLESTART:37.565;
#SAMPLELENGTH:16.300;
#SELECTABLE:YES;
#DISPLAYBPM:250.000;
#BPMS:0.000=250.000,152.000=247.000,156.000=250.000,252.000=248.000,256.000=250.000,320.000=248.000,336.000=249.500;
#STOPS:;
#BGCHANGES:;
// cache tags:
#FIRSTBEAT:32.000;
#LASTBEAT:410.000;
#SONGFILENAME:Songs/SPEEEDCOOOORE/E1M1 - [Cosmic Pope]/E1M1.sm;
#HASMUSIC:1;
#HASBANNER:1;
#MUSICLENGTH:98.873;
// end cache tags

//---------------dance-single - B. Abear----------------
#NOTES:
     dance-single:
     B. Abear:
     Challenge:
     17:
     1.000,1.000,0.303,0.506,0.966,816.000,30.000,50.000,8.000,0.000:

0000
0000
0000
0000
,
0000
0000
0000
0000
,
0000
0000
0000
0000
,
0000
0000
0000
0000
,
0000
0000
0000
0000
,
0000
0000
0000
0000
,
0000
0000
0000
0000
,
0000
0000
0000
0000
,
1001
0000
2000
0100
3100
0020
0001
0031
,
2000
0001
3001
0200
0010
0310
1000
0001
,
0010
0010
0200
1000
1300
0002
0100
0103
,
0020
0100
0130
0002
0000
0000
1003
0100
,
1100
0000
2000
0001
3001
0200
0010
0310
,
2000
0001
3001
0020
0100
0130
1000
0010
,
0100
0100
0002
1000
1003
0020
1000
1030
,
0002
0100
0103
0020
0000
0030
1010
1000
,
1001
0000
0002
0010
0013
0200
1000
1300
,
0002
1000
1003
0020
0100
0130
0001
1000
,
0100
0100
0020
0001
0031
2000
0010
3010
,
0200
0010
0310
2000
0000
0000
3001
0010
,
0011
0000
0002
1000
1003
0020
0100
0130
,
0002
1000
1003
0200
0010
0310
0001
0100
,
0010
0010
2000
0001
3001
0200
0001
0301
,
2000
0010
3010
0200
0000
0300
0101
0001
,
1001
0000
2000
0010
3010
0200
0001
0301
,
2000
0100
3100
0020
0100
0130
1000
0001
,
0100
0100
0020
1000
1030
0002
0010
0013
,
0200
1000
1300
0002
0000
0000
1003
0001
,
1001
0000
2000
0010
3010
0200
0010
0310
,
2000
0100
3100
0020
0001
0031
1000
0001
,
0010
0010
0200
1000
1300
0002
1000
1003
,
0020
0100
0130
0002
0000
0000
0000
0003
,
1001
1000
0100
0010
0001
1000
0001
0100
,
0010
1000
0001
0010
0100
1000
0001
1000
,
1001
0001
0100
0010
0100
0001
0010
0100
,
1000
0001
1000
0100
0010
0001
1000
0010
,
1000
0100
0010
0001
1000
0001
0010
0001
1000
0001
0100
0010
1000
0010
0100
0001
,
1000
0001
0100
0010
1000
0010
0100
0010
1000
0001
1000
0100
0010
0001
1000
0001
,
4000
0000
0000
0000
,
3001
0010
0100
1000
0010
0100
0001
0010
0100
1000
0001
0100
,
0001
1000
0010
1000
0001
0100
0001
1000
0010
1000
0001
1000
0100
0010
0001
1000
,
0001
1000
0100
0010
0001
0010
0001
1000
0001
1000
0010
1000
0004
0000
0000
0000
,
1003
0010
1000
0001
0100
0010
1000
0001
1000
0010
0100
0001
1000
0010
0100
0001
,
1000
0001
1000
0100
0010
0001
1000
0100
1000
0000
0000
0000
1000
0000
0000
0000
,
0001
0100
0010
1000
0001
1000
0001
0100
0010
1000
0010
0100
0001
1000
0001
0010
,
0100
1000
0001
1000
0001
0010
0001
1000
0004
0000
0000
0000
0000
0000
0000
0000
,
1003
0010
0100
0001
1000
0010
0100
0001
1000
0001
1000
0100
0010
0001
1000
0001
,
1000
0010
0100
0001
1000
0001
0100
0010
1000
0000
0001
0000
0010
0000
0100
0000
,
1000
0010
0100
0001
1000
0001
0100
0001
1000
0001
1000
0010
0100
0001
1000
0010
,
0100
0001
1000
0001
1000
0010
0100
0001
1000
0001
1000
0001
0040
0000
0000
0000
,
0130
1000
0001
1000
0001
0100
0001
1000
0010
0100
0001
1000
0001
0100
0001
1000
,
0010
1000
0001
0100
0010
1000
0001
1000
0001
0010
0100
1000
0001
0000
1000
0000
,
0001
1000
0001
0010
0100
1000
0001
0010
0001
1000
0001
0100
0010
1000
0001
1000
,
0010
0100
0001
1000
0001
1000
0100
0010
0004
0000
0000
0000
0000
0000
0000
0000
,
1003
0010
0100
0001
1000
0010
0100
0001
1000
0001
1000
0010
1000
0001
0010
0100
,
1000
0001
1000
0001
1001
0000
1001
0000
,
1000
0100
0010
0001
1000
0010
0100
0010
,
1000
0001
0010
0100
1000
0001
1000
0001
,
0010
0100
1000
0001
0100
0001
1000
0010
,
0100
0001
0010
0100
1000
0100
0010
0001
,
1000
0010
1000
0001
0100
0001
0010
0100
,
1000
0001
0100
0010
0100
0001
0010
0100
,
0010
0001
1000
0001
1000
0010
0100
0001
,
1001
0000
0000
0000
0MM0
0MM0
0MM0
0MM0
,
1000
0001
0100
0010
0100
0001
1000
0100
,
0010
0100
1000
0010
1000
0001
0100
0001
,
0010
0100
0010
0001
1000
0010
1000
0001
,
1000
0001
0010
0100
1000
0001
0100
0010
,
0100
0001
0100
0010
1000
0001
1000
0100
,
0010
0001
0010
0100
1000
0010
0100
0010
,
1000
0001
0010
0100
1000
0001
0100
0001
,
1001
0000
0000
0000
1000
0000
0000
0000
1000
0000
0000
0000
0001
1000
0001
1000
,
0001
0100
0010
1000
0001
0100
0010
1000
0001
0100
0001
1000
0001
1000
0100
0010
,
0001
1000
0001
1000
0100
0010
0001
1000
0001
1000
0001
0100
0004
0000
0000
0000
,
1003
0010
0100
0001
1000
0010
0100
0001
1000
0001
0010
0001
1000
0100
0010
0001
,
1000
0100
1000
0001
1000
0010
0100
0001
1000
0000
0000
0000
1000
0000
0000
0000
,
0001
0100
0010
1000
0001
0100
0010
1000
0001
0100
0001
1000
0001
0010
0100
1000
,
0001
1000
0001
0010
0100
1000
0001
1000
0040
0000
0000
0000
0000
0000
0000
0000
,
0130
0001
1000
0010
0100
0001
1000
0001
1000
0100
0010
0001
1000
0001
0010
0001
,
1000
0010
1000
0001
0100
0010
1000
0001
1000
0000
0100
0000
0010
0000
0001
0000
,
1001
0000
1000
0000
0100
0000
0010
0001
,
1000
0010
0100
0001
1000
0001
1000
0100
,
0010
0001
1000
0001
0100
0010
0100
0001
,
1000
0001
0010
0100
1000
0001
1000
0001
,
0101
0100
0010
1000
0001
1000
0100
0010
,
0001
1000
0001
0010
0100
1000
0001
1001
,
1000
0010
1010
1000
0001
0010
0100
1000
,
1001
0001
0100
0010
1000
0001
0010
0001
,
1001
1000
0100
0010
0001
1000
0010
1000
,
0001
0100
0010
0100
0001
0010
0100
1000
,
1100
0100
0010
0001
1000
0001
0010
0001
,
1000
0010
0100
0001
0010
0100
1000
0001
,
1000
0010
0100
0001
1000
0010
0100
0001
1000
0010
1000
0001
1000
0100
0010
0001
,
1000
0100
0010
0001
1000
0001
1000
0010
0100
0001
1000
0010
0100
0001
1000
0010
,
4000
0000
0000
0000
,
3001
0000
0000
0000
0001
0000
0000
0000
0001
0000
1000
0001
1000
0000
0000
0000
,
2002
0000
0000
0000
,
0000
0000
0000
0000
,
0000
0000
0000
0000
,
0000
0000
0000
0000
,
0000
0000
0000
0000
,
0000
0000
0000
0000
,
0000
0000
3003
0000
;
