#TITLE:The Festival of Ghost 2;
#SUBTITLE:;
#ARTIST:O2 Jam;
#TITLETRANSLIT:;
#SUBTITLETRANSLIT:;
#ARTISTTRANSLIT:;
#CREDIT:;
#BANNER:Festival-bn.png;
#BACKGROUND:Festival-bg.png;
#LYRICSPATH:;
#CDTITLE:!aptitle.png;
#MUSIC:The Festival of Ghost 2 (Sneak).mp3;
#OFFSET:-3.650;
#SAMPLESTART:27.001;
#SAMPLELENGTH:14.500;
#SELECTABLE:YES;
#BPMS:0.000=136.500,12.000=68.250,30.000=67.750,31.500=135.500,37.500=136.000,73.500=135.500,92.000=136.500,97.500=65.000,98.500=62.000,99.500=59.000,100.500=56.000,101.500=54.000,102.500=52.000,103.500=92.000,105.000=92.000,106.500=137.500,112.000=136.500,128.000=135.500,148.000=136.500,154.500=68.500,156.500=136.000,160.500=68.500,162.500=136.500,166.500=135.500,178.500=135.000,182.500=136.500,202.500=135.500,217.000=136.500,218.500=68.500,220.500=145.000,240.000=146.500,284.000=146.000,297.000=136.000,297.500=133.000,298.000=130.000,298.500=127.000,299.000=124.000,299.500=121.000,300.000=118.000,300.500=115.000,301.000=112.000,301.500=102.000,302.000=92.000,302.500=82.000,303.000=72.000,303.500=62.000,304.000=52.000,304.500=42.000,304.750=32.000,305.000=1.000;
#STOPS:;
#BGCHANGES:;
// cache tags:
#FIRSTBEAT:3.750;
#LASTBEAT:305.063;
#SONGFILENAME:Songs/Community Keyboard Megapack - Volume 2/(Reach) The Festival of Ghost 2/Festival.sm;
#HASMUSIC:1;
#HASBANNER:1;
#MUSICLENGTH:156.960;
// end cache tags

//---------------dance-single - ----------------
#NOTES:
     dance-single:
     :
     Challenge:
     12:
     0.998,1.000,1.000,0.217,0.892,767.000,296.000,34.000,0.000,0.000:
0000
0000
0000
0000
0000
0000
0000
0000
0000
0000
0000
0000
0000
0000
0000
2001
,
0000
0000
0000
0000
0000
0000
0000
0100
0000
0000
0000
0000
0000
0010
0000
0000
,
0000
0000
0000
0001
0000
0000
0000
0000
0000
0000
0000
0000
0000
0000
0000
0000
,
0000
3001
0000
0000
0000
0000
0000
0000
0000
0000
0000
0000
1001
0000
1100
0000
,
1100
1001
1100
1100
1001
0101
0101
1001
,
0101
0000
0101
0000
1000
0010
0100
0001
0010
0100
2000
0000
0010
0000
3010
0000
,
0001
0100
0010
0010
0010
0000
0001
0100
0010
0010
0010
0000
0001
0010
0100
1000
,
0200
0000
0000
0000
2300
0000
0000
0000
0010
0000
0000
0000
3010
0000
0000
0000
1001
0000
1000
0100
0010
0000
0100
0010
0001
0000
0010
0100
1001
0000
0000
0000
,
0100
0100
1001
0010
0010
1001
0100
0100
,
1001
0010
0010
1001
0000
1100
0000
1001
,
0000
1100
0000
1001
0000
1100
0000
1001
,
0000
0000
0000
0000
0101
0000
0000
0000
0000
0000
0100
0010
0002
0000
0000
0000
0000
0000
0000
0000
0000
0000
0000
0000
0000
0000
0000
0000
0000
0000
0000
0000
,
0023
0000
0030
1100
0110
1100
0011
1100
,
0000
1001
0000
0000
1100
0000
0001
0010
0100
0000
1100
0000
0001
0010
0100
0000
,
1100
0000
0001
0010
0100
0010
1001
0000
1100
0000
0110
0000
0011
0000
1001
0000
,
0000
1010
0000
0000
1100
0000
0001
1000
0001
0000
0010
1000
0010
0000
0000
0100
,
1000
0010
0100
0001
1000
0010
0100
0000
1100
0000
0110
0000
0011
0000
1001
0000
,
0000
1100
0000
0000
1010
0000
0001
0010
0100
0000
1100
0000
0001
0010
0100
0000
,
1100
0000
0001
0010
0100
0010
1001
0000
1100
0010
0001
0100
0010
1000
0101
0000
,
0000
1100
0000
0000
1001
0000
0100
0100
0011
0100
1001
0110
0000
1010
0000
1010
,
0101
1001
0110
0011
0000
1100
0000
0011
,
0000
0000
0000
0000
1010
0000
0000
0000
0000
0000
0010
0100
1001
0000
0000
0000
0000
0000
0000
0000
1100
0000
0000
0000
0000
0000
0000
0000
1001
0000
0000
0000
,
0110
1001
0011
1010
0000
1100
0000
1001
,
0000
0000
0000
0000
1100
0000
0000
0000
1001
0000
0000
0000
0120
0000
0000
0000
0000
0000
0000
0000
0000
0000
0000
0000
0030
1000
0100
0010
0001
0000
0000
0000
,
0000
0000
0000
0101
0000
0000
0000
0000
0000
1000
0100
0010
0001
0010
0100
1000
0100
0010
0001
0010
0100
1000
0100
0010
,
0001
0000
0010
0000
0100
0000
1000
0000
0100
0000
0010
0000
0001
0000
0010
0000
0100
0000
1000
0000
0100
0000
0010
0000
0001
0000
0010
0000
0100
0000
1000
0000
0100
0000
0010
0000
0001
0000
0010
0000
0100
0000
1001
0000
0000
1100
0000
0000
,
0110
0011
0101
1100
1010
0101
0011
1100
0110
0011
2001
0000
0000
0000
3010
0000
,
0000
0000
1002
0000
0000
0000
1003
0000
0000
0000
1000
0100
0010
0001
1000
0100
,
0010
0001
1000
0100
0010
0001
1000
0100
0010
0001
1100
0001
0010
0100
1000
0001
,
0010
0100
1000
0100
0010
0001
1000
0100
0010
0001
1010
0001
0010
0100
1000
0001
,
0010
0100
0010
0001
0100
0010
1000
0001
0100
0001
1000
0100
1000
0010
1000
0001
,
1000
0010
1000
0001
0100
0001
0010
0001
1000
0001
0010
0100
1000
0001
0010
0100
,
0010
0001
0010
0100
1000
0001
0100
0010
1000
0100
1001
0010
0100
1000
0001
0010
,
0100
1000
0100
0010
0001
1000
0100
0010
0001
1000
1001
0010
0100
1000
0001
0010
,
0100
1000
0001
0100
0010
1000
0001
0100
0001
0010
0101
0000
0000
0000
1200
0000
,
0300
0000
0000
0000
1010
0000
0000
0000
0000
0000
0100
0010
2001
0000
0000
0000
3000
0000
0000
0000
0101
0000
0000
0000
1100
0000
0000
0000
0011
0000
0000
0000
,
1100
0000
0011
0000
0110
0000
1100
0000
1001
0000
0110
0000
0000
0110
0000
0110
,
0110
0000
0110
0000
0000
0110
0000
0110
1001
0000
0110
1001
0110
0000
0000
0000
,
0000
0000
0000
0000
1000
0000
0000
0000
0000
0000
0011
0011
0110
0011
0011
1010
,
0011
1100
0001
0010
0100
1000
0001
0010
0100
1000
0100
0010
0001
1000
0100
0010
,
0001
0000
0000
1000
0000
0000
0011
0000
0000
0011
0000
0000
0110
0000
0000
0011
0000
0000
0011
0000
0000
1010
0000
0000
0011
0000
0000
1100
0000
0000
0001
0000
0000
0000
0010
0000
0000
0000
0100
0000
0000
0000
1000
0000
0000
0000
0100
0000
,
0000
0000
0010
0000
0000
0000
0001
0000
0000
0000
0010
0000
0000
0000
0100
0000
0000
0000
1000
0000
0000
0000
0100
0000
0000
0000
0010
0000
0000
0000
1001
0000
0000
0010
0000
0000
0100
0000
0000
0010
0000
0000
1100
0000
0000
0001
0000
0000
,
0100
0001
0010
0100
1001
0100
0010
0001
0010
0100
1001
0010
0100
1000
0100
0010
,
1001
0100
0010
0001
0010
0100
1001
0010
1001
0100
0010
0001
0010
0100
1001
0010
,
0100
0000
0000
1000
0000
0000
0100
0000
0000
0010
0000
0000
1001
0000
0000
0100
0000
0000
0010
0000
0000
0001
0000
0000
1010
0000
0000
0100
0000
0000
1001
0000
0000
0000
0010
0000
0000
0000
0100
0000
0000
0000
1000
0000
0000
0000
0100
0000
,
0000
0010
0000
0001
0000
0010
0000
0100
0000
1000
0000
0100
0000
0010
0000
1001
0000
0000
0100
0000
0000
1010
0000
0000
,
0001
1000
0001
0000
1000
0000
1010
0000
0100
1000
0001
0000
0100
0000
1010
0000
,
0100
0010
1000
0000
0100
0000
1010
0000
0010
0000
1100
0000
0110
0000
0011
0000
,
0101
0110
1010
1001
1010
2001
3010
1100
,
0011
1100
0011
0110
0011
2010
3001
0110
,
0011
0000
1010
0000
0011
0000
1100
0000
0011
0000
2001
3100
0001
0010
0001
0010
,
0100
1000
0010
0100
0001
0010
0001
0100
0001
1000
0011
0100
1000
0010
0100
0001
,
0010
0001
1000
0001
0100
0010
1000
0010
0100
0001
1010
0100
1000
0100
1000
0001
,
1000
0010
0100
0001
0100
0010
1000
0001
0010
0001
1100
0010
0001
0010
0100
1000
,
0010
0100
0001
1000
0010
0100
0001
0100
0010
0000
2002
0000
0003
0002
0000
0003
,
0002
3003
1001
0000
0000
0000
1000
0000
0100
0010
0001
0000
0010
0000
0100
0000
,
1000
0000
0001
0010
0100
1000
0001
0100
0010
1000
0001
0010
0100
1000
0001
0010
,
0100
1000
1001
0000
0000
0000
1100
0000
0100
0000
0001
0000
1000
0000
0010
0000
,
0100
0000
0001
0010
0100
1000
0001
0010
0100
1000
0100
0010
0001
1000
0100
0010
,
0001
1000
1001
0000
0000
0000
1100
0000
0110
1001
0110
0000
0011
0000
1010
0000
,
0110
0000
1010
0000
0101
0000
1010
0101
1010
0000
1100
0000
0011
0000
1100
0011
,
1100
0000
0001
0010
0100
1000
0001
0010
0100
1000
0001
0100
0010
1000
0001
1000
,
0010
0100
1001
0000
1100
0000
0110
0011
0000
1010
0000
1010
0101
0000
0101
0000
,
1100
0000
0011
0000
1010
0000
1010
0101
0000
0110
0000
0110
0011
0000
0110
0000
,
1100
0011
1100
0101
1100
0011
1100
1001
,
0101
0000
2001
3000
0110
0000
0011
0000
0110
0000
1100
0000
1001
0000
0110
1001
,
0110
0000
2001
3000
1100
0000
0011
0000
1100
0000
0110
0000
0101
0000
0110
0000
,
1100
0000
2001
3000
0101
0000
1000
0010
0100
0000
0010
0100
0001
0000
1100
0000
,
0110
0000
2001
3000
0110
0000
0101
0000
1100
0000
2001
3000
0110
0000
2001
3000
,
1010
0000
2001
3000
0011
0000
0110
0000
1100
0000
2001
3000
0100
0001
2010
3000
,
0110
0000
1010
0000
0000
0000
2001
3000
0000
0000
0101
0000
0000
0000
2001
3000
,
0000
0101
1100
0011
1100
0101
1100
0011
,
0101
0000
2001
3000
1100
0000
0101
0000
1100
0000
0011
0000
1100
0000
0011
0000
,
0101
0000
2001
3000
0011
0110
0000
0110
1100
0000
2002
3003
0011
0110
0000
0110
,
1100
0000
1001
0110
2001
0000
0000
0000
0000
0000
0000
0000
0000
0000
0000
0000
,
0000
0000
0000
0000
,
0000
3001
0000
0000
;

//---------------dance-single - Copied from----------------
#NOTES:
     dance-single:
     Copied from:
     Edit:
     15:
     0.932,1.000,1.000,0.229,1.000,765.000,223.000,36.000,1558.000,0.000:
0000
0000
0000
0000
0000
0000
0000
0000
0000
0000
0000
0000
0000
0000
0000
2MM1
,
0000
0000
0000
0000
0000
0000
0M00
0100
0M00
0000
0000
0000
00M0
0010
00M0
0000
,
0000
0000
000M
0001
000M
0000
0000
0000
0000
0000
0000
0000
0000
0000
0000
0000
,
0MMM
30M1
000M
0000
0000
0000
0000
0000
0000
0000
0000
0000
1MM1
0M00
1100
00M0
,
11M0
0M00
1MM1
0M00
1100
M000
1100
0M00
1MM1
00M0
01M1
0M00
M1M1
00M0
1MM1
00M0
,
M1M1
00M0
M1M1
00M0
1MMM
0M10
01M0
00M1
0M10
M100
2M00
0MMM
0M10
0MMM
3M10
0MMM
,
MMM1
01M0
MM10
0M1M
MM10
MMMM
0MM1
M100
0M10
001M
0M10
0000
00M1
0M10
M100
1M00
,
02M0
0000
00M0
0000
23M0
0000
0M00
0000
0M1M
0000
0M00
0000
3M1M
0000
0M00
0000
1MM1
0000
10M0
0100
001M
0000
M100
0010
0M01
0000
001M
0100
10M1
0000
00M0
0000
,
M1M0
0M00
01M0
0M00
1MM1
0M00
0M1M
00M0
0M1M
00M0
1MM1
MM00
M1M0
0M0M
01M0
MM00
,
1MM1
0M0M
0M1M
0MM0
0M1M
M00M
1MM1
0000
0000
MMMM
11MM
MMMM
0000
MMMM
1MM1
MMMM
,
0000
MMMM
11MM
MMMM
0000
MMMM
1MM1
MMMM
0000
MMMM
11MM
MMMM
0000
MMMM
1MM1
MMMM
,
0000
0000
MMMM
0000
M1M1
0000
MMMM
0000
M0MM
0000
M1MM
0010
MM02
0000
0000
0000
0000
0000
0000
0000
0000
0000
0000
0000
0000
0000
0000
0000
0000
0000
0000
0000
,
0023
0000
0030
11MM
M11M
11MM
MM11
11MM
,
0000
1MM1
0000
0000
11MM
0000
0MM1
0M1M
M1M0
0000
11MM
0000
0MM1
0M1M
M1M0
0000
,
11MM
0000
0MM1
0M1M
M1M0
0M1M
1MM1
0MM0
11MM
0000
M11M
0000
MM11
0000
1MM1
0000
,
0000
1M1M
0000
0000
11MM
0000
0MM1
1MM0
0MM1
0000
0M1M
1M0M
0M1M
00M0
00M0
01MM
,
1M0M
0M1M
M1M0
M0M1
1M0M
0M1M
M1M0
M0M0
11MM
0000
M11M
0000
MM11
0000
1MM1
0000
,
0000
11MM
0000
0000
1M1M
0000
0MM1
0M1M
M1M0
0000
11MM
0000
0MM1
0M1M
M1M0
0000
,
11MM
0000
0MM1
0M1M
M1M0
0M1M
1MM1
0000
01MM
0M10
00M1
M100
001M
1M00
M1M0
0000
,
0000
11MM
0000
0000
1MM1
0000
0100
0100
MM10
01MM
1MM0
M10M
0000
1M1M
0000
1M1M
,
M1M1
1MM1
M11M
MM11
0000
11MM
0000
MM11
,
0000
0000
0000
0000
1M1M
0000
0000
0000
0000
0000
0M1M
0100
10M1
0000
0000
0000
0000
0000
0000
0000
11MM
0000
0000
0000
0000
0000
0000
0000
1MM1
0000
0000
0000
,
M11M
1MM1
MM11
1M1M
0000
11MM
0000
1MM1
,
0000
0000
0000
0000
11MM
0000
0000
0000
1MM1
0000
0000
0000
M12M
0000
0000
0000
0000
0000
0000
0000
0000
0000
0000
0000
0M30
1000
01M0
0010
0M01
0000
0000
0000
,
0000
0000
0000
0000
0000
0000
M1M1
0000
0000
0000
0000
0000
0000
0000
0000
0000
0000
0000
1M0M
0000
0100
M00M
0010
0000
MM01
0000
0010
M00M
0100
0000
10MM
0000
0100
M00M
0010
0000
0MM1
0000
0010
M00M
0100
0000
10MM
0000
0100
M00M
0010
0000
,
MM01
0000
0010
M00M
0100
0000
10MM
0000
0100
M00M
0010
0000
MM01
0000
0010
M00M
0100
0000
10MM
0000
0100
M00M
0010
0000
MM01
0000
0010
M00M
0100
0000
10MM
0000
0100
M00M
0010
0000
MM01
0000
0010
M00M
0100
0000
1MM1
0000
0000
M1M0
0000
0000
,
0M1M
M0M1
01MM
1M0M
MM10
M0M1
M01M
M10M
MM10
M0M1
2MM1
00M0
00M0
00M0
3M1M
0000
,
0000
0000
1MM2
0M00
0M00
0M00
1MM3
0000
0000
0000
1M00
01M0
001M
0M01
10M0
010M
,
M010
0M01
10M0
010M
M010
0M01
10M0
010M
M010
0M01
10M0
0M01
M010
010M
10M0
0M01
,
M010
010M
10M0
010M
M010
0M01
10M0
010M
M010
0M01
1MM0
0M01
M010
010M
10M0
0M01
,
M010
M10M
M010
0M01
M10M
0M10
10M0
0M01
M100
0M01
10M0
01MM
10M0
0M10
1M00
00M1
,
1M00
001M
1M00
00M1
M1M0
0M01
M010
0M01
1MM0
00M1
0M10
M100
100M
00M1
0M10
M100
,
0M10
M001
0M10
010M
10M0
0M01
M100
0M10
10M0
010M
00M1
0M10
M100
100M
00M1
0M10
,
01M0
100M
01M0
M010
0M01
10M0
010M
M010
0M01
1MM0
0M01
M010
010M
10M0
0M01
M010
,
010M
10M0
0M01
M100
001M
1M00
00M1
M100
00M1
0M10
MMM1
0000
0000
0000
12MM
0000
,
0300
0000
0000
0000
1M1M
0000
0000
0000
0000
0000
M1M0
0010
2M01
0000
0000
0000
3000
0000
0000
0000
M1M1
0000
0000
0000
11MM
0000
0000
0000
MM11
0000
0000
0000
,
11MM
0000
MM11
0000
M11M
0000
11MM
0000
1MM1
0000
M11M
0000
0000
M11M
0MM0
M11M
,
M11M
0MM0
M11M
M00M
0MM0
M11M
0MM0
M11M
1MM1
M00M
MM1M
1MMM
MM1M
0000
0000
0000
,
0000
0000
0000
0000
1000
0000
0000
0000
0000
0000
MM11
MM11
M11M
MM11
MM11
1M1M
,
MM11
11MM
00M1
0M10
M100
100M
00M1
0M10
M100
1M00
01M0
001M
M001
1M00
01M0
001M
,
M001
0000
0000
1MMM
0000
0000
MM11
0000
0000
MM11
0000
0000
M11M
0000
0000
MM11
0000
0000
MM11
0000
0000
1M1M
0000
0000
MM11
0000
0000
11MM
0000
0000
00M1
0000
0000
0M00
0010
0000
M000
0000
0100
00MM
0000
0000
1MM0
0000
0000
00MM
0100
0000
,
000M
0000
0010
MM00
0000
0000
MMM1
0000
0000
0M00
0010
0000
000M
0000
0100
00M0
0000
0000
1M00
0000
0000
00M0
0100
0000
000M
0000
0010
M000
0000
0000
0MM1
0000
0000
M010
0000
0000
010M
0000
0000
M010
0000
0000
01M0
0000
0000
00M1
0000
0000
,
01M0
M001
M010
M100
10M0
01M0
0M10
0M01
0M10
01M0
00M1
0M10
01M0
1M00
01M0
0M10
,
10M0
M100
0M10
00M1
0M10
M100
1M00
0M10
1M00
010M
M010
M001
M010
M1M0
0MM1
MM10
,
M10M
0000
0000
100M
0000
0000
M10M
0000
0000
MM10
0000
0000
1MM0
0000
0000
01MM
0000
0000
0M1M
0000
0000
0M01
0000
0000
0M10
0000
0000
01M0
0000
0000
10M0
0000
0000
M000
0010
0000
M000
0000
0100
M00M
0000
0000
100M
0000
0000
00M0
0100
0000
,
M000
0000
0010
M000
0000
0000
MMM1
0000
0000
M000
0010
0000
M000
0000
0100
M0M0
0000
0000
100M
0000
0000
00M0
0100
0000
M000
0000
0010
0M00
0000
0000
1MM1
0000
0000
00M0
0000
0000
M1M0
0000
0000
00M0
0000
0000
1M1M
0000
0000
00M0
0000
0000
,
0MM1
1MM0
0MM1
00M0
1M0M
00M0
1M1M
00M0
01MM
1M00
0M01
0M00
M1M0
0M00
1M1M
0M00
,
M1M0
0M10
1M00
0M00
M1M0
0M00
1M1M
0M00
MM10
0M00
11MM
0MM0
M11M
0M00
MM11
0M00
,
M1M1
0M00
M11M
0M00
1M1M
0M00
1MM1
0M00
1M1M
0M00
2MM1
0M00
3M1M
0M00
11MM
00M0
,
MM11
00M0
11MM
0M00
MM11
00M0
M11M
00M0
MM11
00M0
2M1M
00M0
3MM1
00M0
M11M
00M0
,
MM11
00M0
1M1M
00M0
MM11
00M0
11MM
00M0
MM11
00M0
2MM1
31M0
0M01
0M10
0M01
0M10
,
010M
100M
001M
M10M
M001
M010
0MM1
01M0
00M1
10M0
0M10
01M0
10M0
M010
M100
MM01
,
MM10
MM01
10M0
00M1
01M0
0M10
1M00
0M10
01M0
M0M1
1MM0
01M0
10M0
01MM
1MM0
0M01
,
1M00
0M10
01M0
00M1
01M0
0M10
1M00
0MM1
0M10
0M01
1MMM
0M10
0M01
0M10
01M0
10M0
,
0M1M
0000
01M0
0000
00M1
0000
10M0
0000
0M1M
0000
M1M0
0000
0MM1
0000
M1M0
0000
M01M
0000
0000
0000
2MM2
0000
0000
0000
0MM3
0MMM
00M2
0000
0000
0000
00M3
0MMM
,
00M2
00M0
30M3
000M
1MM1
0000
MMMM
0000
0000
0000
MMMM
0000
1MMM
0000
MMMM
0000
01M0
0000
0M1M
0000
00M1
0000
0000
0000
0M1M
0000
0000
0000
M1M0
0000
0000
0000
,
1MM0
0000
00M1
0M10
M100
10M0
0M01
01M0
M010
1M00
00M1
0M10
M100
100M
00M1
0M10
,
M100
10M0
1MM1
00M0
00M0
00M0
11MM
MMMM
M1M0
0000
0MM1
0000
1MM0
0000
0M1M
0000
,
M1M0
0000
00M1
0M10
M100
10MM
00M1
0M10
M100
1MMM
01M0
001M
M001
1M00
01M0
001M
,
0MM1
1MM0
1MM1
00M0
00M0
00M0
11MM
00M0
MM1M
M1MM
MM1M
0M00
MM11
0M00
1M1M
0M00
,
M11M
0M00
1M1M
0M00
M1M1
0M00
1MMM
M1MM
1MMM
0M00
11MM
0M00
MM11
0M00
M1MM
MM1M
,
M1MM
0M00
0M01
0M10
01M0
10M0
00M1
0M10
01M0
10M0
00M1
01M0
0M10
1M00
0M01
1M00
,
0M10
01M0
1MM1
00M0
11MM
00M0
M1MM
MM1M
00M0
1M1M
0000
1MMM
MMM1
0000
00M2
00M0
,
00M0
0000
0000
0000
00M0
0000
0000
0000
MM13
000M
0000
0000
0M00
0000
0000
0000
1M1M
0000
0000
0000
0M00
0000
0000
0000
1MMM
0000
0000
0000
MMM1
0000
0000
0000
0000
0000
0000
0000
M1MM
0000
0000
0000
0000
0000
0000
0000
M1MM
0000
0000
0000
M1MM
0000
0000
0000
0000
0000
0000
0000
MMM2
0000
0000
0000
MMM0
0000
0000
0000
,
MMM0
0000
0000
0000
MMM3
000M
0000
0000
0010
0000
0000
0000
0000
0000
0000
0000
11MM
0000
0000
0000
00M0
0000
0000
0000
M1M1
0000
0000
0000
00M0
0000
0000
0000
11MM
0000
0000
0000
0M00
0000
0000
0000
MM11
0000
0000
0000
0M00
0000
0000
0000
11MM
0000
0000
0000
0M00
0000
0000
0000
1MM1
0000
0000
0000
0M00
0000
0000
0000
,
M1M1
0M00
2MM1
3M00
M11M
0M00
MM11
0M00
M11M
0M00
11MM
0M00
1MM1
0M00
M10M
M01M
,
M10M
00M0
2MM1
3M00
11MM
0M00
MM11
0M00
11MM
0M00
M11M
0M00
M1M1
0M00
M11M
0M00
,
11MM
0M00
2MM1
3M00
M1M1
0M00
1MM0
0M10
01M0
0M00
0M10
01M0
00M1
0M00
11MM
0M00
,
M11M
0M00
2MM1
3M00
M11M
0M00
M1M1
0M00
11MM
0M00
2MM1
3M00
M11M
0M00
2MM1
3M00
,
1M1M
0M00
2MM1
3M00
MM11
0M00
M11M
0M00
11MM
0M00
2MM1
3M00
01M0
00M1
2M1M
3M00
,
M11M
0M00
1M1M
0M00
0M00
MMMM
2MM1
30M0
00M0
00M0
M1M1
00M0
00M0
00M0
2MM1
30M0
,
00M0
00M0
M1M1
00M0
11MM
00M0
MM11
00M0
11MM
00M0
M1M1
00M0
11MM
00M0
MM11
00M0
,
M1M1
00M0
2MM1
30M0
11MM
00M0
M1M1
00M0
11MM
00M0
MM11
00M0
11MM
00M0
MM11
00M0
,
M1M1
MMMM
2MM1
3MMM
MM1M
M1MM
MMMM
MM1M
M1MM
MMMM
2MM2
3MM3
MM1M
M1MM
MMMM
MM1M
,
M1MM
MMMM
1MM1
M11M
2MM1
0000
0000
0000
0000
0000
0000
0000
0000
0000
0000
0000
,
0000
0000
0000
0000
,
0000
0000
0000
0000
0000
0000
0000
0000
0000
0000
0000
0MMM
0MMM
0MMM
0MMM
0MMM
3MM1
MMMM
0000
0000
0000
0000
0000
0000
0000
0000
0000
0000
0000
0000
0000
0000
0000
0000
0000
0000
0000
0000
0000
0000
0000
0000
0000
0000
0000
0000
0000
0000
0000
0000
0000
0000
0000
0000
0000
0000
0000
0000
0000
0000
0000
0000
0000
0000
;
