#TITLE:For A Pessimist I'm Pretty Optimistic;
#SUBTITLE:;
#ARTIST:Paramore;
#TITLETRANSLIT:;
#SUBTITLETRANSLIT:;
#ARTISTTRANSLIT:;
#CREDIT:;
#BANNER:pessimist - bn.png;
#BACKGROUND:pessimist - bg.png;
#LYRICSPATH:;
#CDTITLE:../aCD.png;
#MUSIC:For A Pessimist I'm Pretty Optimistic.ogg;
#OFFSET:0.009;
#SAMPLESTART:29.266;
#SAMPLELENGTH:12.000;
#SELECTABLE:YES;
#BPMS:0.000=205.000;
#STOPS:;
#BGCHANGES:;
// cache tags:
#FIRSTBEAT:4.000;
#LASTBEAT:601.000;
#SONGFILENAME:Songs/Aoreo's Index Jawn 2/For A Pessimist I'm Pretty Optimistic - [Aoreo]/For A Pessimist I'm Pretty Optimistic.sm;
#HASMUSIC:1;
#HASBANNER:1;
#MUSICLENGTH:176.487;
// end cache tags

//---------------dance-single - J. Nero----------------
#NOTES:
     dance-single:
     J. Nero:
     Hard:
     27:
     1.000,1.000,0.725,0.136,1.000,1698.000,128.000,24.000,0.000,11.000:
0000
0000
0000
0000
,
1001
0000
0001
0101
0000
0100
1010
0000
,
0010
0101
0000
0100
0110
0010
1000
0100
,
0110
0000
0010
0011
0000
0001
1001
0000
,
1000
1010
0000
0001
0101
0100
0001
0010
,
0110
0000
0100
1100
0000
1000
1001
0000
,
0001
0101
0000
1000
1100
0100
0010
0001
,
1001
0000
1000
1010
0000
0001
0101
0000
,
1001
1000
0100
0010
0001
0001
0001
1000
,
1010
0000
0001
0101
0000
0100
0110
0000
,
0010
1010
0000
1000
1100
0010
0001
1000
,
1010
0000
0010
0101
0000
0100
1010
0000
,
0010
0110
0000
0100
0101
0001
0010
0100
,
1100
0000
1000
1001
0000
0001
0101
0000
,
0001
0011
0000
0010
0110
0100
1000
0001
,
0101
0000
0100
1010
0000
0010
0101
0000
,
1001
1000
0100
0010
0001
0001
0001
1000
,
1010
0110
0000
0101
,
0000
0110
0000
1010
,
0000
1100
0000
0110
,
0000
0011
0000
1111
,
1000
0001
0010
0001
0100
0010
1000
0001
1000
0100
0010
0001
0100
0001
1000
0010
,
0100
0010
1000
0001
0010
0100
1000
0010
0100
0001
0100
0010
1000
0001
1000
0100
,
0010
0100
1000
0010
0100
0001
1000
0100
0010
0001
0100
0001
1000
0010
0100
0001
,
0010
0100
1000
0001
0100
0010
0100
0001
1000
0100
1000
0010
0100
0001
0010
0100
,
1000
1001
0000
0011
,
0000
0110
0000
1100
,
0000
1001
0000
1010
,
0000
0110
0000
1111
,
0001
0100
0001
0010
0100
1000
0001
1000
0010
0100
0001
1000
0100
1000
0010
0100
,
0010
1000
0001
1000
0100
0010
0001
1000
0001
0100
0001
0010
0100
1000
0001
0100
,
0010
1000
0100
0010
0001
1000
0001
0100
0010
1000
0001
0010
0100
0010
0001
0100
,
0010
1000
0010
0100
0001
1000
0001
0010
0100
1000
0010
0100
0001
1000
0100
1000
,
0001
0001
0010
0100
1000
1000
0010
0100
,
0001
0001
0010
0100
1000
1000
0001
0100
,
0010
0010
1000
0001
0010
0010
0100
1000
,
0001
0001
0100
0010
1000
0100
0010
0022
,
0000
0000
0000
0033
0000
0000
2002
0000
0000
3003
0000
0000
1000
0100
1000
0010
0100
0001
1000
0001
0010
0100
1000
0001
,
0100
0001
1000
0010
0100
0010
1000
0001
0010
0100
1000
0001
0100
0001
1000
0100
1000
0001
0100
0010
1000
0002
0000
0000
,
0000
0003
1001
0000
1100
0000
0100
0010
,
0011
0000
0001
1000
0100
0000
1000
0010
,
0110
0100
0001
0100
0100
1000
0010
0010
,
0001
1000
0100
0100
0001
1000
0010
0010
,
0001
1000
0100
0100
0001
0010
0100
0100
,
0002
0000
0100
0000
0103
0001
1000
0100
,
2200
3300
0000
1000
,
2002
3003
0000
0001
,
0202
0303
0000
0000
,
0110
0000
0000
0000
,
1001
0001
0010
0110
0100
1000
1001
0000
,
0001
0100
0001
1000
0010
0100
0001
0100
0010
1000
0001
1000
0100
0010
0001
0100
0001
1000
0010
0100
0010
1000
0001
0010
,
0100
0010
0001
1000
0010
0100
0010
1000
0001
1000
0100
0010
0001
1000
0001
0100
0010
1000
0010
0100
0001
1000
0001
0010
,
0100
1000
0001
1000
0010
0100
0010
1000
0001
0010
0100
0010
0001
0100
0010
1000
0010
0100
0001
0100
0001
1000
0010
0100
,
0010
1000
0001
1000
0100
0010
0001
1000
0001
0100
0010
1000
0001
0010
0100
0010
0001
0100
0010
1000
0010
0100
0001
1000
,
0100
0010
0001
0100
0001
1000
0010
0100
0010
1000
0001
1000
0100
0010
0001
0100
0001
1000
0100
0010
0100
1000
0001
0100
,
0010
1000
0010
0100
0001
1000
0001
1000
0100
0010
0001
0100
0001
1000
0010
0100
0001
1000
0100
1000
0010
0100
0010
1000
,
0001
0010
0001
0100
0010
1000
0001
1000
0100
0010
0001
0100
0001
1000
0010
0100
0010
1000
0001
0010
0100
1000
0010
1000
,
0001
0100
0001
0100
0010
1000
0001
1000
0100
0010
0001
0100
0001
1000
0100
1000
0100
0010
0001
1000
0001
0100
0010
1000
,
0010
0100
0001
0010
0100
1000
0001
1000
0010
0100
0001
0010
0001
0100
0010
1000
0010
0100
0001
1000
0100
0010
0001
0100
,
0001
1000
0100
0010
0100
1000
0001
1000
0010
0100
0001
0100
0001
1000
0100
0010
0001
1000
0001
0100
0010
1000
0001
0100
,
0001
1000
0100
0010
0100
1000
0001
1000
0010
0100
0010
1000
0001
0010
0100
0010
0001
0100
0010
1000
0010
0100
0001
1000
,
0100
0010
0001
0100
0001
1000
0010
0100
0001
0010
0001
1000
0100
0010
0001
0100
0001
1000
0100
0010
0100
1000
0010
1000
,
0001
0100
0010
1000
0001
1000
0100
0010
0001
0100
0001
1000
0100
0010
0100
1000
0001
0010
0001
0100
0010
1000
0010
0100
,
0001
1000
0100
0010
0001
1000
0001
0100
0010
0100
0001
1000
0100
0010
0001
1000
0001
0010
0100
0010
0001
1000
0001
1000
,
0010
0100
0001
1000
0010
0100
0010
1000
0001
1000
0100
0010
0001
1000
0001
0100
0010
1000
0001
0010
0100
1000
0001
0100
,
0001
0000
0100
0101
0000
0001
1001
0000
,
1100
0000
0100
0110
0000
0010
0011
0000
,
0001
1001
0000
1000
1100
0100
0010
0001
,
1001
0000
1000
1010
0000
0100
0101
0001
,
0010
0000
0000
0100
0000
0000
1000
0000
0000
0001
0000
0000
1000
0000
0000
0010
0000
0000
0100
0000
0000
0001
0000
0000
1000
0000
0000
0100
0000
0000
0010
0000
0000
0001
0000
0000
1000
0000
0001
0000
1000
0000
0010
0000
0100
0000
0010
0000
,
1000
0001
1000
0100
0010
0001
1000
0001
0100
0010
1000
0001
0010
0100
0010
0001
0100
0010
1000
0001
1000
0100
0010
0001
,
0100
0001
1000
0010
0100
0001
0010
0100
1000
0010
0100
0001
1000
0000
0000
0001
0000
0000
0010
0000
0000
0100
0000
0000
,
1100
0000
1000
1010
0000
0010
0101
0000
,
0110
0100
0001
0010
0100
1000
0001
1000
,
1001
0101
0000
0110
,
0000
1010
0000
1100
,
0000
0110
0000
0011
,
0000
0000
1001
0000
0101
0100
0001
0010
,
0100
1000
0001
0010
0001
0100
0010
1000
0100
0010
0001
0100
0001
1000
0100
0010
,
0100
1000
0010
0100
0010
1000
0001
1000
0100
0010
0001
0100
0001
1000
0010
0100
,
0010
1000
0001
0010
0001
0100
0010
1000
0010
0100
0001
1000
0100
0010
0001
0100
,
0001
1000
0100
1000
0010
0100
0010
1000
0100
0010
0001
0100
0001
1000
0010
0100
,
0001
0100
0001
0010
0110
0100
1000
0001
,
0101
0100
0010
1000
1100
0100
0010
0001
,
1002
1003
0010
0100
0101
0001
0010
0100
,
1100
0100
1000
0001
0100
0010
1010
0000
,
1000
0100
1000
0010
0100
0001
1000
0100
0010
0001
0100
0001
1000
0010
0100
0010
,
1000
0001
0010
0001
0100
0010
1000
0100
0010
0001
0100
0001
1000
0010
1000
0001
,
0010
0100
0010
0001
0100
0010
1000
0100
0010
0001
0100
0001
1000
0100
1000
0010
,
0100
0010
1000
0100
0010
0001
0100
0001
1000
0100
0010
0100
1000
0010
0100
0001
,
1000
1000
0001
0100
0010
0010
1000
0100
,
0010
0010
0001
0100
0010
0010
1000
0100
,
1000
1000
0001
0100
0001
0001
1000
0010
,
0100
0100
0001
0010
0100
0100
1000
2002
,
0000
0000
0000
3003
0000
0000
0202
0000
0000
0303
0000
0000
0100
0001
1000
0100
0010
0001
0100
0010
1000
0010
0100
0001
,
0010
0100
1000
0010
0100
0010
1000
0100
0010
0001
0100
0001
1000
0000
0000
0010
0000
0000
0100
0000
0000
0202
0000
0000
,
0000
0303
2002
3003
1010
0000
0010
0100
,
0101
0000
0001
0010
0110
0000
0100
1000
,
1001
0001
1000
0100
0100
0001
0010
0010
,
1000
0001
0100
0100
1000
0001
0010
0010
,
1000
0001
0100
0100
1000
0001
0010
0010
,
2000
0000
0100
0000
3100
1000
0001
0100
,
0101
0001
0100
0100
1000
0010
0100
0100
,
1000
0001
0010
0010
0100
0001
0100
0100
,
1000
0001
0010
0010
0100
0001
0100
0100
,
1000
0000
0000
0000
,
0001
0100
0001
1000
0010
0100
0010
1000
0001
1000
0100
0010
0001
0100
0001
1000
0100
0010
0100
1000
0010
0100
0010
1000
,
0001
1000
0100
0010
0001
0100
0001
1000
0010
0100
0010
1000
0001
0010
0100
0010
0001
1000
0001
0100
0010
1000
0010
0100
,
0001
0100
0001
1000
0100
0010
0001
1000
0001
0100
0010
1000
0010
0100
0001
1000
0001
0100
0010
1000
0001
1000
0100
0010
,
0001
0100
0001
1000
0010
0100
0001
0100
0001
1000
0100
0010
0100
1000
0010
0100
0001
0100
0010
1000
0001
1000
0100
0010
,
0001
0100
0001
1000
0010
0100
0001
0010
0100
0010
0001
0100
0010
1000
0010
0100
0001
1000
0100
0010
0100
1000
0001
1000
,
0010
0100
0001
0100
0001
1000
0010
0100
0001
0100
0010
1000
0100
0010
0001
0100
0001
1000
0010
0100
0010
1000
0001
0010
,
0001
0100
0010
1000
0001
0100
0010
1000
0100
0010
0001
0100
0001
1000
0100
0010
0100
1000
0001
0100
0010
1000
0100
1000
,
0001
0100
0000
0001
1001
0000
1100
1000
,
0001
0100
0001
1000
0100
0010
0001
1000
0100
1000
0010
0100
0001
0100
0001
1000
0100
0010
0001
0100
0001
1000
0010
0100
,
0010
1000
0001
0010
0001
0100
0010
1000
0010
0100
0001
1000
0100
0010
0001
0100
0001
1000
0100
0010
0100
1000
0001
0100
,
0010
0100
0001
1000
0010
1000
0100
0010
0001
0100
0001
1000
0100
0010
0100
1000
0001
0100
0010
1000
0010
0100
0001
1000
,
0100
0010
0001
0100
0010
1000
0001
0100
0001
1000
0010
0100
0010
1000
0001
0100
0001
1000
0100
0010
0100
1000
0001
1000
,
0010
0100
0010
1000
0001
0010
0001
0100
0010
1000
0010
0100
0001
1000
0100
0010
0001
0100
0010
1000
0010
0100
0001
1000
,
0100
1000
0010
0100
0010
1000
0001
0010
0100
0010
0001
0100
0010
1000
0010
0100
0001
1000
0100
0010
0001
0100
0001
1000
,
0010
0100
0010
1000
0001
0010
0001
0100
0010
1000
0001
1000
0100
0010
0001
0100
0001
1000
0100
0010
0100
1000
0001
1000
,
0010
0100
0001
1000
0001
0010
0100
1000
0001
0100
0010
0100
0001
1000
0100
1000
0010
0100
0001
0100
0010
1000
0001
1000
,
0100
0010
0001
0100
0001
1000
0010
1000
0100
0010
0001
0100
0001
1000
0100
1000
0010
0100
0001
0100
0010
1000
0001
1000
,
0001
0010
0100
1000
0001
0100
0010
1000
0100
1000
0001
0100
0010
1000
0001
0100
0001
0100
0010
1000
0100
1000
0001
0010
,
0001
0100
0010
1000
0010
0100
0001
1000
0001
0010
0100
1000
0001
0100
0010
0100
0001
1000
0100
1000
0010
0100
0001
1000
,
0001
0010
0100
1000
0001
0100
0010
1000
0100
1000
0001
0100
0010
0100
0001
1000
0100
0010
0100
1000
0001
0100
0010
1000
,
0010
0100
0001
1000
0100
0010
0001
0100
0001
1000
0010
1000
0010
0100
0001
1000
0100
0010
0100
1000
0001
0100
0010
1000
,
0001
0100
0010
0100
0001
1000
0100
1000
0001
1000
0010
0100
0001
1000
0001
0010
0100
1000
0001
0100
0010
1000
0010
0100
,
0001
0100
0001
1000
0100
0010
0100
1000
0001
1000
0010
0100
0001
0100
0010
1000
0001
1000
0100
0010
0001
0100
0010
1000
,
0001
0100
0001
0010
0100
1000
0010
0100
,
0101
0001
1101
1000
,
1010
0010
0111
0100
,
1010
1000
1011
0001
,
0110
1000
1101
0001
,
0011
0010
1110
0100
,
1100
1000
1101
0001
,
1010
1000
1101
0001
,
0101
0100
1101
0001
,
1111
0000
1000
0001
,
1001
0000
0000
0001
1000
0100
0010
0000
0000
0000
0000
0000
,
0022
0000
0000
0000
,
0000
0000
0000
0000
,
0000
0000
0000
0000
,
0000
0000
0000
0000
,
0000
0000
0000
0000
,
0000
0000
0000
0000
,
0000
0000
0000
0000
,
0000
0000
0000
0000
,
0000
0000
0000
0000
,
0000
0000
0000
0000
,
0000
0033
0000
0000
;

//---------------dance-single - J. Nero----------------
#NOTES:
     dance-single:
     J. Nero:
     Challenge:
     28:
     1.000,1.000,0.629,0.136,1.000,1858.000,111.000,24.000,0.000,2.000:
0000
0000
0000
0000
,
1001
0000
0001
0101
0000
0100
1010
0000
,
0010
0101
0000
0100
0110
0010
1000
0100
,
0110
0000
0010
0011
0000
0001
1001
0000
,
1000
1010
0000
0001
0101
0100
0001
0010
,
0110
0000
0100
1100
0000
1000
1001
0000
,
0001
0101
0000
1000
1100
0100
0010
0001
,
1001
0000
1000
1010
0000
0001
0101
0000
,
1001
1000
0100
0010
0001
0001
0001
1000
,
1010
0000
0001
0101
0000
0100
0110
0000
,
0010
1010
0000
1000
1100
0010
0001
1000
,
1010
0000
0010
0101
0000
0100
1010
0000
,
0010
0110
0000
0100
0101
0001
0010
0100
,
1100
0000
1000
1001
0000
0001
0101
0000
,
0001
0011
0000
0010
0110
0100
1000
0001
,
0101
0000
0100
1010
0000
0010
0101
0000
,
1001
1000
0100
0010
0001
0001
0001
1000
,
1010
0110
0000
0101
,
0000
0110
0000
1010
,
0000
1100
0000
0110
,
0000
0011
0000
1111
,
1000
0001
0010
0001
0100
0010
1000
0001
1000
0100
0010
0001
0100
0001
1000
0010
,
0100
0010
1000
0001
0010
0100
1000
0010
0100
0001
0100
0010
1000
0001
1000
0100
,
0010
0100
1000
0010
0100
0001
1000
0100
0010
0001
0100
0001
1000
0010
0100
0001
,
0010
0100
1000
0001
0100
0010
0100
0001
1000
0100
1000
0010
0100
0001
0010
0100
,
1000
1001
0000
0011
,
0000
0110
0000
1100
,
0000
1001
0000
1010
,
0000
0110
0000
1111
,
0001
0100
0001
0010
0100
1000
0001
1000
0010
0100
0001
1000
0100
1000
0010
0100
,
0010
1000
0001
1000
0100
0010
0001
1000
0001
0100
0001
0010
0100
1000
0001
0100
,
0010
1000
0100
0010
0001
1000
0001
0100
0010
1000
0001
0010
0100
0010
0001
0100
,
0010
1000
0010
0100
0001
1000
0001
0010
0100
1000
0010
0100
0001
1000
0100
1000
,
0001
0001
0010
0100
1000
1000
0010
0100
,
0001
0001
0010
0100
1000
1000
0001
0100
,
0010
0010
1000
0001
0010
0010
0100
1000
,
0001
0001
0100
0010
1000
0100
0010
0022
,
0000
0000
0000
0033
0000
0000
2002
0000
0000
3003
0000
0000
1000
0100
1000
0010
0100
0001
1000
0001
0010
0100
1000
0001
,
0100
0001
1000
0010
0100
0010
1000
0001
0010
0100
1000
0001
0100
0001
1000
0100
1000
0001
0100
0010
1000
0002
0000
0000
,
0000
0003
1001
0000
1100
0000
0100
0010
,
0011
0000
0001
1000
0100
0000
1000
0010
,
0110
0100
0001
0100
0100
1000
0010
0010
,
0001
1000
0100
0100
0001
1000
0010
0010
,
0001
1000
0100
0100
0001
0010
0100
0100
,
0002
0000
0100
0000
0103
0001
1000
0100
,
2200
3300
0000
1000
,
2002
3003
0000
0001
,
0202
0303
0000
0000
,
0110
0000
0000
0000
,
1001
0001
0010
0110
0100
1000
1001
0000
,
0001
0100
0001
1000
0010
0100
0001
0100
0010
1000
0001
1000
0100
0010
0001
0100
0001
1000
0010
0100
0010
1000
0001
0010
,
0100
0010
0001
1000
0010
0100
0010
1000
0001
1000
0100
0010
0001
1000
0001
0100
0010
1000
0010
0100
0001
1000
0001
0010
,
0100
1000
0001
1000
0010
0100
0010
1000
0001
0010
0100
0010
0001
0100
0010
1000
0010
0100
0001
0100
0001
1000
0010
0100
,
0010
1000
0001
1000
0100
0010
0001
1000
0001
0100
0010
1000
0001
0010
0100
0010
0001
0100
0010
1000
0010
0100
0001
1000
,
0100
0010
0001
0100
0001
1000
0010
0100
0010
1000
0001
1000
0100
0010
0001
0100
0001
1000
0100
0010
0100
1000
0001
0100
,
0010
1000
0010
0100
0001
1000
0001
1000
0100
0010
0001
0100
0001
1000
0010
0100
0001
1000
0100
1000
0010
0100
0010
1000
,
0001
0010
0001
0100
0010
1000
0001
1000
0100
0010
0001
0100
0001
1000
0010
0100
0010
1000
0001
0010
0100
1000
0010
1000
,
0001
0100
0001
0100
0010
1000
0001
1000
0100
0010
0001
0100
0001
1000
0100
1000
0100
0010
0001
1000
0001
0100
0010
1000
,
0010
0100
0001
0010
0100
1000
0001
1000
0010
0100
0001
0010
0001
0100
0010
1000
0010
0100
0001
1000
0100
0010
0001
0100
,
0001
1000
0100
0010
0100
1000
0001
1000
0010
0100
0001
0100
0001
1000
0100
0010
0001
1000
0001
0100
0010
1000
0001
0100
,
0001
1000
0100
0010
0100
1000
0001
1000
0010
0100
0010
1000
0001
0010
0100
0010
0001
0100
0010
1000
0010
0100
0001
1000
,
0100
0010
0001
0100
0001
1000
0010
0100
0001
0010
0001
1000
0100
0010
0001
0100
0001
1000
0100
0010
0100
1000
0010
1000
,
0001
0100
0010
1000
0001
1000
0100
0010
0001
0100
0001
1000
0100
0010
0100
1000
0001
0010
0001
0100
0010
1000
0010
0100
,
0001
1000
0100
0010
0001
1000
0001
0100
0010
0100
0001
1000
0100
0010
0001
1000
0001
0010
0100
0010
0001
1000
0001
1000
,
0010
0100
0001
1000
0010
0100
0010
1000
0001
1000
0100
0010
0001
1000
0001
0100
0010
1000
0001
0010
0100
1000
0001
0100
,
0001
0000
0100
0101
0000
0001
1001
0000
,
1100
0000
0100
0110
0000
0010
0011
0000
,
0001
1001
0000
1000
1100
0100
0010
0001
,
1001
0000
1000
1010
0000
0100
0101
0001
,
0010
0000
0000
0100
0000
0000
1000
0000
0000
0001
0000
0000
1000
0000
0000
0010
0000
0000
0100
0000
0000
0001
0000
0000
1000
0000
0000
0100
0000
0000
0010
0000
0000
0001
0000
0000
1000
0000
0001
0000
1000
0000
0010
0000
0100
0000
0010
0000
,
1000
0001
1000
0100
0010
0001
1000
0001
0100
0010
1000
0001
0010
0100
0010
0001
0100
0010
1000
0001
1000
0100
0010
0001
,
0100
0001
1000
0010
0100
0001
0010
0100
1000
0010
0100
0001
1000
0000
0000
0001
0000
0000
0010
0000
0000
0100
0000
0000
,
1100
0000
1000
1010
0000
0010
0101
0000
,
0110
0100
0001
0010
0100
1000
0001
1000
,
1001
0101
0000
0110
,
0000
1010
0000
1100
,
0000
0110
0000
0011
,
0000
0000
1001
0000
0101
0100
0001
0010
,
0100
1000
0001
0010
0001
0100
0010
1000
0100
0010
0001
0100
0001
1000
0100
0010
,
0100
1000
0010
0100
0010
1000
0001
1000
0100
0010
0001
0100
0001
1000
0010
0100
,
0010
1000
0001
0010
0001
0100
0010
1000
0010
0100
0001
1000
0100
0010
0001
0100
,
0001
1000
0100
1000
0010
0100
0010
1000
0100
0010
0001
0100
0001
1000
0010
0100
,
0001
0100
0001
0010
0110
0100
1000
0001
,
0101
0100
0010
1000
1100
0100
0010
0001
,
1002
1003
0010
0100
0101
0001
0010
0100
,
1100
0100
1000
0001
0100
0010
1010
0000
,
1000
0100
1000
0010
0100
0001
1000
0100
0010
0001
0100
0001
1000
0010
0100
0010
,
1000
0001
0010
0001
0100
0010
1000
0100
0010
0001
0100
0001
1000
0010
1000
0001
,
0010
0100
0010
0001
0100
0010
1000
0100
0010
0001
0100
0001
1000
0100
1000
0010
,
0100
0010
1000
0100
0010
0001
0100
0001
1000
0100
0010
0100
1000
0010
0100
0001
,
1000
1000
0001
0100
0010
0010
1000
0100
,
0010
0010
0001
0100
0010
0010
1000
0100
,
1000
1000
0001
0100
0001
0001
1000
0010
,
0100
0100
0001
0010
0100
0100
1000
2002
,
0000
0000
0000
3003
0000
0000
0202
0000
0000
0303
0000
0000
0100
0001
1000
0100
0010
0001
0100
0010
1000
0010
0100
0001
,
0010
0100
1000
0010
0100
0010
1000
0100
0010
0001
0100
0001
1000
0000
0000
0010
0000
0000
0100
0000
0000
0202
0000
0000
,
0000
0303
2002
3003
1010
0000
0010
0100
,
0101
0000
0001
0010
0110
0000
0100
1000
,
1001
0001
1000
0100
0100
0001
0010
0010
,
1000
0001
0100
0100
1000
0001
0010
0010
,
1000
0001
0100
0100
1000
0001
0010
0010
,
2000
0000
0100
0000
3100
1000
0001
0100
,
0101
0001
0100
0100
1000
0010
0100
0100
,
1000
0001
0010
0010
0100
0001
0100
0100
,
1000
0001
0010
0010
0100
0001
0100
0100
,
1000
0000
0000
0000
,
0001
0100
0001
1000
0010
0100
0010
1000
0001
1000
0100
0010
0001
0100
0001
1000
0100
0010
0100
1000
0010
0100
0010
1000
,
0001
1000
0100
0010
0001
0100
0001
1000
0010
0100
0010
1000
0001
0010
0100
0010
0001
1000
0001
0100
0010
1000
0010
0100
,
0001
0100
0001
1000
0100
0010
0001
1000
0001
0100
0010
1000
0010
0100
0001
1000
0001
0100
0010
1000
0001
1000
0100
0010
,
0001
0100
0001
1000
0010
0100
0001
0100
0001
1000
0100
0010
0100
1000
0010
0100
0001
0100
0010
1000
0001
1000
0100
0010
,
0001
0100
0001
1000
0010
0100
0001
0010
0100
0010
0001
0100
0010
1000
0010
0100
0001
1000
0100
0010
0100
1000
0001
1000
,
0010
0100
0001
0100
0001
1000
0010
0100
0001
0100
0010
1000
0100
0010
0001
0100
0001
1000
0010
0100
0010
1000
0001
0010
,
0001
0100
0010
1000
0001
0100
0010
1000
0100
0010
0001
0100
0001
1000
0100
0010
0100
1000
0001
0100
0010
1000
0100
1000
,
0001
0100
0000
0001
1001
0000
1100
1000
,
0001
0100
0001
1000
0100
0010
0001
1000
0100
1000
0010
0100
0001
0100
0001
1000
0100
0010
0001
0100
0001
1000
0010
0100
,
0010
1000
0001
0010
0001
0100
0010
1000
0010
0100
0001
1000
0100
0010
0001
0100
0001
1000
0100
0010
0100
1000
0001
0100
,
0010
0100
0001
1000
0010
1000
0100
0010
0001
0100
0001
1000
0100
0010
0100
1000
0001
0100
0010
1000
0010
0100
0001
1000
,
0100
0010
0001
0100
0010
1000
0001
0100
0001
1000
0010
0100
0010
1000
0001
0100
0001
1000
0100
0010
0100
1000
0001
1000
,
0010
0100
0010
1000
0001
0010
0001
0100
0010
1000
0010
0100
0001
1000
0100
0010
0001
0100
0010
1000
0010
0100
0001
1000
,
0100
1000
0010
0100
0010
1000
0001
0010
0100
0010
0001
0100
0010
1000
0010
0100
0001
1000
0100
0010
0001
0100
0001
1000
,
0010
0100
0010
1000
0001
0010
0001
0100
0010
1000
0001
1000
0100
0010
0001
0100
0001
1000
0100
0010
0100
1000
0001
1000
,
0010
0100
0001
1000
0001
0010
0100
1000
0001
0100
0010
0100
0001
1000
0100
1000
0010
0100
0001
0100
0010
1000
0001
1000
,
0100
0010
0001
0100
0001
1000
0010
1000
0100
0010
0001
0100
0001
1000
0100
1000
0010
0100
0001
0100
0010
1000
0001
1000
,
0001
0010
0100
1000
0001
0100
0010
1000
0100
1000
0001
0100
0010
1000
0001
0100
0001
0100
0010
1000
0100
1000
0001
0010
,
0001
0100
0010
1000
0010
0100
0001
1000
0001
0010
0100
1000
0001
0100
0010
0100
0001
1000
0100
1000
0010
0100
0001
1000
,
0001
0010
0100
1000
0001
0100
0010
1000
0100
1000
0001
0100
0010
0100
0001
1000
0100
0010
0100
1000
0001
0100
0010
1000
,
0010
0100
0001
1000
0100
0010
0001
0100
0001
1000
0010
1000
0010
0100
0001
1000
0100
0010
0100
1000
0001
0100
0010
1000
,
0001
0100
0010
0100
0001
1000
0100
1000
0001
1000
0010
0100
0001
1000
0001
0010
0100
1000
0001
0100
0010
1000
0010
0100
,
0001
0100
0001
1000
0100
0010
0100
1000
0001
1000
0010
0100
0001
0100
0010
1000
0001
1000
0100
0010
0001
0100
0010
1000
,
0001
0100
0001
0010
0100
1000
0010
0100
,
0001
0100
0001
1000
0100
0010
0001
1000
0001
0100
0010
1000
0001
1000
0100
0010
0001
0100
0001
1000
0100
0010
0100
1000
,
0001
0100
0010
1000
0010
0100
0001
1000
0100
0010
0001
0100
0001
1000
0010
0100
0010
1000
0001
0010
0001
0100
0010
1000
,
0010
0100
0001
1000
0100
0010
0001
0100
0001
1000
0100
0010
0100
1000
0001
0100
0010
1000
0010
0100
0001
1000
0100
0010
,
0001
0100
0001
1000
0100
0010
0100
1000
0001
0100
0010
0100
0001
1000
0100
0010
0001
1000
0001
0100
0010
0100
0001
1000
,
0100
1000
0010
0100
0001
0010
0100
1000
0001
0100
0010
0100
0001
1000
0100
1000
0001
0010
0100
1000
0001
0100
0010
0100
,
0001
1000
0100
0010
0001
0100
0001
1000
0010
0100
0010
1000
0001
0010
0001
0100
0010
1000
0010
0100
0001
1000
0100
0010
,
0001
0100
0001
1000
0100
1000
0010
0100
0001
0010
0100
1000
0001
1000
0010
0100
0010
1000
0001
0100
0001
0100
0010
1000
,
0001
1000
0100
0010
0001
1000
0001
0100
0010
1000
0010
0100
0001
1000
0100
1000
0001
0100
0010
1000
0010
0100
0001
1000
,
0001
0000
1000
0001
,
1001
0000
0000
0001
1000
0100
0010
0000
0000
0000
0000
0000
,
0022
0000
0000
0000
,
0000
0000
0000
0000
,
0000
0000
0000
0000
,
0000
0000
0000
0000
,
0000
0000
0000
0000
,
0000
0000
0000
0000
,
0000
0000
0000
0000
,
0000
0000
0000
0000
,
0000
0000
0000
0000
,
0000
0000
0000
0000
,
0000
0033
0000
0000
;

//---------------dance-single - J. Nero----------------
#NOTES:
     dance-single:
     J. Nero:
     Medium:
     21:
     1.000,1.000,0.725,0.136,1.000,1488.000,128.000,24.000,0.000,11.000:
0000
0000
0000
0000
,
1001
0000
0001
0101
0000
0100
1010
0000
,
0010
0101
0000
0100
0110
0010
1000
0100
,
0110
0000
0010
0011
0000
0001
1001
0000
,
1000
1010
0000
0001
0101
0100
0001
0010
,
0110
0000
0100
1100
0000
1000
1001
0000
,
0001
0101
0000
1000
1100
0100
0010
0001
,
1001
0000
1000
1010
0000
0001
0101
0000
,
1001
1000
0100
0010
0001
0001
0001
1000
,
1010
0000
0001
0101
0000
0100
0110
0000
,
0010
1010
0000
1000
1100
0010
0001
1000
,
1010
0000
0010
0101
0000
0100
1010
0000
,
0010
0110
0000
0100
0101
0001
0010
0100
,
1100
0000
1000
1001
0000
0001
0101
0000
,
0001
0011
0000
0010
0110
0100
1000
0001
,
0101
0000
0100
1010
0000
0010
0101
0000
,
1001
1000
0100
0010
0001
0001
0001
1000
,
1010
0110
0000
0101
,
0000
0110
0000
1010
,
0000
1100
0000
0110
,
0000
0011
0000
1111
,
1000
0001
0010
0001
0100
0010
1000
0001
1000
0100
0010
0001
0100
0001
1000
0010
,
0100
0010
1000
0001
0010
0100
1000
0010
0100
0001
0100
0010
1000
0001
1000
0100
,
0010
0100
1000
0010
0100
0001
1000
0100
0010
0001
0100
0001
1000
0010
0100
0001
,
0010
0100
1000
0001
0100
0010
0100
0001
1000
0100
1000
0010
0100
0001
0010
0100
,
1000
1001
0000
0011
,
0000
0110
0000
1100
,
0000
1001
0000
1010
,
0000
0110
0000
1111
,
0001
0100
0001
0010
0100
1000
0001
1000
0010
0100
0001
1000
0100
1000
0010
0100
,
0010
1000
0001
1000
0100
0010
0001
1000
0001
0100
0001
0010
0100
1000
0001
0100
,
0010
1000
0100
0010
0001
1000
0001
0100
0010
1000
0001
0010
0100
0010
0001
0100
,
0010
1000
0010
0100
0001
1000
0001
0010
0100
1000
0010
0100
0001
1000
0100
1000
,
0001
0001
0010
0100
1000
1000
0010
0100
,
0001
0001
0010
0100
1000
1000
0001
0100
,
0010
0010
1000
0001
0010
0010
0100
1000
,
0001
0001
0100
0010
1000
0100
0010
0022
,
0000
0000
0000
0033
0000
0000
2002
0000
0000
3003
0000
0000
1000
0100
1000
0010
0100
0001
1000
0001
0010
0100
1000
0001
,
0100
0001
1000
0010
0100
0010
1000
0001
0010
0100
1000
0001
0100
0001
1000
0100
1000
0001
0100
0010
1000
0002
0000
0000
,
0000
0003
1001
0000
1100
0000
0100
0010
,
0011
0000
0001
1000
0100
0000
1000
0010
,
0110
0100
0001
0100
0100
1000
0010
0010
,
0001
1000
0100
0100
0001
1000
0010
0010
,
0001
1000
0100
0100
0001
0010
0100
0100
,
0002
0000
0100
0000
0103
0001
1000
0100
,
2200
3300
0000
1000
,
2002
3003
0000
0001
,
0202
0303
0000
0000
,
0110
0000
0000
0000
,
1001
0001
0010
0110
0100
1000
1001
0000
,
0001
0100
0001
0010
0100
1000
0010
0100
0010
1000
0001
1000
0100
0010
0001
0100
,
0001
1000
0100
0010
0100
1000
0010
0100
0001
1000
0100
0010
0001
0100
0010
1000
,
0010
0000
0000
0100
0000
0000
0001
0000
0000
1000
0000
0000
0001
0000
1000
0000
0001
0000
0010
0000
0100
0000
0010
0000
0001
0000
0100
0000
0010
0000
1000
0000
0010
0000
0100
0000
0001
0000
0100
0000
0001
0000
1000
0000
0010
0000
0100
0000
,
0010
0000
1000
0000
0001
0000
1000
0000
0100
0000
0010
0000
0001
0000
1000
0000
0001
0000
0100
0000
0010
0000
1000
0000
0001
0000
0000
0100
0000
0000
0010
0000
0000
0100
0000
0000
0001
0000
0000
1000
0000
0000
0100
0000
0000
0010
0000
0000
,
0001
0100
0001
1000
0100
0010
0100
1000
0001
0100
0010
1000
0010
0100
0001
1000
,
0100
0000
0000
0010
0000
0000
0001
0000
0000
0100
0000
0000
0001
0000
0000
1000
0000
0000
0100
0000
0000
1000
0000
0000
0010
0000
0000
0100
0000
0000
0001
0000
0000
1000
0000
0000
0001
0000
1000
0000
0010
0000
0100
0000
0010
0000
1000
0000
,
0001
0010
0001
0100
0010
1000
0001
1000
0100
0010
0001
0100
0001
1000
0010
0100
0010
1000
0001
0010
0100
1000
0010
1000
,
0001
0000
0100
0000
0001
0000
0100
0000
0010
0000
1000
0000
0001
0000
1000
0000
0100
0000
0010
0000
0001
0000
0100
0000
0001
0000
0000
0100
0000
0000
0010
0000
0000
1000
0000
0000
0010
0000
0000
0100
0000
0000
0001
0000
0000
1000
0000
0000
,
0100
0010
0001
0100
0001
1000
0100
0010
0100
1000
0001
0100
0010
1000
0010
0100
,
0001
1000
0100
0010
0001
0100
0001
1000
0100
0010
0100
1000
0010
0100
0001
0010
,
0001
1000
0100
0010
0001
1000
0001
0100
0010
0100
0001
1000
0100
1000
0010
0100
,
0001
0010
0100
1000
0001
0100
0010
1000
0010
0100
0001
1000
0100
0010
0001
0100
,
0001
1000
0100
1000
0010
0100
0010
1000
0001
0010
0100
1000
0001
0100
0010
0100
,
0001
0000
0000
1000
0000
0000
0100
0000
0000
0010
0000
0000
0100
0000
0000
1000
0000
0000
0010
0000
0000
0100
0000
0000
0001
0000
0000
1000
0000
0000
0100
0000
0000
0010
0000
0000
0001
0000
0010
0000
0001
0000
1000
0000
0001
0000
1000
0000
,
0010
0100
0001
1000
0010
0100
0010
1000
0001
1000
0100
0010
0001
1000
0001
0100
0010
1000
0001
0010
0100
1000
0001
0100
,
0001
0000
0100
0101
0000
0001
1001
0000
,
1100
0000
0100
0110
0000
0010
0011
0000
,
0001
1001
0000
1000
1100
0100
0010
0001
,
1001
0000
1000
1010
0000
0100
0101
0001
,
0010
0000
0000
0100
0000
0000
1000
0000
0000
0001
0000
0000
1000
0000
0000
0010
0000
0000
0100
0000
0000
0001
0000
0000
1000
0000
0000
0100
0000
0000
0010
0000
0000
0001
0000
0000
1000
0000
0001
0000
1000
0000
0010
0000
0100
0000
0010
0000
,
1000
0001
1000
0100
0010
0001
1000
0001
0100
0010
1000
0001
0010
0100
0010
0001
0100
0010
1000
0001
1000
0100
0010
0001
,
0100
0001
1000
0010
0100
0001
0010
0100
1000
0010
0100
0001
1000
0000
0000
0001
0000
0000
0010
0000
0000
0100
0000
0000
,
1100
0000
1000
1010
0000
0010
0101
0000
,
0110
0100
0001
0010
0100
1000
0001
1000
,
1001
0101
0000
0110
,
0000
1010
0000
1100
,
0000
0110
0000
0011
,
0000
0000
1001
0000
0101
0100
0001
0010
,
0100
1000
0001
0010
0001
0100
0010
1000
0100
0010
0001
0100
0001
1000
0100
0010
,
0100
1000
0010
0100
0010
1000
0001
1000
0100
0010
0001
0100
0001
1000
0010
0100
,
0010
1000
0001
0010
0001
0100
0010
1000
0010
0100
0001
1000
0100
0010
0001
0100
,
0001
1000
0100
1000
0010
0100
0010
1000
0100
0010
0001
0100
0001
1000
0010
0100
,
0001
0100
0001
0010
0110
0100
1000
0001
,
0101
0100
0010
1000
1100
0100
0010
0001
,
1002
1003
0010
0100
0101
0001
0010
0100
,
1100
0100
1000
0001
0100
0010
1010
0000
,
1000
0100
1000
0010
0100
0001
1000
0100
0010
0001
0100
0001
1000
0010
0100
0010
,
1000
0001
0010
0001
0100
0010
1000
0100
0010
0001
0100
0001
1000
0010
1000
0001
,
0010
0100
0010
0001
0100
0010
1000
0100
0010
0001
0100
0001
1000
0100
1000
0010
,
0100
0010
1000
0100
0010
0001
0100
0001
1000
0100
0010
0100
1000
0010
0100
0001
,
1000
1000
0001
0100
0010
0010
1000
0100
,
0010
0010
0001
0100
0010
0010
1000
0100
,
1000
1000
0001
0100
0001
0001
1000
0010
,
0100
0100
0001
0010
0100
0100
1000
2002
,
0000
0000
0000
3003
0000
0000
0202
0000
0000
0303
0000
0000
0100
0001
1000
0100
0010
0001
0100
0010
1000
0010
0100
0001
,
0010
0100
1000
0010
0100
0010
1000
0100
0010
0001
0100
0001
1000
0000
0000
0010
0000
0000
0100
0000
0000
0202
0000
0000
,
0000
0303
2002
3003
1010
0000
0010
0100
,
0101
0000
0001
0010
0110
0000
0100
1000
,
1001
0001
1000
0100
0100
0001
0010
0010
,
1000
0001
0100
0100
1000
0001
0010
0010
,
1000
0001
0100
0100
1000
0001
0010
0010
,
2000
0000
0100
0000
3100
1000
0001
0100
,
0101
0001
0100
0100
1000
0010
0100
0100
,
1000
0001
0010
0010
0100
0001
0100
0100
,
1000
0001
0010
0010
0100
0001
0100
0100
,
1000
0000
0000
0000
,
0001
0100
0001
0010
0100
1000
0001
0100
0010
0100
0001
1000
0100
1000
0010
0100
,
0001
0010
0100
1000
0010
0100
0001
1000
0100
0010
0001
0100
0001
1000
0100
1000
,
0010
0000
0000
0100
0000
0000
0001
0000
0000
1000
0000
0000
0001
0000
1000
0000
0001
0000
0100
0000
0010
0000
1000
0000
0010
0000
0100
0000
0001
0000
1000
0000
0001
0000
0100
0000
0010
0000
1000
0000
0001
0000
1000
0000
0100
0000
0010
0000
,
0001
0000
0100
0000
0001
0000
1000
0000
0010
0000
0100
0000
0001
0000
0100
0000
0001
0000
1000
0000
0100
0000
0010
0000
0001
0000
0000
0100
0000
0000
0001
0000
0000
1000
0000
0000
0010
0000
0000
0100
0000
0000
0010
0000
0000
1000
0000
0000
,
0001
1000
0100
0010
0001
0100
0001
1000
0100
0010
0100
1000
0010
0100
0001
0010
,
0100
0000
0000
1000
0000
0000
0010
0000
0000
0100
0000
0000
0001
0000
0000
1000
0000
0000
0100
0000
0000
1000
0000
0000
0010
0000
0000
0100
0000
0000
0001
0000
0000
1000
0000
0000
0001
0000
0100
0000
0010
0000
1000
0000
0001
0000
0010
0000
,
0001
0100
0010
1000
0001
0100
0010
1000
0100
0010
0001
0100
0001
1000
0100
0010
0100
1000
0001
0100
0010
1000
0100
1000
,
0001
0100
0000
0001
1001
0000
1100
1000
,
0001
0100
0010
1000
0100
0010
0001
0100
0001
1000
0100
0010
0100
1000
0010
0100
,
0001
0010
0001
1000
0100
1000
0010
1000
0001
0100
0001
1000
0100
0010
0001
0100
,
0001
1000
0100
0010
0100
1000
0010
0100
0001
1000
0100
1000
0010
0100
0001
1000
,
0001
0100
0010
1000
0001
1000
0100
0010
0001
0100
0001
1000
0001
0010
0100
1000
,
0010
0100
0010
1000
0001
1000
0100
0010
0100
1000
0010
0100
0001
0010
0001
0100
,
0010
0000
0000
1000
0000
0000
0100
0000
0000
0010
0000
0000
0001
0000
0000
0100
0000
0000
0010
0000
0000
1000
0000
0000
0100
0000
0000
1000
0000
0000
0010
0000
0000
0100
0000
0000
0001
0000
0010
0000
0001
0000
0100
0000
0001
0000
1000
0000
,
0010
0100
0010
1000
0001
0010
0001
0100
0010
1000
0001
1000
0100
0010
0001
0100
0001
1000
0100
0010
0100
1000
0001
1000
,
0010
0100
0001
1000
0100
0010
0001
0100
0010
1000
0100
0010
0001
0100
0001
1000
,
0100
0010
0001
0100
0001
1000
0100
1000
0001
0100
0010
1000
0010
0100
0001
1000
,
0100
0010
0001
0100
0001
1000
0100
0010
0100
1000
0001
0100
0010
0100
0001
1000
,
0100
0000
0000
0010
0000
0000
0001
0000
0000
0100
0000
0000
0001
0000
1000
0000
0001
0000
0010
0000
0100
0000
1000
0000
0001
0000
0100
0000
0010
0000
0100
0000
0001
0000
1000
0000
0100
0000
1000
0000
0010
0000
0100
0000
0001
0000
1000
0000
,
0001
0000
0010
0000
0100
0000
1000
0000
0001
0000
0100
0000
0010
0000
1000
0000
0100
0000
1000
0000
0001
0000
0100
0000
0010
0000
0100
0000
0001
0000
1000
0000
0100
0000
0010
0000
0001
0000
0000
0100
0000
0000
0001
0000
0000
1000
0000
0000
,
0100
1000
0010
0100
0001
1000
0100
0010
0001
0100
0001
1000
0010
0100
0001
1000
,
0100
0000
0000
1000
0000
0000
0001
0000
0000
0100
0000
0000
0010
0000
0000
0100
0000
0000
0001
0000
0000
1000
0000
0000
0100
0000
0000
0010
0000
0000
0001
0000
0000
1000
0000
0000
0001
0000
0100
0000
0010
0000
1000
0000
0010
0000
0100
0000
,
0001
0100
0001
1000
0100
0010
0100
1000
0001
1000
0010
0100
0001
0100
0010
1000
0001
1000
0100
0010
0001
0100
0010
1000
,
0001
0100
0001
0010
0100
1000
0010
0100
,
0101
0001
1101
1000
,
1010
0010
0111
0100
,
1010
1000
1011
0001
,
0110
1000
1101
0001
,
0011
0010
1110
0100
,
1100
1000
1101
0001
,
1010
1000
1101
0001
,
0101
0100
1101
0001
,
1111
0000
1000
0001
,
1001
0000
0000
0001
1000
0100
0010
0000
0000
0000
0000
0000
,
0022
0000
0000
0000
,
0000
0000
0000
0000
,
0000
0000
0000
0000
,
0000
0000
0000
0000
,
0000
0000
0000
0000
,
0000
0000
0000
0000
,
0000
0000
0000
0000
,
0000
0000
0000
0000
,
0000
0000
0000
0000
,
0000
0000
0000
0000
,
0000
0033
0000
0000
;
